<?xml version="1.0" standalone="no"?>
<!DOCTYPE svg PUBLIC "-//W3C//DTD SVG 1.1//EN" "http://www.w3.org/Graphics/SVG/1.1/DTD/svg11.dtd" >
<svg xmlns="http://www.w3.org/2000/svg">
<metadata></metadata>
<defs>
<font id="pristinaregular" horiz-adv-x="819" >
<font-face units-per-em="2048" ascent="1638" descent="-410" />
<missing-glyph horiz-adv-x="369" />
<glyph horiz-adv-x="2048" />
<glyph horiz-adv-x="2048" />
<glyph unicode="&#xd;" horiz-adv-x="2048" />
<glyph unicode=" "  horiz-adv-x="369" />
<glyph unicode="&#x09;" horiz-adv-x="369" />
<glyph unicode="&#xa0;" horiz-adv-x="369" />
<glyph unicode="!" horiz-adv-x="492" d="M81 46q0 11 7 42q7 35 14 69q9 31 28 31q7 0 15 -4q86 -34 86 -55q0 -8 -6 -20q-15 -35 -35 -134q-8 -20 -34 -8q-75 33 -75 79zM179 413q0 13 5 36q56 240 166 547q87 246 123 313q29 54 53 54q5 0 29 -7q102 -28 102 -56q0 -17 -32 -22q-191 -328 -340 -852 q-14 -46 2 -74q3 -5 3 -9q0 -11 -15 -11q-21 0 -52 22q-44 32 -44 59z" />
<glyph unicode="&#x22;" horiz-adv-x="565" d="M213 944q0 21 10 19q52 164 70 335q4 41 5 47q4 17 15 21q9 3 72 -76q21 -26 21 -55q6 -71 -48 -223q-51 -147 -75 -147q-5 0 -11 3q-51 31 -59 76zM451 946q-2 19 10 19q52 160 69 335q5 41 6 47q4 17 15 21q9 3 72 -76q17 -22 20 -55q6 -66 -49 -223q-51 -146 -75 -146 q-4 0 -9 2q-54 32 -59 76z" />
<glyph unicode="#" horiz-adv-x="1079" d="M57 316l2 8q8 16 31 71q12 30 19 34q14 10 65 5q37 -3 105 -10l92 254q-74 4 -114 4q-53 0 -71 -8q-4 -2 -26 -23q-11 -10 -24 -9q-14 1 -14 11q0 4 3 9q0 -6 31 71q11 30 17 33q14 9 67 4q56 -4 159 -12l17 45q33 92 33 167q0 24 -9 41.5t-9 23.5q0 23 28 20l82 -11 q38 -10 26 -75l-78 -219q105 -9 201 -9q50 0 107 2q13 35 22 60q34 89 34 167q0 23 -9.5 41t-9.5 24q0 23 28 20l80 -11q41 -10 29 -75l-80 -219q94 8 127 45q12 13 29 11q16 -3 16 -15q-9 -19 -19 -72q-6 -37 -24 -46q-8 -4 -53 -7q-30 -2 -107 -2l-90 -252q152 8 184 47 q12 12 28 9q15 -3 13 -15q-9 -27 -16 -72q-5 -33 -9 -37q-12 -12 -67 -14q-87 -4 -164 -4l-18 -54q-46 -132 -46 -205q0 -18 7.5 -32.5t7.5 -21.5q0 -24 -29 -24q-11 0 -24 5l-53 18q-30 11 -30 49q0 16 7 35l84 230q-8 0 -305 12q-6 -16 -23 -66q-45 -133 -45 -205 q0 -18 7.5 -32.5t7.5 -21.5q0 -24 -29 -24q-11 0 -25 5l-51 18q-30 11 -30 47q0 17 8 37l90 246q-117 4 -156 -29q-9 -10 -23 -9t-14 12zM369 416q170 -13 305 -8q22 53 94 256q-94 0 -307 8z" />
<glyph unicode="$" horiz-adv-x="791" d="M0 186q0 17 33 88q17 38 31 38q13 0 24 -40q17 -61 162 -125q71 232 158 480q-127 242 -127 354q0 131 168 250q16 12 32 12q26 0 26 -23q0 -13 -13 -26q-82 -77 -78 -174q3 -96 55 -213q88 244 172 434q-38 -19 -64 -19q-30 0 -30 21q0 18 29 33q36 19 102 43 q35 79 82 172q25 50 63 50q5 0 39 -7q23 -4 23 -21q0 -13 -17 -22q-26 -14 -57 -72q-10 -20 -33 -63q6 2 15 6q25 8 38 8q23 0 62 -55q62 -29 67 -32q22 -15 22 -37q0 -16 -9 -44q-42 -128 -103 -223q-25 -40 -52 -40q-26 0 -87 40q-19 13 -19 25q0 18 31 28q23 8 54.5 86 t31.5 119t-36 41q-19 0 -56 -8q-99 -219 -225 -551q59 -108 118 -215q58 -112 58 -172q0 -170 -176 -275q-50 -77 -131 -77q-45 0 -102 14q-12 -46 -19 -94q-9 -67 0 -86q13 -28 -15 -28q-9 0 -20 9q-52 43 -52 92q0 20 7 43q15 47 27 88q-107 43 -170 101q-39 35 -39 67z M313 123q78 -25 125 -25q125 0 117 164q-5 91 -104 283q-95 -269 -138 -422z" />
<glyph unicode="%" horiz-adv-x="1159" d="M95 20q0 27 24 62l723 1026q116 164 116 248q0 9 -5 22t-5 21q0 21 19 21q9 0 20 -7l62 -41q27 -18 27 -45q0 -24 -19 -61l-709 -1014q-135 -194 -135 -271q0 -7 4 -19.5t4 -20.5q0 -21 -17 -21q-10 0 -22 8l-61 43q-26 19 -26 49zM195 969q-1 68 45 190q52 137 112 187 q33 27 55 27q23 0 82 -52q79 37 93 37q29 0 64 -48t35 -88q0 -30 -19 -89q-61 -189 -142 -267q-42 -41 -125 -41q-21 0 -39 6q-160 26 -161 138zM307 957q0 -95 60 -95q72 0 137 131q55 110 74 236q6 44 3 55q-4 15 -30 12q-35 -8 -88 -24q-43 -9 -47 -2q-73 -93 -103 -248 q-6 -36 -6 -65zM522 119q-1 69 46 192q51 137 112 187q32 26 54 26t83 -53q79 37 93 37q28 0 63 -48t35 -89q0 -30 -19 -88q-63 -195 -141 -269q-38 -35 -125 -39q-21 0 -39 7q-160 25 -162 137zM634 106q0 -96 60 -96q73 0 138 132q54 111 73 237q10 67 -13 67q-5 0 -13 -2 q-35 -6 -88 -20q-42 -15 -48 -4q-72 -92 -102 -250q-7 -35 -7 -64z" />
<glyph unicode="&#x26;" horiz-adv-x="1460" d="M20 170q0 96 211 287q148 136 347 274q-91 239 -91 383q0 46 125 46q52 0 103 -7q47 -6 43 -33q133 -6 188 -37q33 -18 33 -56q0 -12 -10 -103q-5 -40 -79 -102q-37 -31 -177 -132q8 -19 25.5 -58t25.5 -59q47 -2 104 -2q313 0 389 39q48 25 52 52q4 17 28 17 q21 0 21 -26q0 -40 -14 -96q-18 -68 -44 -88q-15 -12 -164 -13q-87 1 -174 1q-74 -1 -139 -6q123 -252 233 -417q124 -186 185 -186q56 1 133 60q9 6 20 6q25 0 25 -21q0 -11 -10 -26q-29 -42 -98 -102q-79 -70 -115 -70q-136 0 -491 741q-18 -1 -30 -1q-45 0 -45 19 q0 18 40 60q-27 55 -49 109v2q-436 -331 -465 -508q-7 -39 28 -51q26 -9 66 -3q162 28 344 154q15 11 24 35.5t29 36.5q49 28 63 28q26 0 29 -45q5 -54 -3 -73q-7 -15 -38 -35q-69 -45 -201 -109q-187 -90 -270 -90q-72 0 -114 80q-93 71 -93 125zM610 1020q0 -60 62 -227 q81 55 146 117q59 56 63 73q5 28 -83 67q-81 35 -118 35q-70 0 -70 -65z" />
<glyph unicode="'" horiz-adv-x="328" d="M213 961q0 20 10 20q52 162 70 336q4 39 6 46q3 16 14 19q10 3 72 -75q21 -26 21 -56q6 -69 -48 -221q-51 -147 -77 -147q-5 0 -9 2q-50 24 -59 76z" />
<glyph unicode="(" d="M204 46q0 21 3 46q44 367 221 840q195 521 336 520q88 -1 225 -98q20 -14 20 -29q0 -24 -31 -24q-9 0 -17 4q-82 38 -127 38q-108 0 -275 -413q-162 -403 -219 -789q-8 -52 -8 -84q0 -64 35 -98q30 -30 125 -70q27 -11 27 -39q0 -23 -22 -23q-5 0 -10 1q-157 34 -215 75 q-68 48 -68 143z" />
<glyph unicode=")" d="M-61 -57q0 25 34 25q9 0 17 -3q85 -33 129 -33q100 0 256 380q162 393 225 823q5 34 5 62q0 77 -42 121q-33 34 -121 73q-25 11 -25 34q0 31 36 23q163 -38 222 -82q63 -46 63 -135q0 -21 -3 -47q-42 -346 -203 -807q-195 -558 -362 -555q-91 2 -217 98q-14 11 -14 23z " />
<glyph unicode="*" horiz-adv-x="543" d="M252 1200q-3 9 6 39q11 34 28 34q9 0 23 -5q62 -25 99 -43q-3 32 -9 108q-2 34 17 39q9 2 28 2q46 0 43 -41q-3 -66 -8 -106q40 17 101 41q16 6 24 6q16 0 27 -35q14 -45 -27 -55l-102 -25q20 -24 69 -82q15 -17 15 -26q0 -12 -27 -31q-22 -16 -33 -16q-13 0 -26 22 q-20 31 -56 90q-17 -26 -57 -90q-14 -24 -25 -24q-10 0 -34 17.5t-24 30.5q0 11 13 27q23 28 70 82q-17 3 -106 25q-25 6 -29 16z" />
<glyph unicode="+" horiz-adv-x="868" d="M137 436q4 12 15 70q7 44 96 35t186 -13q12 45 33 142q18 93 4 104q-13 11 -9 26t19 13q4 -1 48.5 -27t44.5 -50q0 -13 -7 -36q-19 -69 -45 -176q25 0 125 -2q92 -2 103 19q7 14 23 12q15 -1 15 -16t-14 -53t-23 -46q-15 -13 -55 -10q-114 8 -196 10q-6 -23 -29 -135 q-15 -74 -16 -87q-2 -19 10 -28q7 -8 3 -22q-3 -15 -15 -15q-4 0 -9 3q-11 6 -63 28q-29 11 -29 41q0 19 15 62q24 73 45 155q-41 2 -125 2q-103 0 -113 -18q-7 -12 -24 -9q-17 4 -13 21z" />
<glyph unicode="," horiz-adv-x="410" d="M-15 -185q0 29 31 142q45 161 86 215q18 23 45 33q92 32 97 24q8 -14 -21 -67q-83 -157 -135 -320q21 -10 -16.5 -34t-71.5 -19q-15 2 -15 26z" />
<glyph unicode="-" horiz-adv-x="743" d="M83 335q0 4 1 7q4 19 18 82q11 45 24 45q9 0 24 -4q235 -70 366 -72q48 0 67 13q11 7 23 34q7 15 19 11q12 -3 10 -19q-3 -18 -10 -84q-4 -36 -7 -42q-7 -13 -36 -13q-142 0 -379 57q-32 8 -49 8q-27 0 -43 -30q-6 -10 -14 -10q-14 0 -14 17z" />
<glyph unicode="." horiz-adv-x="410" d="M-15 -4q-4 11 9 14q52 118 63 164q11 42 31 42q17 0 68 -17q25 -9 25 -34q0 -21 -40 -116q-31 -74 -69 -74q14 0 -72 9q-12 1 -15 12z" />
<glyph unicode="/" d="M11 18q0 28 24 64l684 1026q105 158 105 237q0 9 -4 22t-4 21q0 29 26 29q8 0 16 -4l100 -41q27 -18 27 -45q0 -25 -18 -61l-674 -1014q-129 -194 -129 -271q0 -6 3 -16.5t3 -17.5q0 -36 -35 -36q-19 0 -43 17l-57 43q-24 18 -24 47z" />
<glyph unicode="0" horiz-adv-x="866" d="M56 232q0 45 10 114q22 155 119 356q93 191 175 269q40 37 74 37q15 0 129 -54q16 2 78 10q51 6 79 6q120 0 120 -112q0 -317 -113 -598q-121 -299 -276 -299q-124 0 -232 47q-42 19 -37 33q-74 48 -94 73q-32 41 -32 118zM184 205q0 -51 42 -97q38 -43 93 -63 q29 -10 54 -10q66 0 135 76q82 90 142 293q59 200 59 380q0 113 -97 113q-25 0 -84 -8q-29 10 -36 8q-11 0 -74 -59q-96 -90 -166 -286q-68 -189 -68 -347z" />
<glyph unicode="1" horiz-adv-x="516" d="M22 475q0 15 17 29q180 144 334 422q15 27 22 31q9 4 33 -5q24 52 60 52q35 0 100 -43q19 -13 19 -27q0 -27 -52 -31q-92 -122 -167 -334q-79 -223 -103 -444q-7 -63 12 -96q7 -12 7 -25q0 -30 -31 -30q-15 0 -37 10q-65 28 -76 37q-24 18 -24 56q0 28 11 85 q70 340 172 543q-98 -109 -233 -248q-13 -11 -30 -11q-34 0 -34 29z" />
<glyph unicode="2" horiz-adv-x="895" d="M-6 -2q5 72 22.5 123t76.5 51q11 0 118 -10q217 175 391 391q90 112 90 240q0 40 -9 54q-15 22 -63 22q-18 0 -40 -3q-122 -14 -275 -133q-36 -28 -36 -58q0 2 10 -54q5 -32 -12 -32q-16 0 -36 19q-24 24 -61 70q-29 43 -29 69q0 27 31 50q300 216 465 211q39 -2 80 -74 q81 18 70 18q44 0 44 -123q0 -107 -12 -144q-24 -74 -127 -179q-203 -208 -391 -359q246 -17 498 -118q62 -25 62 -82q0 -20 -13 -68q-7 -23 -31 -26q-17 0 -33 26q-4 11 -9 22q-11 14 -54 27q-269 85 -499 85q-36 0 -70 -3q-17 -18 -56 -59q-16 -16 -61 -6q-44 16 -41 53z " />
<glyph unicode="3" horiz-adv-x="784" d="M-251 -214q0 24 27 24q12 0 23 -7q86 -51 137 -51q64 0 185 47q148 58 289 160.5t198 194.5q28 43 28 78q0 47 -46 75q-109 68 -246 68q-26 0 -53 -2q-15 -1 -43.5 -7.5t-39.5 -6.5q-26 0 -30 24q-8 46 -8 109q0 28 51 53q149 71 201 105q89 57 141 136q20 31 20 52 q0 37 -57 37q-63 0 -143 -41q-159 -84 -174 -148q-7 -28 -25 -28q-11 0 -20 14q-53 77 -53 97q0 34 45 67q146 106 295 153q38 12 62 12q31 0 49 -22q16 -27 32 -53q90 -61 90 -129q0 -47 -49 -90q-117 -103 -326 -230q233 -24 373 -121q44 -30 44 -56q0 -14 -21 -58 q22 -39 22 -84q0 -69 -49 -123q-144 -157 -343 -282q-218 -138 -355 -138q-65 0 -124 47q-13 11 -92 92q-15 17 -15 32z" />
<glyph unicode="4" horiz-adv-x="948" d="M-27 115q-2 55 43 65q77 69 144 143q159 176 241 347l-57 90q-4 7 -4 13q0 27 41 22q14 -2 39 34q49 73 119 189q13 27 39 27q15 0 77 -31q23 -12 23 -30q0 -15 -14 -50q-74 -181 -244 -421q-144 -205 -256 -316q-15 -18 22 -23q229 -28 385 -12q75 280 158 469 q24 55 54 66q5 1 53 1q31 0 31 -10q0 -7 -19 -26q-37 -38 -90 -198q-48 -141 -80 -292q93 0 113 43q2 10 22 21q23 0 29 -21l18 -88q6 -28 6 -36q0 -34 -61 -44q-66 -10 -154 -10q-31 -146 -41 -275q-2 -31 3 -38.5t12 -14.5q3 -5 3 -11q0 -30 -31 -30q-7 0 -13 2 q-37 14 -90 45q-18 20 -18 43q0 27 61 277q-305 -9 -457 4q-10 -27 -18 -32q-9 -5 -44 1q-24 5 -32 21q-10 20 -13 86z" />
<glyph unicode="5" horiz-adv-x="891" d="M-201 -376q0 28 26 28q9 0 19 -6q59 -37 105 -37q68 0 221 119q163 127 296 295q157 197 204 372q8 30 8 54q0 88 -93 88q-26 0 -57 -9q-140 -39 -311 -166q-3 -1 -19 -26.5t-29 -25.5q-9 0 -19 12q-41 48 -74 131q-13 33 8 75q106 212 129 351q0 3 -19.5 44t-19.5 64 q0 9 4 20q15 36 105 21q258 -43 452 -43q27 54 51 53q23 -1 30.5 -5t10.5 -25q13 -78 13 -138q0 -42 -44 -42q-12 0 -26 3q-292 62 -418 62q-33 0 -43 -23q-107 -254 -133 -356q3 -5 6 -11q8 1 29 13q262 144 361 144q76 0 106 -78q75 -32 101 -54q33 -29 33 -73 q0 -31 -15 -80q-68 -212 -242 -436q-149 -191 -326 -335q-165 -133 -245 -141q-40 -3 -74 27q-78 69 -103 109q-8 13 -8 25z" />
<glyph unicode="6" horiz-adv-x="924" d="M61 150q0 316 123 643q104 277 260 480q144 189 232 191q63 2 180 -86q15 -11 15 -24q0 -23 -25 -17q-55 13 -135 -8q-62 -16 -182 -178q-136 -184 -225 -411q-109 -280 -109 -547q0 -122 81 -144q17 -4 35 -4q65 0 133 51q80 60 180 241t124 310q4 26 4 44q0 51 -38 51 q-19 0 -71 -17q-124 -40 -237 -109q-9 -5 -19 -5q-32 0 -32 29q0 13 14 24q119 92 249 147q40 17 71 17q50 0 95 -62q68 -27 74 -31q23 -16 23 -53q0 -27 -11 -84q-27 -144 -130 -319q-97 -164 -197 -252q-64 -57 -149 -57q-55 0 -103 22q-230 21 -230 158z" />
<glyph unicode="7" horiz-adv-x="838" d="M-10 -456q0 33 39 102q171 304 195 346q118 202 501 835q-146 29 -358 21q-128 -5 -189 -133q-16 -35 -44 -35q-23 0 -23 29q0 7 2 16q28 128 65 223q24 61 92 61q30 0 80 -8q138 -20 412 -53q18 48 22 52q13 18 47 18q35 0 46 -15t16 -73q5 -53 -16 -78q-2 -2 -50 -35 q-44 -30 -318 -550q-280 -532 -335 -705q-16 -43 -31 -86q-14 -38 -12 -64q3 -43 -12 -43q-10 0 -29 17q-44 38 -84 110q-16 29 -16 48z" />
<glyph unicode="8" horiz-adv-x="973" d="M4 246q0 40 31 94q57 98 237 248l222 182q-143 98 -142 242q2 219 275 428q46 35 81 35q49 0 123 -72q14 -13 14 -23q0 -19 -28 -19q-6 0 -19 2t-20 2q-110 0 -214 -152q-95 -137 -95 -238q0 -47 31 -88q28 -30 55 -60q137 117 242 237q123 140 129 210q1 11 1 21 q0 47 -46 81q-12 11 -12 26q0 31 31 31q13 0 28 -10q147 -99 147 -184q0 -55 -53 -115q-69 -77 -219.5 -201t-175.5 -153q4 -3 115 -88q66 -51 116 -109q46 -53 46 -125q0 -132 -142 -262q-236 -215 -481 -215q-63 0 -115 92l-112 88q-50 46 -50 95zM154 199 q0 -101 161 -101q142 0 307.5 142.5t165.5 265.5q0 81 -223 203q-68 -57 -132 -121q-152 -152 -255 -314q-24 -37 -24 -75z" />
<glyph unicode="9" horiz-adv-x="932" d="M-74 -476q0 25 32 25q6 0 13 -2q97 -16 140 0q175 69 392 453q221 391 261 719q2 20 2 38q0 75 -36.5 118t-92.5 43q-61 0 -119 -50q-113 -96 -207 -236q-117 -175 -135 -329q-9 -76 58 -76q31 0 75 19q107 46 240 139q19 13 34 13q20 0 20 -17t-21 -39 q-148 -158 -226 -207q-40 -25 -75 -25q-51 0 -131 62q-35 10 -69 19q-48 20 -48 88q0 29 8 67q32 153 159 346q120 183 228 260q71 51 115 51q29 0 86 -24q4 7 15 10q31 7 99 -20q102 -41 137.5 -75t35.5 -88q0 -26 -7 -69q-68 -413 -329.5 -870t-432.5 -467q-84 -5 -206 96 q-15 13 -15 28z" />
<glyph unicode=":" horiz-adv-x="410" d="M-15 -4q-4 11 11 14q25 61 61 164q11 42 31 42q17 0 68 -17q25 -9 25 -34q0 -21 -40 -116q-31 -74 -69 -74q14 0 -72 9q-12 1 -15 12zM122 406q-4 11 9 14q49 111 64 164q11 42 30 42q17 0 68 -18q26 -9 26 -34q0 -22 -40 -115q-33 -75 -71 -75q14 0 -71 9q-11 1 -15 13z " />
<glyph unicode=";" horiz-adv-x="410" d="M-15 -185q0 29 31 142q45 161 86 215q18 23 45 33q92 32 97 24q8 -14 -21 -67q-83 -157 -135 -320q21 -10 -16.5 -34t-71.5 -19q-15 2 -15 26zM122 406q-4 11 9 14q49 111 64 164q11 42 30 42q17 0 68 -18q26 -9 26 -34q0 -22 -40 -115q-33 -75 -71 -75q14 0 -71 9 q-11 1 -15 13z" />
<glyph unicode="&#x3c;" horiz-adv-x="606" d="M101 585q2 8 20 11q94 16 205 54.5t143 68.5q16 28 29 28q16 0 32.5 -39t16.5 -50q0 -21 -53 -44q-95 -38 -238 -84q-21 -4 12 -36q118 -114 191 -215q24 -34 24 -44q0 -11 -32 -18q-24 -5 -37 -5q-20 0 -33 36q-20 56 -193 237q-15 16 -49 33q-23 12 -30.5 37t-7.5 30z " />
<glyph unicode="=" horiz-adv-x="868" d="M123 334q3 12 14 69q5 29 40 31q1 0 56 -6q160 -16 400 -18q92 -1 102 18q8 14 23 13q16 -2 16 -17q0 -5 -14 -42.5t-24 -45.5q-14 -13 -54 -10q-220 14 -410 14q-102 0 -112 -18q-7 -12 -24 -9q-17 4 -13 21zM164 549q3 7 14 59q8 44 96 35q160 -16 400 -18 q92 -1 102 18q8 14 23 13q16 -2 16 -17t-14 -53q-13 -34 -25 -41t-53 -4q-220 14 -410 14q-102 0 -112 -18q-7 -12 -24 -9q-17 4 -13 21z" />
<glyph unicode="&#x3e;" horiz-adv-x="606" d="M87 302q0 22 54 44q95 39 238 84q21 4 -12 37q-118 114 -191 215q-24 34 -24 43q0 12 32 18q24 5 37 5q20 0 33 -35q20 -56 192 -238q15 -16 49 -33q24 -11 31.5 -36.5t6.5 -29.5q-1 -8 -19 -11q-94 -16 -204 -54q-113 -39 -144 -69q-16 -28 -29 -28q-16 0 -33 39t-17 49 z" />
<glyph unicode="?" horiz-adv-x="956" d="M149 978q0 27 35 62q234 236 439 310q49 17 82 17q56 0 120 -87q54 -9 95 -33q51 -28 51 -63q0 -97 -157 -327q-139 -203 -294 -365q8 2 59 20q44 16 52 16q28 0 28 -28q0 -20 -26 -29q-165 -58 -227 -115q-22 -19 -38 -19q-31 0 -63 93q-2 6 -2 11q0 18 57 65 q149 122 293 318q155 211 166 329q10 100 -94 100q-29 0 -57 -12q-220 -93 -379 -278q-14 -16 -14 -37q0 -12 5 -31t5 -27q0 -24 -26 -24q-22 0 -44 26q-66 81 -66 108zM210 35q4 6 15 4q51 45 131 127q23 29 37 29q20 0 86 -48q21 -15 21 -32q0 -25 -88 -103 q-52 -45 -82 -45q-13 0 -107 45q-8 3 -12 10.5t-1 12.5z" />
<glyph unicode="@" horiz-adv-x="1217" d="M151 366q0 230 99 449q95 212 243 369q167 178 318 184q47 2 96 -12.5t41 -32.5q171 -41 232 -88q91 -69 86 -219q-8 -229 -181 -402q-33 -23 -108 -77q-41 -31 -121 -97q-25 -22 -32 -22q-9 0 -35 19q-22 17 -17 48q32 187 74 295q-62 -100 -166 -218 q-92 -105 -133 -132q-31 -20 -45 -20q-13 0 -37 20q-53 29 -47 78q32 251 270 473q35 32 70 31q24 -1 96 -66q7 -6 7 -12q0 -20 -25 -10q-51 19 -80 -2q-66 -49 -146 -170q-93 -140 -112 -250q-5 -28 14 -28q25 0 57 32q77 75 167 193t118 180q9 23 25 63q9 33 20 33 q4 0 47 -29q33 -26 23 -53q-55 -150 -101 -381q33 19 93 59q75 63 102 117q81 162 74 330q-5 100 -42 154q-32 46 -110 85q-53 28 -121 25q-271 -10 -497 -500q-112 -242 -112 -420q0 -55 9 -106q15 -80 239 -80q106 0 173 23q91 30 185.5 102.5t139.5 149.5q17 28 32 35 q14 7 14 -11q0 -13 -9 -35q-50 -135 -155 -221q-38 -31 -100 -65q-72 -40 -83 -48q-40 -27 -158 -27q-148 0 -190 52q-166 9 -196 174q-5 24 -5 61z" />
<glyph unicode="A" horiz-adv-x="1311" d="M4 20q-2 6 -2 13q0 25 37 49q62 40 170 135t141 137q-9 91 -9 95q2 57 43 74q36 15 128 20q248 302 399 590q-49 -26 -176 -67q-203 -66 -280 -93q-109 -39 -109 -136q0 -20 4 -44q6 -37 -19 -37q-18 0 -26 16q-55 115 -65 162q-9 42 -9 44q0 35 33 64q60 51 228 76 q252 38 434 119q22 22 24 25q5 7 10.5 27t19.5 20q23 0 69 -49q15 -17 15 -34q0 -10 -34 -69q-74 -131 -198 -317q-138 -208 -214 -295q238 0 373 12q14 140 61 399l48 254q15 108 145 158q20 8 33 8q22 0 22 -19q0 -18 -20 -46q-62 -89 -117 -477q-45 -323 -45 -512v-23 q4 -192 63 -192q11 0 31.5 8t31.5 8q20 0 20 -15q0 -11 -15 -24q-50 -44 -153 -98q-25 -13 -43 -13q-76 0 -76 300q0 86 6 196q-240 -14 -453 -39l-198 -242q53 6 40 6q48 0 74 -98q7 -23 7 -36q0 -24 -21 -24q-10 0 -29.5 5t-30.5 5q-85 0 -229 -91l-43 -27q-8 0 -30 15 q-47 32 -66 77z" />
<glyph unicode="B" horiz-adv-x="1325" d="M103 878q0 22 34 64q66 79 228 181q159 100 290 147q8 52 8 73q0 7 -1 11q-6 28 17 28q11 0 26 -14q39 -39 39 -58q0 -3 -1 -5q212 61 296 61h5q60 -2 96 -34q23 -22 58 -87q31 2 49 -15q19 -19 19 -58v-7q-15 -260 -181 -426q-37 -37 -99 -67q-56 -28 -93 -31 q239 -147 324 -262q37 -51 37 -93q0 -59 -76 -157q10 -17 10 -33q0 -123 -455 -123q-95 0 -205.5 6.5t-117.5 49.5q-2 10 -2 22q0 35 18 86q11 33 40 33h-2q0 -1 68 -10q23 -3 47.5 -42.5t84.5 -45.5q38 -4 87 -4q214 0 330 53q58 26 58 78q0 61 -68 133q-44 47 -175 142 q-143 103 -198 120q-100 0 -100 37q0 13 88 82q21 16 41 16t47 -16q24 -13 47 -27q98 5 185 109q47 57 91 164q50 121 50 206q0 57 -34 72q-15 7 -50 7q-14 0 -31 -1q-40 -3 -133 -25q-106 -25 -158 -49q-86 -310 -223 -674q-124 -331 -170 -401q-30 -45 -44 -54 q-18 -12 -89 -26q-48 -9 -48 7q0 8 5 22q57 160 57 236q0 50 9 57q4 3 84 31q27 9 34 -23q89 181 173 433q72 216 96 339q-267 -114 -365 -239q-25 -33 -25 -73q0 -25 15 -85q3 -14 3 -23q0 -19 -13 -19q-17 0 -37 23q-100 118 -100 178z" />
<glyph unicode="C" horiz-adv-x="1034" d="M102 252q0 242 127 520q109 241 269 424q154 175 250 182h6q33 0 75 -29q6 -4 93 -75q5 40 27 40q24 0 81 -44q36 -28 36 -54q0 -17 -11 -63q-48 -195 -111 -301q-29 -50 -57 -50q-11 0 -27 5q-76 23 -76 55q0 16 21 21q88 132 104 317q-55 49 -104 49h-1 q-104 0 -245 -183q-131 -172 -227 -408q-96 -237 -96 -397v-13q1 -95 57 -142q41 -34 93 -34q30 0 69 12q96 30 222 116q120 82 200 167q25 27 30 69q3 22 20 22q14 0 21 -18q36 -90 36 -125q0 -33 -27 -62q-18 -18 -85 -69q-212 -159 -364 -198q-47 -12 -86 -12 q-82 0 -125 55q-195 73 -195 223z" />
<glyph unicode="D" horiz-adv-x="1311" d="M102 778q0 59 80 131q169 153 490 338q53 124 77 124q18 0 74 -54l110 50q46 20 75 20q48 0 129 -54q4 4 13 4q56 0 171 -104q62 -57 62 -123q0 -16 -3 -37q-31 -232 -150 -501q-108 -245 -240 -419.5t-212 -175.5q-99 0 -282 123q-14 10 -14 23q0 32 37 32q10 0 20 -5 q75 -47 166 -52h4q124 0 316 367q193 368 224 657q1 8 1 15q0 82 -101 123q-27 10 -45 8q-193 -27 -373 -140q-94 -224 -190 -530q-105 -334 -152 -578q-10 -50 -42 -50q-12 0 -28 7q-52 27 -68 44q-22 23 -22 63q0 84 27 201q7 29 21 29q13 0 69 -46q136 463 258 793 q-223 -140 -344 -270q-28 -31 -28 -72q0 -37 24 -84t24 -54q0 -17 -23 -17q-20 0 -30 11q-125 147 -125 203z" />
<glyph unicode="E" horiz-adv-x="1235" d="M137 111q0 38 43 51q39 12 174 18q105 194 162 383q-6 18 -31 72q-15 36 -15 52q0 38 77 57q15 4 33 8q46 176 114 450q-143 25 -212 25q-46 0 -93 -6q-110 -16 -110 -147q0 -59 22 -146q10 -39 -17 -39q-19 0 -26 24q-42 138 -42 232q0 67 20 129q29 92 173 92 q106 0 318 -41q52 38 72 38q14 0 14 -18q0 -13 -8 -36q40 -12 395 -92q9 -2 17 -2q34 0 55 36q11 16 25 16q20 0 26 -32q8 -43 8 -63q0 -23 -12 -36q-2 -2 -39 -30q-18 -14 -47 -14q-19 0 -41 6q-185 47 -422 86q-68 -276 -100 -416q110 9 377 23h3q54 0 72 -37q3 -6 17 -68 q1 -8 1 -14q0 -34 -79 -47q-32 -6 -54 -6q-35 0 -42 15q-14 30 -54 30q-222 0 -272 -9l-80 -249q-35 -102 -61.5 -141.5t-85.5 -80.5q35 2 76 2q165 0 546 -34q31 -3 37.5 30.5t20.5 34.5q27 2 34 -22q10 -43 27 -115q5 -20 -18 -41q-22 -17 -42 -34t-36 -16q-4 1 -58 15 q-215 58 -482 58q-109 0 -234 -9q-84 -73 -105 -73q-17 0 -22 26q-19 94 -19 105z" />
<glyph unicode="F" horiz-adv-x="1229" d="M137 1008v11q0 115 199 169q274 75 557 100q32 65 48 65q23 0 79 -50q26 0 162 20q23 4 48 35q22 29 105 33h5q42 0 58 -34q2 -5 21 -81q2 -9 2 -16q0 -29 -35 -39q-2 -1 -71 -11q-155 -22 -381 -41q-59 -126 -170 -516q189 17 383 21h3q56 0 74 -37q4 -8 15 -66 q2 -8 2 -14q0 -34 -78 -47q-51 -9 -65 -9h-2q-19 1 -29 19q-14 27 -53 27q-218 0 -285 -8q-36 -92 -127 -496q-17 -75 -49 -75q-21 0 -86 22q-31 10 -31 60q0 13 2 28q14 96 39 186q9 32 52 32q13 0 30 -3q23 52 55 166q-42 108 -42 111q0 6 1 12q6 33 99 53q5 17 164 522 q-158 -12 -309 -48q-171 -40 -226 -89q-58 -52 -58 -105q0 -57 66 -180q7 -12 7 -24q0 -25 -23 -25q-16 0 -29 19q-79 113 -103 176q-17 44 -24 127z" />
<glyph unicode="G" horiz-adv-x="1237" d="M102 354q12 215 162 467q130 218 310 386q174 161 274 167h4q51 0 152 -74q8 54 29 54q20 0 71 -25q19 -9 22 -20q2 -7 2 -22q0 -25 -6 -70q-15 -117 -59 -226q-12 -30 -44 -30q-18 0 -73 12q-35 7 -35 29q0 17 20 17q5 0 9 -1q38 94 47 203v6q0 36 -49 36 q-50 0 -115 -34q-189 -102 -371.5 -359t-215.5 -475q-6 -34 -6 -62q0 -99 81 -153q22 -14 53 -14q115 0 327 175q161 131 274 265q-205 -16 -228 -16q-52 0 -73 17q-16 13 -33 61q-6 16 -6 25q0 12 11 12q1 0 64 -21q16 -5 71 -5q36 0 90 2q124 6 169 13q21 37 53 37 q35 0 127 -41q30 -13 30 -35q0 -26 -40 -32q-69 -11 -86 -38q-8 -13 -31 -116q-86 -388 -194 -659q-35 -87 -98 -87q-55 0 -213 101q-16 10 -16 23q0 21 29 21q11 0 37 -10t44 -10q51 0 94 64q103 154 219 584q-123 -142 -276 -260q-205 -158 -334 -158q-74 0 -121 53 q-80 48 -111 87q-41 51 -41 123v13z" />
<glyph unicode="H" horiz-adv-x="1436" d="M137 1079q5 76 219 123q143 31 285 61q95 27 133 85q22 32 30 32q15 0 58 -32q16 -12 16 -40q0 -52 -98 -311q-47 -112 -155 -385q154 -15 307 -15l237 9q65 241 148 450q134 336 235 343h8q60 0 154 -58q24 -14 24 -28q0 -19 -40 -19q-61 0 -49 2q-32 -4 -62 -32 q-71 -68 -164 -302q-118 -297 -219 -751l68 119q20 34 41 34q12 0 12 -16q0 -12 -8 -33q-55 -130 -57 -136q-38 -96 -46 -148q-8 -60 -30 -60q-17 0 -92 41q-20 11 -20 75q0 120 71 427q-154 9 -276 9q-175 0 -285 -19q-43 -111 -125.5 -287.5t-116.5 -230.5 q-24 -38 -56 -38q-10 0 -20 3q-100 33 -100 63q0 17 14 47q26 44 60 119q2 9 2 74q0 30 18 30q13 0 49 -41q25 -27 21 -46q59 69 112 219q-53 110 -53 140q0 62 125 62h16q49 109 123 312q77 212 97 295q-15 -21 -159 -71q-181 -62 -241 -91q-107 -53 -107 -119 q0 -28 15 -76q2 -6 2 -12q0 -21 -21 -21q-18 0 -28 17q-24 41 -47 110q-25 73 -25 111v6z" />
<glyph unicode="I" horiz-adv-x="848" d="M102 82q0 35 32 35q8 0 16 -4q86 -44 147 -45h3q132 0 290 395q153 385 164 690v6q0 93 -98 93q-16 0 -35 -3q-78 -11 -177 -124q-110 -126 -155 -287q-6 -21 -6 -40q0 -37 25 -68l46 -46q11 -11 11 -20q0 -19 -30 -19q-12 0 -20 4q-86 51 -118 83q-38 39 -38 89 q0 47 36 129q52 121 155 237q98 111 176 144q12 5 31 5q41 0 117 -23q7 9 21 9q39 0 153 -75q36 -23 36 -123q0 -43 -7 -100q-35 -291 -184 -648q-175 -421 -339 -423h-2q-98 0 -239 106q-11 9 -11 23z" />
<glyph unicode="J" horiz-adv-x="893" d="M69 -81q0 31 25 31q8 0 17 -5q95 -58 155 -62h5q132 0 311 450q176 446 200 808q1 8 1 15q0 54 -34 75q-27 17 -84 17q-11 0 -24 -1q-76 -4 -180 -115q-114 -123 -164 -284q-7 -23 -7 -44q0 -43 64 -112q11 -11 11 -20q0 -19 -30 -19q-12 0 -20 4q-150 96 -150 173 q0 49 40 133q57 118 164 230q102 107 180 138q15 6 33 6q36 0 114 -28q7 7 21 7q40 0 151 -79q40 -29 40 -140q0 -54 -9 -120q-48 -340 -211 -738q-194 -477 -370 -477h-1q-101 2 -237 129q-11 11 -11 28z" />
<glyph unicode="K" horiz-adv-x="1503" d="M136 1000q0 75 116 122q41 17 414 140q88 29 120 69q23 28 40 28q16 0 40 -18q28 -20 28 -34q0 -13 -15 -41q-126 -226 -242 -531q-100 -261 -158 -508q-35 -151 -35 -198v-9q6 -16 6 -29q0 -21 -17 -21q-21 0 -68 36q-52 39 -52 64q0 16 9 47q82 289 204 612 q80 200 174 436q-286 -70 -409 -168q-45 -35 -45 -67q0 -22 20 -117q7 -31 -22 -31q-20 0 -31 19q-34 54 -70 157q-7 23 -7 42zM634 617q0 42 22.5 61.5t91.5 34.5q25 5 38 -13q118 91 267 245q147 151 178 212q-63 37 -63 61q0 19 36 27q50 35 119 113q29 33 62 33 q38 0 83 -45q20 -20 20 -33q0 -16 -42 -68q-110 -136 -324 -347q-205 -202 -278 -251q91 -129 182 -259q139 -196 240 -263q44 -30 79 -30t82 34q10 7 19 7q21 0 21 -21q0 -12 -9 -25q-30 -47 -131 -137q-23 -21 -45 -21q-26 0 -59 27q-123 98 -276 313q-160 225 -222 279 q-32 -13 -51 -13q-35 0 -39 52q-1 16 -1 27z" />
<glyph unicode="L" horiz-adv-x="1087" d="M0 45q0 75 217 84q169 595 359 943q162 297 276 312h5q37 0 161 -59q33 2 50 2q45 0 56 -20q9 -18 9 -87q0 -153 -66 -343q-18 -52 -49 -52q2 0 -55 6q-48 6 -48 30q0 11 17 22q23 39 48 145q24 105 24 177v20q-4 58 -59 58q-31 0 -68 -28q-123 -92 -242 -336 q-115 -236 -270 -706q-23 -69 -74 -84q264 0 559 -31q45 -4 57 5q5 4 25 47q12 26 25 26t24 -22q43 -83 43 -117q0 -28 -39 -64q-43 -39 -65 -39q-17 0 -54 11q-234 65 -516 65q-77 0 -151 -6q-50 -4 -59 -11l-19 -32q-26 -44 -62 -44q-23 0 -30 22q-29 83 -29 106z" />
<glyph unicode="M" horiz-adv-x="1907" d="M205 1095q0 9 6 21q133 266 254 266h4q146 -5 379 -362q57 130 57 235q0 54 16 54q15 0 70 -43q16 -13 15 -54q-2 -52 -93 -303q176 -342 267 -624q353 586 635 915q35 80 86 158q22 34 53 34q47 0 166 -96q7 -6 7 -14q0 -20 -32 -20q-6 0 -18.5 2t-19.5 2q-47 0 -95 -92 q-195 -378 -254 -941q23 43 61 115q11 22 27 22q19 0 19 -25q0 -12 -7 -28q-44 -104 -81 -299q-9 -43 -39 -43q-34 0 -103 52q-33 25 -38 40q-6 14 1 58q36 217 93 489q66 311 96 367q-105 -124 -258 -364q-150 -236 -262 -449q20 -62 20 -93q0 -39 -66 -100 q-34 -32 -45 -32t-59 80q-21 34 -21 54q0 14 29 68q-64 238 -233 580q-108 -272 -219 -496q72 -81 72 -109q0 -22 -50 -28q-105 -12 -176 -108q-6 -31 -30 -31q-34 0 -105 61q-22 19 -22 31q0 11 18 27q67 58 153 112q186 309 303 650q-122 268 -303 374q-30 18 -57 18 q-38 0 -80 -39q-39 -42 -78 -85q-22 -25 -45 -25q-18 0 -18 18z" />
<glyph unicode="N" horiz-adv-x="1432" d="M254 209q82 147 209 473q102 260 133 365q-70 112 -143 153q-28 15 -49 15q-43 0 -115 -54q-19 -14 -37 -14q-23 0 -23 21q0 18 21 38q110 106 136 126q50 40 87 41q4 0 8 -1q61 -7 160 -145q15 36 15 61q0 11 -3 19q-1 5 -1 9q0 13 11 13q19 0 58 -33q20 -17 20 -47 q0 -25 -13 -64q-11 -29 -21 -59q136 -190 281 -454q133 -244 179 -375q35 227 170 750q-25 16 -63 49q-17 18 -17 30q1 16 35 14h1q35 0 169 171q31 38 52 38q29 0 75 -53q14 -16 14 -35q0 -35 -53 -97q-40 -42 -80 -85q-81 -229 -149 -493q-81 -312 -84 -457q17 -46 17 -62 q0 -40 -74 -90q-14 -9 -27 -9q-17 0 -32 18q-10 11 -19 22q-8 5 -8 26.5t8 59.5q-88 232 -247 530q-137 256 -196 330q-41 -132 -149 -407q-57 -147 -115 -293q2 1 5 1q27 0 79 -103q6 -11 6 -18q0 -17 -29 -18q19 1 -48 1q-62 0 -105 -43l-25 -57q-18 -42 -51 -42 q-13 0 -30 7q-101 41 -101 80q0 52 158 147z" />
<glyph unicode="O" horiz-adv-x="1194" d="M125 324q10 290 173 621q131 266 253 378q51 47 94 47t87 -24q18 -10 114 -74q78 85 133 123q33 22 68 22q59 0 106 -59q83 -5 107 -22q29 -19 29 -80q0 -35 -9 -113q-36 -312 -207 -679q-223 -482 -493 -493h-17q-43 0 -82 8q-54 10 -47 27q-164 40 -227 93 q-82 69 -82 209v16zM260 319q5 -101 39 -153q30 -45 107 -84q51 -26 101 -26q10 0 19 1q204 22 404 417q190 376 217 753q1 8 1 16q0 59 -36 59q-32 0 -96 -45q-144 -99 -348 -292q-23 -22 -41 -23q-17 -2 -17 15q0 16 15 38q87 136 178 236q-52 39 -93 39q-25 0 -44 -15 q-111 -81 -251 -359q-156 -307 -156 -543q0 -17 1 -34z" />
<glyph unicode="P" horiz-adv-x="1159" d="M137 888q0 59 74 128q51 47 192 128q152 86 271 130q12 49 12 80q0 40 20 40q27 0 95 -73q162 47 221 47h2q111 -2 158 -117q60 -44 80 -69q25 -31 25 -74q0 -31 -13 -84q-26 -108 -135.5 -275t-190.5 -225q-57 -41 -112 -41q-32 0 -154 49q-24 10 -24 23q0 20 55 20 q91 0 139 37q96 73 182 200q110 161 131 316q2 12 2 23q0 64 -60 79q-17 4 -35 4q-15 0 -30 -3q-155 -8 -299 -68q-167 -603 -307 -964q8 3 59 34q29 17 46 15q29 -5 57 -58q23 -43 23 -64q0 -27 -35 -24h-5q-25 0 -78 -28q-63 -33 -108 -78q-22 -22 -46 -22q-33 0 -81 44 q-30 29 -26 50q3 17 32 24q244 562 363 1028q-376 -169 -376 -315q0 -21 7 -41q2 -8 19 -51q4 -10 4 -19q0 -28 -22 -28q-31 0 -119 174q-13 24 -13 48z" />
<glyph unicode="Q" horiz-adv-x="1239" d="M125 324q10 290 173 621q131 266 253 378q51 47 94 47t87 -24q18 -10 114 -74q78 85 133 123q33 22 68 22q59 0 106 -59q83 -5 107 -22q29 -19 29 -80q0 -35 -9 -113q-23 -192 -120 -465q-124 -346 -283 -533q54 -12 103 -12q126 0 210 80q10 10 20 10q18 0 18 -22 q0 -7 -3 -15q-26 -60 -76 -131q-47 -66 -107 -66q-22 0 -63 5q-15 0 -217 45q-85 -65 -182 -68h-10q-47 0 -89 8q-54 10 -47 27q-164 40 -227 93q-82 69 -82 209v16zM260 319q5 -101 39 -153q30 -45 107 -84q51 -26 103 -26q8 0 17 1q44 4 90 29q-39 14 -143 61 q-28 13 -28 76q0 41 10 78q2 18 18 22q13 3 23 -6q85 -81 237 -137q155 164 274.5 468t139.5 579q1 8 1 16q0 59 -36 59q-32 0 -96 -45q-144 -99 -348 -292q-23 -22 -41 -23q-17 -2 -17 15q0 16 15 38q87 136 178 236q-52 39 -93 39q-25 0 -44 -15q-111 -81 -251 -359 q-156 -307 -156 -543q0 -17 1 -34z" />
<glyph unicode="R" horiz-adv-x="1446" d="M136 873q0 51 71 116q202 186 549 291q5 9 15 71q8 46 23 46h1q19 -3 61 -82q213 51 278 51h9q90 -6 139 -127q61 -43 80 -72q27 -38 27 -102q0 -111 -136 -280q-139 -173 -239 -173q-55 0 -102 26l-72 48q-14 9 -14 21q0 26 33 26q8 0 34 -8.5t46 -8.5q99 0 224 161 q113 144 113 239q0 115 -160 115q-134 0 -295 -64q-46 -200 -112 -393q197 -295 448 -571q269 -294 367 -301h7q38 0 77 30q18 15 33 15q20 0 20 -19q0 -13 -10 -30q-88 -155 -160 -160h-5q-42 0 -100 49q-364 315 -727 821q-34 -119 -117 -330q-76 -192 -116 -272 q-22 -44 -44 -44q-12 0 -30 13q-65 49 -65 81q0 19 12 48q26 58 55 156q1 25 2 49q2 17 17 21h1q14 0 56 -64q76 161 170 424q-54 83 -54 102q0 23 95 31q42 122 92 312q-164 -62 -244 -106q-123 -67 -194 -159q-30 -38 -30 -88q0 -39 38 -153q11 -33 -19 -33q-19 0 -32 20 q-58 87 -92 177q-24 62 -24 80z" />
<glyph unicode="S" horiz-adv-x="1120" d="M68 401q0 31 45 70q42 37 66 37q23 0 23 -30q0 -13 -5 -32q53 -144 224 -268q170 -123 308 -123h2q123 1 123 168q0 92 -143.5 367.5t-143.5 394.5q0 78 44 139q37 51 130 121q17 13 34 13q27 0 27 -23q0 -16 -18 -33q-77 -73 -77 -178q0 -117 144 -386t144 -335 q0 -181 -184 -291q-52 -82 -135 -82h-2q-149 2 -332 133q-157 112 -217 216q-57 97 -57 122zM850 1258q0 19 31 34q112 56 221 94q35 13 50 13q23 0 60 -64q56 -17 69 -25q22 -13 22 -40q0 -19 -9 -49q-39 -137 -106 -238q-30 -45 -57 -45q-26 0 -91 43q-20 13 -20 27 q0 21 35 30q26 8 59 91q31 79 31 124q0 47 -37 47q-13 0 -33 -4q-39 -6 -168 -53q-15 -5 -27 -5q-30 0 -30 20z" />
<glyph unicode="T" horiz-adv-x="1163" d="M164 1008q-1 6 -1 12q0 113 202 168q276 75 557 100q32 65 47 65q23 0 78 -50q26 0 161 20q24 4 49 35q22 29 105 33h5q41 0 57 -34q3 -5 22 -81q2 -9 2 -16q0 -29 -36 -39q-2 -1 -69 -11q-177 -25 -364 -41q-79 -169 -194 -548q-106 -346 -156 -578q-17 -75 -50 -75 q-21 0 -85 22q-23 7 -25 27q0 -4 1 -4t1 65q0 147 47 268q18 45 40 45q6 0 23.5 -4.5t28.5 -5.5q27 102 128 403q114 340 124 373q-154 -12 -308 -48q-171 -42 -224 -89q-60 -54 -60 -107q0 -57 66 -178q7 -13 7 -24q0 -25 -23 -25q-16 0 -29 19q-79 113 -103 176 q-17 44 -24 127z" />
<glyph unicode="U" horiz-adv-x="1534" d="M171 1031q0 83 114 118q195 52 491 143q48 75 87 75q44 0 126 -79q12 -11 12 -20q0 -21 -94 -41q-121 -198 -210 -508q-78 -271 -85 -443v-12q0 -79 36 -128q35 -48 89 -48q52 0 92 47q177 208 341 488q114 196 290 555q41 83 90 155q22 32 52 32q48 0 165 -101 q8 -7 8 -14q0 -21 -31 -21q-8 0 -23.5 3t-23.5 3q-45 0 -91 -88q-211 -400 -285 -932q15 43 33 69l32 46q13 20 28 20q17 0 17 -23q0 -13 -8 -30q-65 -143 -90 -285q-9 -55 -42 -55q-35 0 -101 55q-42 35 -42 47q0 4 4.5 18t6.5 29q29 217 119 551q-218 -398 -408 -614 q-58 -66 -122 -66q-65 0 -109 60q-104 82 -123 108q-38 52 -38 155q0 23 1 50q8 148 85 391q76 239 175 435q-277 -91 -391 -172q-54 -39 -54 -80q0 1 28 -107q1 -5 1 -10q0 -18 -17 -18q-29 0 -50 36q-85 145 -85 206z" />
<glyph unicode="V" horiz-adv-x="1356" d="M193 1174q0 12 16 28q85 86 213 158q45 26 73 26q45 0 91 -67q205 -301 284 -1071q70 141 265 486q179 318 204 353q-19 -3 -40 38t-21 81q0 32 19 32q23 -1 46 -1q27 7 70 45q29 25 57 51q29 20 44 20q40 0 94 -77q13 -19 13 -33q0 -20 -87 -78q-123 -146 -333 -494 q-225 -374 -312 -593q5 -22 5 -34q0 -33 -63 -62q-25 -12 -44 -12q-25 0 -66 46q-16 19 -16 39q0 29 28 54q-6 334 -89 665q-74 293 -161 418q-30 44 -80 44q-54 0 -155 -75q-11 -8 -26 -8q-29 0 -29 21z" />
<glyph unicode="W" horiz-adv-x="2011" d="M150 1024q3 52 126 117q89 47 260 103q176 57 224 81l10 30q9 23 32 23q36 0 113 -57q63 -46 63 -116q0 -17 -5 -68q-8 -76 -68 -307q-57 -217 -100 -345q87 127 282 382q188 247 220 278q32 118 42 141q23 52 62 52q13 0 29 -5q110 -34 110 -66q0 -18 -24 -44l-69 -73 l-1 -1q-137 -447 -137 -747q0 -42 2 -83q6 -104 50 -171q43 -66 102 -66h2q70 1 127 80q99 137 205 381q121 277 155 487q-47 54 -47 151q0 81 33 201q17 65 53 65q33 0 80 -56q35 -43 35 -99q0 -35 -58 -282q14 -14 62 -66q11 -13 11 -28q0 -30 -25 -30q-7 0 -13 5 q-21 18 -53 39q-173 -637 -418 -916q-26 -29 -70 -29q-42 0 -88 23q-140 41 -194 85q-79 63 -86 192q-3 37 -3 80q0 279 79 579q-110 -118 -244 -307q-157 -221 -217 -363q-64 -149 -89 -186q-20 -29 -69 -53q-80 -40 -110 -40q-21 0 -21 18q0 14 12 40q103 218 207 597.5 t104 543.5q0 26 -4 43q-104 -25 -249 -92q-139 -64 -234 -127q-51 -35 -51 -93q0 -37 20 -83q5 -10 5 -17q0 -17 -17 -17q-18 0 -35 21q-122 151 -118 195z" />
<glyph unicode="X" horiz-adv-x="1315" d="M49 68q0 46 43 102q137 177 637 557q-45 238 -65 449q-88 -48 -176 -95q-120 -69 -160 -123q-24 -30 -24 -69q0 -37 32 -107q3 -7 3 -14q0 -24 -21 -24q-13 0 -25 16q-108 143 -108 214q0 61 71 113q64 48 191 96q143 54 202 89q8 64 99 117q29 16 46 16q22 0 42 -47 q6 -15 6 -27q0 -26 -45 -59q-3 -22 -3 -54q0 -144 48 -405q261 202 336 283q-87 29 -87 63q0 9 11 17q9 -3 41 10q87 64 135 147q20 34 31 34q18 0 63 -52q30 -35 30 -68q0 -48 -83.5 -141.5t-458.5 -382.5q80 -386 164 -518q61 -96 105 -96q18 0 88 34q14 7 27 7 q25 0 25 -18q0 -12 -16 -26q-167 -141 -249 -141q-123 0 -259 670q-354 -280 -469.5 -428.5t-115.5 -226.5q0 -15 9 -41q7 -19 1 -23q-5 -4 -11 -4q-15 0 -33 22q-26 32 -51 63q-26 36 -26 71z" />
<glyph unicode="Y" horiz-adv-x="1366" d="M151 1009q0 78 109 115q194 60 488 162q44 78 85 78q43 0 125 -74q14 -12 14 -22q0 -22 -89 -43q-120 -167 -203 -437q-72 -235 -72 -380q0 -143 77 -143q37 0 75 38q355 357 618 907q26 102 66 102q29 0 72 -48q13 -16 13 -35q0 -49 -122 -223q-28 -71 -158 -499 q-128 -420 -196 -587q-44 -107 -72 -145q-35 -49 -81 -49q-68 0 -261 137q-22 16 -22 31q0 23 33 23q12 0 24 -5q106 -42 133 -42q56 0 98 77q184 333 326 839q-190 -334 -414 -563q-60 -61 -99 -61q-32 0 -75 45q-115 70 -134 94q-30 39 -30 137v19q6 217 203 702 q-240 -89 -352 -176q-53 -41 -53 -80q0 -3 32 -108q2 -6 2 -11q0 -16 -17 -16q-28 0 -50 35q-93 145 -93 206z" />
<glyph unicode="Z" horiz-adv-x="1120" d="M65 51q0 13 19 39q27 37 64 44q8 2 36 2q18 0 45 -1q45 77 129 203v10q0 51 -9 109q-10 63 -10 71q0 21 11 31q25 23 182 31q268 375 435 514q-2 0 -214 72q-139 47 -214 47q-102 0 -150 -86q-63 -113 -125 -308q-11 -36 -42 -36q-25 0 -25 32q0 7 2 17q67 291 149 454 q45 88 160 88q73 0 282 -80q222 -85 295 -94q57 44 101 44q23 0 53 -9q54 -16 54 -44q0 -5 -1.5 -14.5t-1.5 -15.5q0 -43 -69 -98q-32 -25 -62 -25q-15 0 -82 15q-143 -76 -434 -469q217 -5 324 -14q41 -4 41 -33q0 -23 -50 -27q-196 -15 -397 -39q-142 -209 -213 -346 q175 0 516 -59q24 -4 39 -4q25 0 39 24q16 39 39 39t30 -16q15 -52 29 -105q4 -14 4 -26q0 -28 -25 -49.5t-50 -40.5q-6 -5 -18 -5q-18 0 -50 11q-320 114 -622 114q-28 -35 -46 -43t-67 -8q-44 0 -72.5 38t-28.5 46z" />
<glyph unicode="[" d="M135 -124q0 13 4 28q15 50 238 732q220 671 233 710q43 123 94 123q10 0 21 -5q20 -8 56 -10q25 -1 73 0q61 2 76 2q24 0 24 -26q0 -31 -30 -31q-97 -2 -138 -34q-34 -26 -67 -110q-23 -58 -202 -599q-172 -523 -191 -588q-16 -55 -16 -88q0 -86 126 -86q30 0 30 -31 q0 -27 -26 -27q-166 3 -233 -2q-16 -6 -30 -6q-42 0 -42 48z" />
<glyph unicode="\" d="M326 -4l90 1106q17 208 -39 244q-23 14 -23 30q0 20 31 25l111 18q56 0 61 -78l-86 -1091q-5 -68 0 -146q6 -113 35 -133q18 -12 18 -30q0 -41 -65 -35l-74 6q-66 5 -59 84z" />
<glyph unicode="]" d="M1 -125q0 30 30 31q97 2 138 33q35 26 69 110q22 57 201 598q172 524 192 590q15 53 15 86q0 86 -128 86q-29 0 -29 30q0 28 25 27q137 -5 236 2q15 7 28 7q43 0 43 -49q0 -12 -4 -25q-17 -56 -239 -733.5t-234 -710.5q-46 -123 -92 -123q-10 0 -21 4q-19 8 -55 10 q-26 2 -73 0q-61 -2 -76 -2q-26 0 -26 29z" />
<glyph unicode="^" horiz-adv-x="922" d="M129 604q0 26 49 35q29 3 166 95q117 79 178 128q25 20 40 56q12 27 45.5 38.5t41.5 10.5q12 0 15 -19q23 -93 76 -196q55 -106 96 -134q40 -12 40 -25q0 -15 -53 -36q-62 -25 -78 -25q-28 0 -57 46q-46 71 -115 225q-4 13 -51 -17q-127 -95 -301 -219q-50 -30 -63 -30 q-14 0 -23 30q-6 24 -6 37z" />
<glyph unicode="_" horiz-adv-x="1024" d="M0 -272h1024v-97h-1024v97z" />
<glyph unicode="`" horiz-adv-x="614" d="M276 1198q0 6 9 10l57 27q18 8 32 8q27 0 58 -33q104 -109 148 -202q3 -7 3 -14q0 -22 -21 -22q-14 0 -27 17q-71 89 -149 150q-42 32 -69 32q-41 0 -41 27z" />
<glyph unicode="a" horiz-adv-x="797" d="M-20 90q0 11 2 25q18 148 130 344.5t257 331.5q46 43 82 44q1 0 2 -1q36 -2 137 -95q9 -8 9 -17q0 -16 -21 -16q-8 0 -15 3q-34 15 -62 15q-30 0 -52 -17q-94 -69 -208 -243q-132 -200 -159 -360q-1 -7 -1 -13q0 -25 20 -25q34 0 81 47q112 109 240 274q131 171 168 258 q27 64 35 90q13 45 28 45t70 -41q25 -19 25 -35q0 -12 -9 -38q-92 -255 -127 -428q15 14 39.5 43t30.5 34q14 18 30 18q15 0 15 -15q0 -9 -8 -21q-94 -139 -125 -281q-9 -40 -27 -40q-17 0 -63 32q-27 18 -31 30q-5 11 0 44q42 254 105 422q-87 -141 -237 -312 q-131 -149 -189 -190q-42 -29 -64 -29q-18 0 -55 29q-53 32 -53 88z" />
<glyph unicode="b" horiz-adv-x="858" d="M61 78q0 16 5 39q117 637 300 1085q138 337 248 438q29 27 56 27q28 0 71 -33q50 -41 101 -82q12 -9 12 -20q0 -20 -24 -20q-9 0 -19 6q-46 24 -69 24q-62 0 -138 -123q-270 -437 -391 -1147q104 176 155 249q104 150 216 251q54 49 97 49q22 0 69 -28q82 -39 82 -113 q0 -7 -1 -14q-17 -194 -97 -381q-78 -183 -185 -287q-30 -29 -62 -29q-65 0 -180 148q-13 17 -13 29q0 15 17 15t33 -14q59 -50 101 -50q41 0 79 48q69 88 125 239q64 170 64 304q0 52 -35 52q-20 0 -45 -21q-123 -106 -250 -302q-134 -209 -195 -403q-11 -37 -28 -37 q-8 0 -21 9q-51 34 -58 40q-20 20 -20 52z" />
<glyph unicode="c" horiz-adv-x="602" d="M29 190q4 106 74 294q75 204 157 296q38 42 64 42t102 -44q41 15 81 15q79 0 79 -56q0 -155 -43 -250q-12 -25 -32 -25q-11 0 -24 7q-56 31 -56 51q0 9 13 19q31 88 31 140v9q-2 45 -45 45q-5 0 -15 2.5t-16 2.5q-35 0 -86 -66q-56 -74 -107 -206q-42 -109 -56 -187 q-11 -56 -11 -102q0 -150 93 -150h4q85 2 249 213q16 19 29 19t13 -16q0 -8 -5 -20q-53 -130 -139 -229q-21 -25 -74 -25q-32 0 -78 13q-92 6 -147 59t-55 137v12z" />
<glyph unicode="d" horiz-adv-x="823" d="M-14 95q0 9 2 20q21 149 133.5 345.5t257.5 330.5q46 43 82 44q1 0 2 -1q39 -2 139 -95q9 -8 9 -17q0 -16 -21 -16q-7 0 -15 3q-34 15 -62 15q-30 0 -52 -17q-94 -70 -207 -243q-131 -200 -154 -360q-5 -38 20 -38q33 0 81 47q111 109 239 274q131 171 168 258 q21 48 33 92q104 368 232 629q100 204 176 274q28 27 54 27q28 0 72 -33q50 -41 101 -82q12 -9 12 -20q0 -19 -24 -19q-9 0 -19 5q-47 23 -70 23q-62 0 -137 -122q-275 -449 -401 -1196q26 25 70 78q26 31 38 31q27 0 5 -31q-96 -133 -127 -287q-12 -37 -30 -37q-9 0 -22 9 q-50 34 -56 40q-20 19 -20 51q0 17 5 40q43 231 71 344q-98 -141 -221.5 -281.5t-179.5 -177.5q-43 -29 -64 -29q-18 0 -55 29q-65 40 -65 93z" />
<glyph unicode="e" horiz-adv-x="600" d="M27 133q0 11 2 23q18 137 73 303q-37 19 -37 36q0 14 21 14q16 0 33 -9q89 200 160 284q46 56 83 56q17 0 84 -29q-5 30 17 35h47q43 0 43 -15q0 -3 -3 -17t-3 -26q0 -36 1 -89t1 -71q0 -124 -68 -173q-62 -45 -140 -45q-41 0 -136 22q-17 -31 -38 -121 q-26 -106 -26 -190v-12q1 -52 33 -52q12 0 31 6q116 41 323 250q13 13 26 13q19 0 19 -18q0 -11 -10 -23q-243 -311 -342 -311q-47 0 -119 65q-75 35 -75 94zM225 473q20 -3 70 -6h11q73 0 110 37q30 30 33 99l-1 -12q-2 0 -2 136q0 39 -17 39q-11 0 -32 -16 q-98 -79 -172 -277z" />
<glyph unicode="f" horiz-adv-x="498" d="M-70 -391q84 444 295 1104q-65 -4 -87 -4h-7q-21 3 -29 20q-11 27 -11 30q0 15 32 23q46 11 92 21q42 12 49 33q161 466 253 636q76 140 145 140q66 0 219 -111q15 -11 15 -24q0 -20 -25 -20q-11 0 -21 5q-57 31 -101 31q-33 0 -59 -16q-100 -64 -317 -668 q162 -25 205 -25q23 0 23 -17q0 -19 -23 -24q-117 -22 -238 -28q-137 -405 -214 -753q-62 -281 -62 -401q0 -10 3 -30.5t3 -31.5q0 -16 -11 -16q-15 0 -71 34q-59 34 -59 80q0 6 1 12z" />
<glyph unicode="g" horiz-adv-x="795" d="M-455 -653q0 29 27 29q14 0 27 -11q163 -139 292 -139q412 0 687 1210q-167 -287 -291 -411q-50 -51 -89 -51q-36 0 -89 40q-91 45 -91 145v9q6 131 101 325q93 189 194 285q57 54 103 54q34 0 75 -30q6 -5 80 -71q15 -13 15 -26q0 -18 -24 -18q-15 0 -34 9 q-30 16 -59 16q-42 0 -76 -30q-73 -64 -153 -208q-87 -158 -107 -288q-5 -35 -5 -61q0 -74 40 -74q27 0 57 27q119 102 236 295q109 178 155 327q17 53 17 101q0 38 18 38q19 0 74 -42q24 -18 24 -56q0 -16 -4 -34q-307 -1592 -797 -1592h-1q-177 0 -383 195q-19 18 -19 37z " />
<glyph unicode="h" horiz-adv-x="856" d="M63 117q116 635 302 1085q138 335 249 438q28 26 55 26q28 0 71 -32l100 -82q13 -10 13 -22q0 -18 -23 -18q-10 0 -21 6q-46 23 -69 23q-61 0 -136 -122q-264 -430 -391 -1126q163 313 373 500q45 40 66 40q6 0 50 -28q53 -22 60 -28q26 -23 26 -80q0 -16 -2 -35 q-17 -178 -102 -431q31 42 98 123q16 17 27 17t11 -13q0 -15 -13 -34q-58 -84 -154 -246q-8 -16 -39 -84q-13 -32 -36 -32q-26 0 -75 35q-20 14 -7 44q172 432 182 645v15q0 46 -17 46q-13 0 -55 -34q-77 -62 -189 -220q-148 -208 -229 -425q-22 -62 -41 -62q-17 0 -67 41 q-19 16 -19 48q0 10 2 22z" />
<glyph unicode="i" horiz-adv-x="389" d="M1 21q0 6 11 26q54 95 120 318q63 216 71 321q3 45 -9 45q-9 0 -32 -22l-62 -58q-33 -30 -33 -3q0 8 9 20q47 66 100 125q16 17 31 17q16 0 47 -22q46 -12 51 -15q23 -14 23 -52q0 -18 -4 -41q-24 -135 -125 -449q29 26 80 95q7 9 14 9q16 0 4 -28q-5 -11 -84 -137 q-60 -96 -88 -170q-9 -23 -33 -23t-65 23q-26 14 -26 21zM221 1018q3 4 12 2q92 80 121 115q23 26 33 26q18 0 78 -43q16 -12 16 -27q0 -29 -86 -90q-44 -30 -86 -30q-12 0 -24 2q-30 6 -52 22q-7 7 -11 13q-2 4 -2 7q0 2 1 3z" />
<glyph unicode="j" horiz-adv-x="389" d="M-869 -653q0 29 28 29q13 0 26 -11q163 -139 293 -139q413 0 688 1212q27 120 49 252q-31 -31 -73.5 -80t-56.5 -62.5t-25 -13.5q-20 0 -20 23q0 13 9 25q44 52 146 178q16 21 16 26q0 38 26 38q27 0 82 -42q23 -17 23 -54q0 -16 -4 -36q-139 -641 -261 -959 q-237 -618 -544 -618q-175 0 -383 195q-19 18 -19 37zM253 1018q3 4 13 2q46 25 119 115q21 26 32 26q18 0 79 -43q17 -12 17 -27q0 -29 -87 -90q-45 -31 -87 -31q-12 0 -24 3q-33 8 -51 22q-6 6 -10 13q-2 4 -2 7q0 2 1 3z" />
<glyph unicode="k" horiz-adv-x="793" d="M60 50q0 5 12 67q115 635 300 1085q138 336 249 438q28 27 55 27q28 0 72 -33l100 -82q14 -10 14 -22q0 -18 -23 -18q-11 0 -22 6q-46 23 -69 23q-63 0 -138 -122q-269 -439 -387 -1145q24 49 109 187q-11 35 -11 41q0 24 68 37q136 198 223 266q31 24 48 24t63 -49 q72 -29 72 -72q0 -14 -4 -36q-19 -83 -54 -146q-18 -33 -38 -33q-14 0 -44 11q-57 20 -57 41q0 13 18 20q42 36 52 142q2 25 -13 25q-9 0 -24 -11q-110 -80 -189 -232q152 -469 346 -587q24 -14 49 -14q36 0 55 21t34 21q14 0 14 -15q0 -9 -8 -21q-93 -144 -150 -144 q-70 0 -200.5 187.5t-223.5 420.5q-119 -147 -165 -344q-11 -44 -26 -44q-6 0 -24 7q-83 36 -83 73z" />
<glyph unicode="l" horiz-adv-x="389" d="M61 78q0 16 5 39q116 637 299 1085q138 338 247 438q29 27 58 27h2q27 -1 70 -34q49 -40 98 -81q13 -10 13 -21q0 -19 -23 -19q-10 0 -21 6q-46 23 -69 23q-63 0 -138 -122q-272 -443 -387 -1145q-3 -19 -10 -51q23 24 68 78q26 31 38 31q26 0 4 -31q-96 -137 -127 -287 q-11 -37 -28 -37q-8 0 -21 9q-51 34 -58 40q-20 20 -20 52z" />
<glyph unicode="m" horiz-adv-x="1317" d="M27 44q0 11 22 34q41 87 93 300q52 214 52 325q0 15 -1 28q-15 -15 -51 -49.5t-54 -52.5q-13 -13 -23 -13q-15 0 -15 20q0 16 11 28q56 58 111 137q20 28 35 28q11 0 43 -32l50 -18q21 -10 21 -37q0 -8 -2 -17q-25 -193 -77 -360q177 318 329 452q21 19 41 19 q21 0 64 -27q41 -18 54 -32q15 -18 15 -56q0 -204 -47 -363q195 309 355 459q21 20 44 20q30 0 74 -40q74 -11 74 -87v-8q-12 -241 -104 -466q50 59 78 102q13 21 30 21q15 0 15 -16q0 -10 -9 -24q-65 -97 -194 -342q-12 -22 -15 -23q-3 -2 -9 -2q-11 0 -33 7q-69 21 -69 40 q0 11 9 32q74 175 128 373q52 191 52 297v8q0 35 -25 35q-17 0 -40 -19q-85 -69 -220 -268q-162 -240 -229 -449q-7 -24 -12 -27q-6 -3 -29 5q-34 12 -65 34q-15 11 -15 23q0 2 15 39q131 328 131 635q0 31 -18 31q-13 0 -33 -17q-107 -90 -238 -310q-126 -210 -188 -394 q-16 -47 -33 -47q-20 0 -82 45q-16 9 -16 19z" />
<glyph unicode="n" horiz-adv-x="860" d="M14 46q0 4 11 28q58 127 115 322q61 211 69 329q2 36 -2 36q-1 0 -28 -27t-75 -70q-9 -9 -20 -9q-14 0 -14 11q0 8 10 18q43 55 113 137q15 17 31 17q24 0 42 -35q76 -23 76 -68v-6q-11 -110 -113 -397q67 129 195 288.5t190 188.5q31 14 44 14t42 -22q83 -29 82 -96 q0 -70 -34 -225q-27 -128 -50 -199q29 37 74 96q8 10 16 10q15 0 15 -19q0 -6 -2 -12q-60 -91 -156 -264q-18 -45 -35 -90q-14 -31 -37 -31q-18 0 -53 15q-39 16 -39 32q0 7 13 31q65 132 116 329q48 181 48 287q0 15 -1 29q-2 44 -20 44q-13 0 -39 -25q-252 -246 -436 -658 q-23 -51 -54 -51q-22 0 -73 25q-20 9 -21 17z" />
<glyph unicode="o" horiz-adv-x="713" d="M27 190q4 106 73 296q76 207 158 298q39 44 64 44q34 0 110 -70q21 10 86 37q33 11 50 11q39 0 87 -73q29 -42 29 -93v-7q-2 -89 -43 -236q-65 -232 -184 -360q-63 -68 -140 -68q-30 0 -77 13q-94 6 -153 59q-60 55 -60 138v11zM149 177q0 -150 90 -150h5q38 1 82 30 q84 57 157 228q70 161 86 319q7 67 7 85q0 42 -26 42q-10 0 -26 -4l-155 -63q-27 -11 -31 -11q-8 0 -16 19q-58 -71 -108 -205q-39 -105 -54 -188q-11 -56 -11 -102z" />
<glyph unicode="p" horiz-adv-x="844" d="M-143 -766q44 498 241 1109q155 478 246 620q53 81 94 81h2q42 -1 160 -75q16 -10 16 -21q0 -15 -24 -15q-6 0 -20 2.5t-21 2.5q-63 0 -131 -107q-40 -61 -101 -205t-88 -237q147 240 342 412q30 26 54 26q11 0 55 -30q128 -45 128 -165q0 -8 -1 -16q-12 -169 -89 -363 q-72 -181 -142 -247q-40 -37 -81 -37q-46 0 -153 74q-21 14 -21 29q0 19 27 19q11 0 32 -7t34 -7q73 0 131 93q49 80 93 215q47 148 47 260q0 15 -1 29q-3 58 -39 58q-32 0 -78 -44q-324 -310 -456 -741q-75 -245 -100 -454q-1 -7 -27 -347q-4 -49 -24 -49q-21 0 -75 49 q-32 29 -32 69q0 9 2 19z" />
<glyph unicode="q" horiz-adv-x="733" d="M6 137q6 149 96 338q84 179 181 273q63 61 117 61q52 0 167 -104q15 -13 15 -23q0 -13 -21 -13q-11 0 -24 5q-63 24 -89 24q-55 0 -114 -73q-77 -95 -138 -225q-77 -163 -77 -283q0 -70 47 -70q29 0 63 33q105 100 215 281q76 125 119 225q41 94 55 153l4 40q4 25 19 26 h1q24 0 79 -49q17 -16 17 -38q0 -17 -48 -128q-66 -153 -150 -465q-66 -243 -91 -377q52 100 92 154q11 15 29 15q24 0 24 -22q0 -9 -6 -20q-178 -309 -201 -698q-5 -92 -23 -92t-92 73q-27 27 -27 67q0 10 19 136q33 221 113 547q66 269 98 362q-98 -170 -237 -282 q-19 -15 -42 -15q-33 0 -67 29q-67 22 -93 47q-30 29 -30 81v7z" />
<glyph unicode="r" horiz-adv-x="643" d="M47 78q79 346 170 584q-74 -78 -94 -107q-8 -12 -22 -12q-17 0 -17 15q0 9 8 20q49 59 131 180q25 44 50 44q18 0 73 -28q31 -16 10 -43q-22 -29 -83 -205q-58 -171 -80 -268q136 303 309 535q33 44 53 44q18 0 49 -24q42 -5 53 -13q17 -12 17 -48q0 -131 -35 -250 q-11 -36 -30 -36q-14 0 -62 40q-24 20 -12 57q28 91 28 146q0 19 -8 19q-12 0 -39 -36q-208 -271 -311 -608q-33 -107 -56 -107q-9 0 -79 35q-26 13 -26 44q0 10 3 22z" />
<glyph unicode="s" horiz-adv-x="500" d="M-113 31q4 27 56 32q71 5 210 25q52 12 74 59q13 24 13 59q0 63 -63 222q-58 146 -58 200v7q8 125 231 174q22 5 22 -16q0 -12 -16 -19q-108 -47 -108 -116q0 -27 10 -67.5t60 -194.5q37 -111 38 -169v-5q0 -116 -133 -159q-17 -42 -32 -58q-23 -24 -68 -28q-8 -1 -17 -1 q-22 0 -45 4q-59 9 -145 22q-24 4 -29 29zM377 604q0 11 4 29q20 81 20 121q1 8 -1 16q-6 38 22 49q49 25 63 25q31 0 31 -43q0 -45 -24 -144q-9 -34 -20 -44q-5 -5 -34 -15q-37 -14 -46 -14q-15 0 -15 20z" />
<glyph unicode="t" horiz-adv-x="479" d="M64 62q0 7 2 16q37 258 145 635q-53 7 -96 14q-19 3 -19 24q0 23 20 28t74 22q33 11 64 30q107 331 168 429q35 56 75 56q38 0 111 -40q28 -15 28 -34q0 -13 -19 -13q-4 0 -12.5 1.5t-12.5 1.5q-38 0 -92 -83q-48 -74 -133 -322q-8 -22 -6 -26q3 -7 26 -8q21 -2 47 -2 q47 0 111 6q34 3 34 -29q0 -22 -26 -27q-21 -3 -221 -18q-120 -351 -146 -594q-1 -13 -1 -23q0 -34 17 -34q27 0 163 131q16 16 31 16q13 0 16 -11q3 -12 -9 -28q-81 -107 -159 -182q-33 -31 -55 -31t-68 35q-57 15 -57 60z" />
<glyph unicode="u" horiz-adv-x="813" d="M66 72q0 11 2 24q25 286 104 475q-17 -16 -51 -47q-13 -11 -20 -6q-8 6 3 23q54 79 64 104q31 78 65 121q18 22 38 22q27 0 79 -32q14 -9 14 -18l-22 -33q-50 -76 -106 -268q-61 -208 -62 -339q0 -43 18 -43q16 0 52 37q77 82 223 310q129 201 156 262q45 102 73 120 q18 12 32 12t54 -21t40 -31q0 -3 -7 -8t-10 -11q-133 -247 -199 -580q28 49 68 125q5 14 16 14q15 0 15 -19q0 -6 -3 -13q-64 -146 -84 -225q-12 -50 -32 -50t-78 39q-23 17 -23 53q0 12 2 25q42 218 101 379q-193 -314 -324 -463q-29 -33 -63 -33q-28 0 -66 23 q-69 12 -69 72z" />
<glyph unicode="v" horiz-adv-x="711" d="M22 544q0 9 9 21q60 81 157 215q25 36 52 36q30 0 92 -48q13 -11 13 -24q0 -25 -36 -37q-88 -188 -88 -423q0 -121 29 -202q11 -32 30 -32t44 34q77 107 152 262q67 139 89 223q-13 23 -13 61q0 68 44 181q19 47 49 47q17 0 70 -31q26 -15 26 -40q0 -18 -14 -64 q-25 -57 -57 -135q7 -20 45 -68q7 -10 -3 -20t-27 -10q-24 0 -42 22q-66 -149 -150 -303q-88 -164 -126 -203q-33 -33 -66 -33q-31 0 -55 25q-38 -16 -55 -16q-35 0 -54 61q-26 86 -26 245q0 227 39 339q-22 -20 -84 -88q-11 -12 -25 -12q-19 0 -19 17z" />
<glyph unicode="w" horiz-adv-x="1055" d="M34 590q0 9 7 18q31 40 88 129q18 34 47 46q7 3 76 20q18 4 28 4q18 0 22 -19q3 -14 3 -69q0 -314 -69 -547q183 180 249 350q8 95 16 136q13 69 42 118q24 43 53 43q24 0 74 -35q28 -19 28 -35q0 -9 -16 -53q-30 -84 -74 -145q-9 -66 -9 -137q0 -147 40 -305 q11 -44 28 -44q19 0 46 52q149 288 184 434q-13 17 -27 36.5t-14 41.5q0 20 10 47q10 46 20 91q16 59 53 59q30 0 81 -29q30 -18 30 -58q0 -33 -23 -89q-17 -40 -34 -81q9 -11 54 -53q14 -13 14 -28q0 -30 -27 -30q-6 0 -40 22q-16 11 -27 16q-126 -347 -215 -471 q-34 -48 -70 -48q-16 0 -70 17q-46 15 -57 26t-23 56q-45 180 -45 295q-49 -70 -164 -207q-109 -131 -133 -166q-12 -19 -34 -19q-28 0 -88 46q-15 11 -15 21q0 15 41 46q34 99 59 254q24 152 24 261q0 55 -7 85q-21 -21 -88 -108q-11 -15 -26 -15q-22 0 -22 21z" />
<glyph unicode="x" horiz-adv-x="672" d="M-193 -225q2 82 141 260q127 164 310 336q-62 247 -104 305q-19 25 -34 25t-44 -21q-12 -8 -22 -8q-15 0 -15 12q0 13 18 27q91 66 136 88q33 16 42 16q21 0 33 -35q17 -47 90 -311q151 155 203 219q88 108 92 172q2 34 -8 58q-11 25 8 25q7 0 15 -9q71 -88 71 -137 q0 -42 -37 -86q-38 -47 -176 -176q-133 -124 -151 -148q25 -104 78 -268q19 -43 43 -43q15 0 53 28q10 8 21 8q19 0 19 -18q0 -9 -7 -18q-88 -100 -138 -107q-5 -1 -10 -1q-49 0 -74 67q-42 111 -81 268q-377 -397 -388 -590v-10q0 -48 17 -76q23 -36 -4 -36q-11 0 -23 14 q-44 51 -56 76q-18 35 -18 88v6z" />
<glyph unicode="y" horiz-adv-x="834" d="M-430 -654q0 30 28 30q14 0 27 -11q163 -139 291 -139q235 0 427 392q151 307 263 824q7 37 23 113q-105 -171 -235 -337q-125 -160 -197 -220q-40 -33 -64 -33q-19 0 -39 21q-21 27 -43 53q-10 12 -10 22v2q2 12 18 17q48 65 90 281q32 170 44 323q2 36 -9 36 q-3 0 -47 -36q-70 -59 -76 -59q-14 0 -14 14q0 7 6 14q17 21 76 105q53 75 71 75q14 0 38 -12q51 8 57 8q34 0 34 -52q0 -87 -50 -340.5t-82 -327.5q100 79 260 310q156 225 194 339q2 67 29 67q21 0 78 -43q22 -17 22 -54q0 -16 -4 -36q-139 -641 -261 -959 q-236 -618 -542 -618q-179 0 -385 195q-18 17 -18 36z" />
<glyph unicode="z" horiz-adv-x="655" d="M-65 58q0 25 20 46q37 41 94 41q88 99 127 160q-3 19 -12 55q-7 29 -7 40q0 12 5 20q19 31 127 31q90 116 176 217q-87 22 -182 22q-63 0 -99 -24t-71 -91q-13 -24 -29 -24q-12 0 -12 17q0 9 4 20q37 110 71 172q20 35 33 44q22 15 78 15q90 0 311 -53q44 36 57 36 q10 0 23 -5q21 -12 21 -31q0 -27 -27 -90q-14 -34 -42 -34q-15 0 -56 11q-82 -77 -170 -200q30 0 82 3t65 3q26 0 26 -14q0 -12 -22 -17q-96 -24 -231 -68q-118 -150 -152 -223q37 0 157.5 -15.5t166.5 -15.5q59 0 96 56q10 15 21 15q20 0 8 -32q-11 -27 -60 -116 q-33 -62 -102 -62q-45 0 -159.5 34t-172.5 34q-24 0 -43 -2q-27 -60 -61 -64q-22 0 -39 31q-20 34 -20 58z" />
<glyph unicode="{" d="M177 -22q0 39 16 90q40 101 155 424q6 17 6 33q0 71 -110 128q-12 7 -12 23q0 34 26 33q61 -4 119 26q66 34 86 96q60 212 125 443q43 143 149 162h193q24 0 24 -27q0 -30 -30 -31q-102 -2 -138 -23.5t-67 -99.5q-48 -148 -141 -415q-29 -77 -95 -132q-58 -50 -112 -59 q86 -60 86 -134q0 -34 -13 -77q-55 -172 -118 -370q-17 -55 -17 -88q0 -86 127 -86q30 0 30 -31q0 -27 -26 -27q-139 3 -196 31q-67 33 -67 111z" />
<glyph unicode="|" d="M380 1467q0 19 28 28l108 18q54 0 64 -86l-15 -1216q-3 -271 49 -307q21 -15 21 -36q0 -39 -60 -36l-73 4q-61 4 -60 94l15 1231q0 65 -10 143q-14 108 -41 130q-26 15 -26 33z" />
<glyph unicode="}" d="M5 -131q0 30 30 31q102 2 137.5 23.5t67.5 99.5q48 148 141 415q29 77 94 132q59 50 113 59q-87 60 -87 134q0 34 13 77q55 172 119 370q16 55 16 88q0 86 -127 86q-29 0 -29 31q0 27 25 27q139 -3 197 -31q66 -33 66 -111q0 -39 -15 -90q-41 -101 -156 -424 q-5 -17 -5 -33q0 -71 110 -128q12 -7 12 -23q0 -34 -27 -33q-61 4 -118 -26q-67 -34 -86 -97q-60 -211 -125 -442q-44 -143 -150 -162h-192q-24 0 -24 27z" />
<glyph unicode="~" horiz-adv-x="922" d="M159 699q0 9 7 18q45 56 115 124q78 74 96 70q57 -11 170 -141q46 -43 77 -56l42 -14q44 -6 151 121q3 28 24 28q17 0 33 -20q29 -34 29 -43q0 -10 -10 -22q-46 -56 -114 -121q-77 -73 -93 -68q-66 13 -172 136q-65 61 -121 69q-33 9 -151 -116q0 -30 -19 -30 q-17 0 -35 21q-29 36 -29 44z" />
<glyph unicode="&#xa1;" horiz-adv-x="492" d="M-5 40q0 18 34 21q193 333 338 854q13 49 -2 74q-3 5 -3 9q0 11 14 11q20 0 52 -24q44 -33 44 -58q0 -13 -5 -36q-55 -239 -165 -547q-88 -247 -124 -313q-28 -53 -51 -53q-3 0 -31 8q-101 27 -101 54zM420 1212q0 7 6 21q13 30 37 133q4 20 35 6q74 -33 74 -79 q0 -12 -7 -40q-7 -34 -14 -69q-9 -31 -29 -31q-7 0 -16 4q-86 34 -86 55z" />
<glyph unicode="&#xa2;" horiz-adv-x="672" d="M82 289q4 105 74 294q76 205 157 296q39 42 65 42q28 0 103 -44q4 2 21 6l24 69q16 45 -12 64q-8 5 -4 15t14 7q33 -9 51 -20q16 -9 -6 -70l-20 -57q90 9 90 -55q0 -153 -43 -248q-18 -41 -55 -21q-56 30 -56 51q0 10 13 21q31 60 37 141q2 39 -9 49l-260 -700 q19 -4 23 -4q55 4 139 83q70 65 111 130q13 21 28 21q13 0 13 -17q0 -9 -5 -20q-50 -122 -139 -230q-26 -32 -76 -24q-32 0 -75 12q-30 0 -33 6l-14 -41q-17 -46 4 -63q8 -5 4 -16q-4 -10 -15 -7l-45 23q-17 8 7 67l18 47q-134 51 -129 193zM195 284q0 -91 36 -132l256 692 q-65 3 -120.5 -70t-105.5 -205q-41 -109 -56 -188q-10 -52 -10 -97z" />
<glyph unicode="&#xa3;" horiz-adv-x="1044" d="M-74 46q0 62 141 78q34 3 78 5q21 78 66 229q-48 130 -48 145q0 21 26 30q15 6 87 18q256 812 463 819q40 1 166 -57q33 2 51 2q39 0 52 -13t13 -52q0 -14 -1 -38q-5 -85 -10 -125q-9 -71 -29 -135q-15 -48 -60 -48q-10 0 -46 7t-36 18q0 10 13 32q38 63 38 206 q0 27 -3 47q-8 61 -61 61q-30 0 -66 -28q-89 -67 -186 -266q-61 -124 -171 -410q113 9 379 21q57 1 76 -37q4 -6 16 -66q2 -7 2 -13q0 -16 -15 -25q-20 -8 -40 -17q-55 -25 -76.5 3t-97.5 28q-268 0 -289 -2q-46 -120 -94 -264q-21 -65 -47 -70q263 0 561 -31q45 -4 56 5 q3 3 24 47q13 26 27 26q13 0 24 -22q42 -81 42 -117q0 -29 -38 -64q-43 -39 -66 -39q-16 0 -54 11q-232 65 -516 65q-78 0 -152 -6q-48 -4 -57 -11q-10 -16 -19 -32q-26 -44 -63 -44q-24 0 -31 22q-29 87 -29 107z" />
<glyph unicode="&#xa4;" horiz-adv-x="936" d="M116 516q0 8 3 14q12 32 100 78v21q5 66 57 186q56 128 125 219q-17 29 -67 107q-9 13 -9 26q0 44 83 74q-2 -4 -2 -10q0 -51 59 -125l4 4q15 12 37 12q53 0 92 -45q88 33 152 39q48 5 54 5q45 0 95 -54q104 64 119 96q34 -32 34 -81q0 -35 -26 -44q-35 -15 -96 -41v-12 q0 -49 -33 -152q-49 -152 -139 -258q71 -40 78 -67q1 -5 1 -10q0 -41 -61 -68q-10 32 -74 90q-3 -3 -9 -8t-9 -8q-68 -55 -149 -55q-33 0 -86 10q-135 16 -189 69q-75 -70 -84 -102q-60 50 -60 90zM345 628q0 -64 31 -99t79 -33q52 2 98 24q90 45 169 183q74 131 93 260 q2 10 2 19q0 65 -85 65q-34 0 -87 -11q-92 -18 -119 -18q-117 -110 -170 -311q-11 -43 -11 -79z" />
<glyph unicode="&#xa5;" horiz-adv-x="1155" d="M-41 1125q0 16 14 34q187 229 259 229q34 0 61 -38q94 -133 215 -434q92 -228 137 -381q356 559 391 655q-49 -22 -86 -78q-9 -15 -18 -15q-18 0 -51 74q-6 12 -6 23q0 27 40 63q53 48 154 121q22 16 44 16q33 0 93 -65q19 -20 19 -34q0 -18 -21 -48q-278 -410 -416 -639 q42 0 121 2q73 5 97 31q11 13 23 13q15 0 15 -18q0 -12 -8 -28q-31 -69 -44 -78q-24 -17 -118 -14q-8 0 -137 6q-22 -37 -65 -123q110 0 186 4q81 5 103 31q10 13 21 13q14 0 14 -19q0 -11 -7 -27q-32 -69 -43 -77q-23 -18 -117 -15l-204 6q-142 -285 -142 -393 q0 -88 27 -135q7 -12 7 -23q0 -27 -25 -27q-15 0 -29 15q-119 127 -119 202q0 28 16 64q49 110 158 297q-244 0 -262 -2q-50 -6 -57 -8q-19 -5 -33 -24q-10 -15 -21 -15q-18 0 -2 45q24 67 37 83q17 21 53 18q103 -11 304 -11q-8 41 -25 123q-80 1 -217 -6q-26 -2 -52 -5 q-21 -4 -32 -26q-8 -14 -18 -14q-19 0 -3 47q23 65 38.5 83.5t52.5 14.5q105 -9 206 -12q-107 356 -264 557q-35 46 -75 46q-39 0 -136 -91q-16 -15 -32 -15q-21 0 -21 22z" />
<glyph unicode="&#xa6;" d="M336 4q11 354 33 514q10 73 69 78l70 6q21 2 21 -9q0 -12 -15 -22q-19 -12 -39 -266q-23 -297 31 -334q18 -12 18 -30q0 -41 -65 -35l-74 6q-52 4 -49 92zM354 1376q0 20 31 25l111 18q21 0 37 -31.5t16 -64.5q0 -229 -33 -506q-9 -78 -67 -78l-70 -6q-21 -2 -21 9 q0 12 15 22q29 18 43 338q9 213 -39 244q-23 14 -23 30z" />
<glyph unicode="&#xa7;" horiz-adv-x="774" d="M31 -113q0 26 65 21q137 -11 230 10q100 23 120 100q7 19 7 42q0 90 -127.5 321t-127.5 307q0 150 255 209q28 7 28 -16q0 -12 -18 -21q-133 -63 -133 -141q0 -42 26 -105q65 -132 131 -264q85 -179 85 -268q0 -101 -123 -143q-17 -68 -24 -79q-21 -37 -79 -42 q-34 -4 -80 2q-89 13 -194 28q-32 4 -41 39zM386 1180q0 96 105 162q72 45 166 65q31 7 31 -18q0 -11 -16 -19q-151 -73 -151 -165q0 -40 22 -93.5t123 -251.5q73 -145 88 -219q8 -39 8 -72q0 -85 -60 -136q-49 -41 -167 -79q-7 -2 -12 -2q-18 0 -18 17q0 24 34 41 q82 40 96 96q7 18 7 41q0 92 -128 325t-128 308zM721 1396q3 15 27 23q46 28 59 28q35 0 45 -58q11 -61 0 -187q-4 -44 -12.5 -54.5t-49.5 -25.5q-32 -12 -39 -12q-18 0 -14 68q8 128 -8 178q-9 30 -8 40z" />
<glyph unicode="&#xa8;" horiz-adv-x="614" d="M350 989q0 13 6 10q31 82 45 199q2 19 15 41q5 1 47 -45q11 -12 14 -33q3 -41 -33 -133q-33 -86 -48 -86q-12 0 -28 17.5t-18 29.5zM563 989q0 12 6 12q34 88 47 199q1 18 13 39q5 1 47 -45q12 -14 14 -33q4 -37 -33 -131q-34 -87 -49 -87q-3 0 -6 1q-35 21 -39 45z" />
<glyph unicode="&#xa9;" horiz-adv-x="1339" d="M145 400q0 223 84 415q94 212 248 369q176 178 342 184q52 2 105.5 -12.5t46.5 -32.5q206 -44 280 -88q125 -71 127 -219q5 -244 -123 -457q-120 -202 -299 -340q-39 -31 -104 -65q-79 -41 -90 -48q-55 -34 -171 -34q-108 0 -149 45q-99 5 -180 55q-88 54 -108 133 q-9 36 -9 95zM261 418q0 -109 56 -168q67 -70 271 -70q85 0 143 19q304 95 469 434q52 105 52 273q0 69 -15 112q-34 99 -88 154q-45 46 -133 85q-61 28 -135 25q-294 -10 -521 -500q-99 -215 -99 -364zM492 545q4 90 74 259q74 177 149 261q34 39 58 39t91 -41q37 13 74 13 q70 0 70 -50q0 -141 -37 -223q-18 -39 -51 -17q-51 28 -51 45q0 9 12 17q32 82 28 135q-2 41 -41 41q-4 0 -13 2t-15 2q-31 0 -76 -59q-54 -71 -105 -181q-48 -103 -59 -163q-10 -51 -10 -93q0 -137 88 -135q75 3 223 193q14 17 27 17q12 0 12 -15q0 -8 -4 -19 q-42 -105 -127 -204q-19 -23 -66 -23q-28 0 -69 10q-190 28 -182 189z" />
<glyph unicode="&#xaa;" horiz-adv-x="797" d="M272 942q13 104 91.5 241.5t179.5 231.5q36 34 100 31q24 -1 96 -66q7 -6 7 -12q0 -20 -25 -10q-51 20 -80 -2q-66 -49 -143 -164q-90 -133 -109 -244q-5 -27 14 -27q26 0 58 31q77 76 164 188t114 173q10 23 25 63q9 33 20 33q4 0 47 -29q15 -10 30.5 -20t15.5 -22 q0 -5 -3 -11q-39 -102 -98 -299q19 22 47 55q11 12 22 12q22 0 5 -26q-68 -101 -88 -195q-7 -29 -30 -29q-22 0 -59 27q-21 16 -16 48q30 176 70 278q-61 -98 -164 -210q-87 -95 -131 -124q-31 -20 -45 -20q-12 0 -37 20q-25 14 -51 28q-30 21 -27 50z" />
<glyph unicode="&#xab;" horiz-adv-x="891" d="M81 502q0 27 109 102q104 71 160 131q-5 41 15 62q6 7 57 39q35 21 44 21q14 0 33.5 -30t19.5 -44q0 -28 -58 -72q-63 -41 -189 -146q-48 -50 -48 -62q0 -4 1 -7q84 -180 129 -308q17 -46 17 -73q0 -37 -45 -64q-60 -35 -76 -35q-12 0 -12 15q0 13 6 37.5t6 37.5 q0 141 -166 386q-3 4 -3 10zM429 498q0 27 110 102q103 71 159 131q-2 19 -2 26q0 31 74 77q34 21 43 21q14 0 34 -30.5t20 -45.5q0 -29 -58 -72q-62 -41 -188 -146q-49 -50 -49 -62q0 -4 1 -7q87 -185 129 -308q17 -47 17 -72q0 -36 -45 -63q-60 -35 -76 -35q-12 0 -12 14 q0 13 6 37t6 38q0 144 -166 384q-3 5 -3 11z" />
<glyph unicode="&#xac;" horiz-adv-x="1096" d="M162 673q0 6 2 13q9 45 15 52q18 25 75 28q319 16 590 -18q91 -12 91 -79q0 -43 -26 -114q-2 -40 -30 -116q-48 -127 -80 -236q-5 -21 -11 -37q-14 -37 -30 -45q-11 -5 -27.5 14t-15.5 47q1 56 28 197q18 83 43 268q-174 18 -395 15q-38 -1 -53 -4q-30 -6 -43 -23 q-23 -30 -78 -4q-20 8 -37.5 16.5t-17.5 25.5z" />
<glyph unicode="&#xad;" horiz-adv-x="868" d="M117 436q3 12 14 70q8 44 96 35q160 -16 400 -19q92 -1 102 19q8 14 23 12q16 -1 16 -16t-14 -52.5t-24 -46.5q-14 -13 -54 -10q-220 14 -410 14q-102 0 -112 -18q-7 -12 -24 -9q-18 4 -13 21z" />
<glyph unicode="&#xae;" horiz-adv-x="1339" d="M145 400q0 223 84 415q94 212 248 369q176 178 342 184q52 2 105.5 -12.5t46.5 -32.5q206 -44 280 -88q125 -71 127 -219q5 -244 -123 -457q-120 -202 -299 -340q-39 -31 -104 -65q-79 -41 -90 -48q-55 -34 -171 -34q-108 0 -149 45q-99 5 -180 55q-88 54 -108 133 q-9 36 -9 95zM261 418q0 -109 56 -168q67 -70 271 -70q85 0 143 19q304 95 469 434q52 105 52 273q0 69 -15 112q-34 99 -88 154q-45 46 -133 85q-61 28 -135 25q-294 -10 -521 -500q-99 -215 -99 -364zM479 407q0 10 6 25q16 32 33 84q0 36 8 37q7 3 31 -33q38 77 92 228 q18 48 74 249q-70 -23 -88 -32q-35 -19 -8 -99q1 -3 1 -6q0 -10 -11 -11t-19 9q-20 26 -35 64q-10 25 -10 40q0 30 39 54q45 27 141 51q2 4 8 37q5 26 15 26q12 -5 32 -45q112 28 154 27q48 -1 74 -68q59 -40 59 -94q0 -60 -74.5 -151.5t-128.5 -91.5q-45 0 -114 34 q159 -272 198 -274q22 -1 48 18q27 22 27 -3q0 -6 -5 -15q-49 -85 -86 -88q-23 -2 -57 27q-67 56 -185 284q-47 -164 -123 -311q-9 -19 -28 -23q-18 -5 -31 6q-37 26 -37 45zM729 791q33 -16 69 -16q77 0 136 75.5t59 125.5q0 62 -86 62q-54 0 -114 -22q-22 -112 -64 -225z " />
<glyph unicode="&#xaf;" horiz-adv-x="1024" d="M224 1490v97h1024v-97h-1024z" />
<glyph unicode="&#xb0;" horiz-adv-x="471" d="M168 918q-1 46 24 111q27 74 68 116q20 21 37 21q16 0 80 -48q5 -2 5 -6q0 -6 -9 -10.5t-15 -1.5q-16 4 -36 -19q-36 -39 -52 -137q-3 -19 -3 -35q0 -68 46 -67q93 1 127 211q8 48 -20 65q-20 9 -20 19q0 8 21 8q10 0 25 -2q85 -13 85 -79q0 -32 -17 -83q-20 -60 -30 -81 q-16 -34 -46 -66q-44 -33 -106 -27q-15 -2 -31 4q-131 18 -133 107z" />
<glyph unicode="&#xb1;" horiz-adv-x="868" d="M119 12q3 12 12 64q6 39 88 30q138 -13 359 -16q84 -1 92 16q7 13 21 12q14 -2 14 -16q0 -12 -12.5 -45.5t-21.5 -41.5q-13 -11 -48 -9q-204 12 -369 12q-92 0 -102 -16q-6 -10 -21 -7q-17 3 -12 17zM145 436q4 12 15 70q7 44 96 35t186 -13q12 45 33 142q18 93 4 104 q-13 11 -9 26t19 13q5 -1 49 -27t44 -50q0 -13 -7 -36q-19 -69 -45 -176q25 0 125 -2q92 -2 103 19q7 14 23 12q16 -1 16 -16t-14 -53t-24 -46q-15 -13 -54 -10q-115 8 -197 10q-5 -23 -29 -135q-15 -74 -16 -87q-2 -19 10 -28q7 -8 3 -22q-3 -15 -14 -15q-5 0 -9 3 q-12 6 -64 28q-28 11 -28 41q0 19 14 62q24 73 45 155q-41 2 -125 2q-102 0 -113 -18q-6 -12 -23 -9q-18 4 -14 21z" />
<glyph unicode="&#xb2;" horiz-adv-x="702" d="M250 803q4 47 14 74q17 57 82 57q13 0 29 -2q156 126 219 205q51 64 51 133q0 31 -63 24q-62 -6 -146 -71q-20 -16 -21 -20q0 -1 5 -27q2 -13 -2 -17q-4 -3 -11 0.5t-14 9.5q-15 14 -37 41q-18 28 -18 43q0 16 18 29q176 127 279 127q23 -2 49 -45q52 11 45 11 q31 0 31 -72q0 -61 -11 -88q-17 -44 -79 -107q-28 -28 -99 -79q-99 -71 -143 -105q148 -11 299 -72q41 -17 41 -76q0 -24 -6 -45q-4 -13 -19 -16q-10 0 -18 16q1 9 -39 31q-162 50 -301 50q-21 0 -41 -1q-11 -14 -35 -39q-7 -5 -35 -2q-26 10 -24 33z" />
<glyph unicode="&#xb3;" horiz-adv-x="711" d="M137 681q0 15 16 15q7 0 13 -4q28 -17 59 -17q42 0 133 36q237 93 293 182q21 32 -10 51q-44 27 -180 19q-62 -4 -68 26q-4 22 -4 86q0 17 31 31q157 73 205 145q11 18 11 31q0 22 -35 22q-37 0 -85 -24q-91 -47 -104 -88q-3 -14 -12 -17t-15 7q-31 47 -31 78t27 51 q87 64 176 92q23 7 38 7q19 0 29 -13q10 -16 19 -31q54 -36 54 -113q0 -43 -29 -69q-59 -52 -195 -140q93 -9 123 -14q66 -12 100 -37q27 -18 27 -34q0 -9 -14 -35q14 -23 14 -58q0 -54 -29 -86q-76 -84 -206 -144q-122 -56 -214 -56q-38 0 -73 28q-8 6 -56 56q-8 9 -8 17z " />
<glyph unicode="&#xb4;" horiz-adv-x="614" d="M460 994q0 7 3 14q43 93 147 202q32 33 59 33q13 0 31 -8l58 -27q8 -4 8 -10q0 -27 -41 -27q-27 0 -74 -36q-74 -59 -143 -146q-13 -17 -28 -17q-20 0 -20 22z" />
<glyph unicode="&#xb5;" horiz-adv-x="813" d="M11 -180q0 268 161 751q-17 -16 -51 -47q-13 -11 -20 -6q-8 6 3 23q54 79 64 104q31 78 65 121q18 22 38 22q27 0 79 -32q14 -9 14 -18l-22 -33q-50 -76 -106 -268q-61 -208 -62 -339q0 -43 18 -43q16 0 52 37q77 82 223 310q129 201 156 262q45 102 73 120q18 12 32 12 t54 -21t40 -31q0 -3 -7 -8t-10 -11q-133 -247 -199 -580q28 49 68 125q5 14 16 14q15 0 15 -19q0 -6 -3 -13q-64 -146 -84 -225q-12 -50 -32 -50t-78 39q-31 22 -21 78q42 218 101 379q-193 -314 -324 -463q-27 -31 -66 -31q-43 0 -83 35q-11 -66 -11 -133q0 -117 33 -207 q13 -34 48 -61q30 -23 30 -31q0 -11 -16 -11q-7 0 -17 3q-63 22 -87 39q-33 22 -60 72q-24 43 -24 135z" />
<glyph unicode="&#xb6;" horiz-adv-x="1040" d="M-97 -190q0 14 14 14q11 0 26 -10q56 -42 74 -53q51 -31 98 -37q23 -4 28 -3q87 -12 215 279q68 156 242 651q-20 -2 -96 -48q-72 -45 -104 -45q-16 0 -27 9q-111 59 -111 134q0 11 2 24q60 321 263 494q162 139 309 124q107 -10 153 -59q12 28 19 70q5 37 23 37 q17 0 67 -41q30 -25 8 -90l-282 -890q-129 -393 -243 -545q-139 -185 -358 -185q-84 0 -173 42q-80 37 -128 91q-19 21 -19 37zM205 -283q162 4 273 159q97 136 217 485q137 426 274 851q-36 52 -95 74q-66 -229 -233 -751q-288 -837 -436 -818z" />
<glyph unicode="&#xb7;" horiz-adv-x="344" d="M116 578q-4 11 9 14q52 118 63 164q11 42 31 42q17 0 68 -18q26 -9 26 -33q0 -21 -41 -116q-31 -75 -69 -75q14 0 -72 9q-12 1 -15 13z" />
<glyph unicode="&#xb8;" horiz-adv-x="614" d="M60 -293q0 16 13 16t29 -14q4 -1 9 -1q79 0 159 61q30 22 30 35q0 16 -42 18q-51 2 -125 -17q-27 -4 -45 45q-8 22 12 54q24 37 76 108l45 -14q-18 -42 -43 -107q37 8 103 0q34 -4 44 -19q7 -11 7 -48q30 -40 30 -70t-30 -55q-64 -52 -195 -84q-8 -2 -16 -2q-36 0 -58 74 q-3 12 -3 20z" />
<glyph unicode="&#xb9;" horiz-adv-x="516" d="M263 1091q0 12 11 21q118 92 199 240q14 25 35 16q14 32 59 32q38 0 76 -26q12 -8 12 -17q0 -16 -30 -18q-56 -72 -101 -200q-47 -133 -61 -267q-5 -42 6 -57q17 -34 -15 -34q-9 0 -22 5l-74 30q-25 14 -25 43q0 14 5 36q41 199 104 326q-59 -66 -141 -150q-6 -5 -13 -5 q-25 0 -25 25z" />
<glyph unicode="&#xba;" horiz-adv-x="797" d="M352 1004q-8 73 40.5 207t109.5 202q27 31 59 31q40 0 92 -49q16 7 62 26q23 9 43 9q50 0 84 -52q20 -31 20 -71q0 -56 -30 -165q-46 -162 -130 -251q-43 -47 -129 -47q-20 0 -53 8q-154 24 -168 152zM460 998q0 -111 66 -107q26 1 58 22q58 39 107 155q46 108 59 218 q10 89 -12 89q-8 0 -19 -3l-109 -43q-20 -8 -21 -8q-6 0 -11 14q-80 -97 -111 -268q-7 -38 -7 -69z" />
<glyph unicode="&#xbb;" horiz-adv-x="891" d="M25 88q0 30 57 72q62 40 188 145q51 52 51 63q0 4 -2 7q-84 168 -131 307q-16 47 -16 73q0 39 45 64q60 35 76 35q12 0 12 -15q0 -13 -6 -37t-6 -37q0 -134 168 -386q3 -4 3 -9q0 -26 -111 -103.5t-158 -131.5q3 -42 -14 -61q-8 -8 -58 -39q-37 -23 -45 -23q-13 0 -33 31 t-20 45zM373 86q0 29 57 72q63 40 188 143q51 51 51 62q0 5 -1 8q-82 164 -131 309q-16 46 -16 72q0 37 44 63q59 35 76 35q12 0 12 -15q0 -12 -6 -36.5t-6 -37.5q0 -138 168 -386q3 -4 3 -9q0 -28 -112.5 -104.5t-156.5 -130.5q3 -42 -14 -62q-7 -7 -58 -38 q-35 -22 -44 -22q-13 0 -33.5 31.5t-20.5 45.5z" />
<glyph unicode="&#xbc;" horiz-adv-x="1421" d="M174 19q0 29 24 63l723 1026q116 165 116 247q0 11 -6 26q-3 9 -3 20q0 19 18 19q9 0 20 -7l62 -41q28 -18 28 -44q0 -34 -20 -62l-709 -1014q-84 -120 -127 -225q-8 -21 -8 -44q0 -9 4 -22q4 -11 4 -20q0 -21 -17 -21q-9 0 -21 8l-62 43q-26 18 -26 48zM257 1090 q0 11 8 20q3 2 31 25q96 79 171 217q11 18 25 18q3 0 10 -2q16 32 59 32q39 0 78 -27q10 -8 10 -17q0 -15 -30 -17q-58 -78 -101 -200q-62 -179 -62 -292q0 -20 7 -32q6 -9 6 -21q0 -13 -20 -13q-11 0 -60 20q-43 17 -49 24q-13 13 -13 35q0 34 36 162q29 106 73 199 q-41 -46 -110 -119q-34 -36 -45 -36q-24 0 -24 24zM720 190q0 33 27 40q145 137 221 293q-3 5 -15 24q-23 36 -23 40q0 12 26 12q9 0 46 57q42 67 48 76q8 16 27 16t53 -18q20 -11 20 -26q0 -29 -55 -125q-38 -66 -102 -151q-59 -77 -105 -118q-55 -50 -55 -60q0 -4 11 -7 q3 0 118 -9q37 -3 49 -3q19 0 59 3q25 93 61 186q41 109 67 119q9 3 40 3q18 0 18 -8q0 -5 -9 -15q-55 -51 -103 -279q56 0 69 30q5 9 13 9q12 0 17 -36l4 -27q5 -28 6 -35q2 -11 2 -15q0 -27 -34 -32q-38 -6 -93 -6q-25 -112 -25 -154q0 -15 8 -26q3 -4 3 -7q0 -19 -21 -19 q-16 0 -70 30q-10 13 -10 20q28 124 35 154q-87 -2 -123 -2q-82 0 -139 4q-9 -20 -29 -20q-37 0 -37 82z" />
<glyph unicode="&#xbd;" horiz-adv-x="1421" d="M134 19q0 29 24 63l723 1026q116 165 116 247q0 11 -6 26q-3 9 -3 20q0 19 18 19q9 0 20 -7l62 -41q28 -18 28 -44q0 -34 -20 -62l-709 -1014q-84 -120 -127 -225q-8 -21 -8 -44q0 -9 4 -22q4 -11 4 -20q0 -21 -17 -21q-9 0 -21 8l-62 43q-26 18 -26 48zM217 1090 q0 11 8 20q3 2 31 25q96 79 171 217q11 18 25 18q3 0 10 -2q16 32 59 32q39 0 78 -27q10 -8 10 -17q0 -15 -30 -17q-58 -78 -101 -200q-62 -179 -62 -292q0 -20 7 -32q6 -9 6 -21q0 -13 -20 -13q-11 0 -60 20q-43 17 -49 24q-13 13 -13 35q0 34 36 162q29 106 73 199 q-41 -46 -110 -119q-34 -36 -45 -36q-24 0 -24 24zM757 76q0 34 14 76q19 57 82 57q10 0 29 -2q137 112 198 181q72 81 72 154q0 15 -10.5 22t-31.5 7q-41 0 -71 -14q-62 -29 -105 -66q-11 -9 -12 -13l5 -25q1 -6 1 -10q0 -10 -7 -10q-10 0 -28 19q-48 49 -48 77q0 14 18 28 q90 71 204 114q37 14 67 14q14 0 28.5 -11.5t28.5 -34.5q10 1 12 3q16 9 18 9l16 -2v1h-1q31 -2 31 -72q0 -71 -20 -108q-37 -65 -116 -126q-22 -18 -76 -56q-71 -52 -109 -80l-11 -9q125 -11 237 -47q68 -22 85 -42q18 -20 18 -59q0 -56 -25 -61q-10 -1 -18 16q0 10 -39 31 q-166 50 -297 50q-29 0 -45 -1q-7 -9 -35 -39q-5 -3 -17 -3q-5 0 -18 1q-24 10 -24 31z" />
<glyph unicode="&#xbe;" horiz-adv-x="1421" d="M144 19q0 29 24 63l723 1026q116 165 116 247q0 11 -6 26q-3 9 -3 20q0 19 18 19q9 0 20 -7l62 -41q28 -18 28 -44q0 -34 -20 -62l-709 -1014q-84 -120 -127 -225q-8 -21 -8 -44q0 -9 4 -22q4 -11 4 -20q0 -21 -17 -21q-9 0 -21 8l-62 43q-26 18 -26 48zM227 1090 q0 11 8 20q3 2 31 25q96 79 171 217q11 18 25 18q3 0 10 -2q16 32 59 32q39 0 78 -27q10 -8 10 -17q0 -15 -30 -17q-58 -78 -101 -200q-62 -179 -62 -292q0 -20 7 -32q6 -9 6 -21q0 -13 -20 -13q-11 0 -60 20q-43 17 -49 24q-13 13 -13 35q0 34 36 162q29 106 73 199 q-41 -46 -110 -119q-34 -36 -45 -36q-24 0 -24 24zM692 40q0 14 15 14q8 0 14 -4q26 -17 58 -17q31 0 93 21q127 43 239 113q104 65 104 109q0 15 -19 26q-36 21 -116 21q-22 0 -64 -2h-17q-41 0 -50 22q-6 15 -6 78q0 18 6 26t26 17q136 63 189 125q27 30 27 51 q0 11 -8.5 16.5t-25.5 5.5q-37 0 -86 -24q-93 -46 -105 -91q-4 -15 -15 -15q-6 0 -11 8q-31 45 -31 79q0 48 120 108q83 41 121 41q22 0 39 -29q5 -9 9 -15q27 -19 40.5 -46.5t13.5 -62.5q0 -39 -19 -62q-30 -38 -205 -151q128 -12 165 -23q43 -13 69 -36q16 -15 16 -26 q0 -8 -14 -35q14 -24 14 -59q0 -51 -29 -85q-69 -80 -206 -144q-121 -56 -211 -56q-43 0 -79 30q-61 52 -61 72z" />
<glyph unicode="&#xbf;" horiz-adv-x="956" d="M31 147q0 97 158 328q140 205 294 365q-128 -35 -111 -35q-27 0 -27 27q0 18 26 28q174 67 227 115q22 20 38 20q31 0 62 -94q2 -6 2 -11q0 -15 -57 -63q-150 -125 -294 -319q-156 -210 -167 -328q-9 -102 95 -102q29 0 59 12q215 91 379 279q13 15 13 36q0 12 -5.5 32.5 t-5.5 27.5q0 12 8 18t17 6q22 0 44 -28q66 -83 66 -108q0 -27 -35 -62q-236 -237 -436 -309q-49 -18 -83 -18q-55 0 -120 87q-54 9 -96 33q-51 29 -51 63zM503 1218q0 25 89 103q50 44 81 44q12 0 107 -44q8 -4 12 -12t0 -13q-3 -6 -14 -4q-95 -81 -131 -125 q-25 -29 -37 -29q-19 0 -86 48q-21 15 -21 32z" />
<glyph unicode="&#xc0;" horiz-adv-x="1311" d="M4 20q-12 31 35 62q62 40 170 135t141 137q-9 91 -9 95q2 57 43 74q36 15 128 20q248 302 399 590q-49 -26 -176 -67q-203 -66 -280 -93q-109 -39 -109 -136q0 -20 4 -44q6 -37 -19 -37q-18 0 -26 16q-55 115 -65 162q-9 42 -9 44q0 35 33 64q60 51 228 76 q252 38 434 119q22 22 24 25q5 7 10.5 27t19.5 20q23 0 69 -49q15 -17 15 -34q0 -10 -34 -69q-74 -131 -198 -317q-138 -208 -214 -295q238 0 373 12q14 140 61 399l48 254q15 108 145 158q20 8 33 8q22 0 22 -19q0 -18 -20 -46q-62 -89 -117 -477q-48 -343 -45 -535 q4 -192 63 -192q11 0 31.5 8t31.5 8q20 0 20 -15q0 -11 -15 -24q-50 -44 -153 -98q-25 -13 -43 -13q-98 0 -70 496q-240 -14 -453 -39l-198 -242q53 6 40 6q48 0 74 -98q7 -23 7 -36q0 -24 -21 -24q-10 0 -29.5 5t-30.5 5q-85 0 -229 -91l-43 -27q-8 0 -30 15q-47 32 -66 77 zM923 1690q0 6 9 10l57 27q18 8 32 8q27 0 58 -33q104 -109 148 -202q3 -7 3 -14q0 -22 -21 -22q-14 0 -27 17q-71 89 -149 150q-42 32 -69 32q-41 0 -41 27z" />
<glyph unicode="&#xc1;" horiz-adv-x="1311" d="M4 20q-12 31 35 62q62 40 170 135t141 137q-9 91 -9 95q2 57 43 74q36 15 128 20q248 302 399 590q-49 -26 -176 -67q-203 -66 -280 -93q-109 -39 -109 -136q0 -20 4 -44q6 -37 -19 -37q-18 0 -26 16q-55 115 -65 162q-9 42 -9 44q0 35 33 64q60 51 228 76 q252 38 434 119q22 22 24 25q5 7 10.5 27t19.5 20q23 0 69 -49q15 -17 15 -34q0 -10 -34 -69q-74 -131 -198 -317q-138 -208 -214 -295q238 0 373 12q14 140 61 399l48 254q15 108 145 158q20 8 33 8q22 0 22 -19q0 -18 -20 -46q-62 -89 -117 -477q-48 -343 -45 -535 q4 -192 63 -192q11 0 31.5 8t31.5 8q20 0 20 -15q0 -11 -15 -24q-50 -44 -153 -98q-25 -13 -43 -13q-98 0 -70 496q-240 -14 -453 -39l-198 -242q53 6 40 6q48 0 74 -98q7 -23 7 -36q0 -24 -21 -24q-10 0 -29.5 5t-30.5 5q-85 0 -229 -91l-43 -27q-8 0 -30 15q-47 32 -66 77 zM1050 1486q0 7 3 14q43 93 147 202q32 33 59 33q13 0 31 -8l58 -27q8 -4 8 -10q0 -27 -41 -27q-27 0 -74 -36q-74 -59 -143 -146q-13 -17 -28 -17q-20 0 -20 22z" />
<glyph unicode="&#xc2;" horiz-adv-x="1311" d="M4 20q-12 31 35 62q62 40 170 135t141 137q-9 91 -9 95q2 57 43 74q36 15 128 20q248 302 399 590q-49 -26 -176 -67q-203 -66 -280 -93q-109 -39 -109 -136q0 -20 4 -44q6 -37 -19 -37q-18 0 -26 16q-55 115 -65 162q-9 42 -9 44q0 35 33 64q60 51 228 76 q252 38 434 119q22 22 24 25q5 7 10.5 27t19.5 20q23 0 69 -49q15 -17 15 -34q0 -10 -34 -69q-74 -131 -198 -317q-138 -208 -214 -295q238 0 373 12q14 140 61 399l48 254q15 108 145 158q20 8 33 8q22 0 22 -19q0 -18 -20 -46q-62 -89 -117 -477q-48 -343 -45 -535 q4 -192 63 -192q11 0 31.5 8t31.5 8q20 0 20 -15q0 -11 -15 -24q-50 -44 -153 -98q-25 -13 -43 -13q-98 0 -70 496q-240 -14 -453 -39l-198 -242q53 6 40 6q48 0 74 -98q7 -23 7 -36q0 -24 -21 -24q-10 0 -29.5 5t-30.5 5q-85 0 -229 -91l-43 -27q-8 0 -30 15q-47 32 -66 77 zM873 1488q0 19 36 26q45 3 246 160q18 14 29 39q8 18 32 26q37 13 41 -4q16 -66 54.5 -141t68.5 -96q28 -7 28 -17q0 -11 -38 -26q-45 -19 -56 -19q-19 0 -38 33q-40 65 -84 162q-3 10 -37 -13q-90 -68 -215 -157q-35 -22 -45 -22t-17 22q-5 17 -5 27z" />
<glyph unicode="&#xc3;" horiz-adv-x="1311" d="M4 20q-12 31 35 62q62 40 170 135t141 137q-9 91 -9 95q2 57 43 74q36 15 128 20q248 302 399 590q-49 -26 -176 -67q-203 -66 -280 -93q-109 -39 -109 -136q0 -20 4 -44q6 -37 -19 -37q-18 0 -26 16q-55 115 -65 162q-9 42 -9 44q0 35 33 64q60 51 228 76 q252 38 434 119q22 22 24 25q5 7 10.5 27t19.5 20q23 0 69 -49q15 -17 15 -34q0 -10 -34 -69q-74 -131 -198 -317q-138 -208 -214 -295q238 0 373 12q14 140 61 399l48 254q15 108 145 158q20 8 33 8q22 0 22 -19q0 -18 -20 -46q-62 -89 -117 -477q-48 -343 -45 -535 q4 -192 63 -192q11 0 31.5 8t31.5 8q20 0 20 -15q0 -11 -15 -24q-50 -44 -153 -98q-25 -13 -43 -13q-98 0 -70 496q-240 -14 -453 -39l-198 -242q53 6 40 6q48 0 74 -98q7 -23 7 -36q0 -24 -21 -24q-10 0 -29.5 5t-30.5 5q-85 0 -229 -91l-43 -27q-8 0 -30 15q-47 32 -66 77 zM837 1559q33 42 87 93q59 55 73 52q44 -8 129 -104q42 -39 90 -53q32 -7 115 90q1 21 17 21q13 0 26 -15q21 -27 21 -33q0 -7 -7 -16q-34 -41 -86 -91q-59 -55 -72 -53q-46 10 -129 103q-49 45 -92 53q-26 8 -114 -88q0 -22 -15 -22q-13 0 -26 16q-28 33 -17 47z" />
<glyph unicode="&#xc4;" horiz-adv-x="1311" d="M4 20q-12 31 35 62q62 40 170 135t141 137q-9 91 -9 95q2 57 43 74q36 15 128 20q248 302 399 590q-49 -26 -176 -67q-203 -66 -280 -93q-109 -39 -109 -136q0 -20 4 -44q6 -37 -19 -37q-18 0 -26 16q-55 115 -65 162q-9 42 -9 44q0 35 33 64q60 51 228 76 q252 38 434 119q22 22 24 25q5 7 10.5 27t19.5 20q23 0 69 -49q15 -17 15 -34q0 -10 -34 -69q-74 -131 -198 -317q-138 -208 -214 -295q238 0 373 12q14 140 61 399l48 254q15 108 145 158q20 8 33 8q22 0 22 -19q0 -18 -20 -46q-62 -89 -117 -477q-48 -343 -45 -535 q4 -192 63 -192q11 0 31.5 8t31.5 8q20 0 20 -15q0 -11 -15 -24q-50 -44 -153 -98q-25 -13 -43 -13q-98 0 -70 496q-240 -14 -453 -39l-198 -242q53 6 40 6q48 0 74 -98q7 -23 7 -36q0 -24 -21 -24q-10 0 -29.5 5t-30.5 5q-85 0 -229 -91l-43 -27q-8 0 -30 15q-47 32 -66 77 zM993 1481q0 13 6 10q31 82 45 199q2 19 15 41q5 1 47 -45q11 -12 14 -33q3 -41 -33 -133q-33 -86 -48 -86q-12 0 -28 17.5t-18 29.5zM1206 1481q0 12 6 12q34 88 47 199q1 18 13 39q5 1 47 -45q12 -14 14 -33q4 -37 -33 -131q-34 -87 -49 -87q-3 0 -6 1q-35 21 -39 45z" />
<glyph unicode="&#xc5;" horiz-adv-x="1311" d="M4 20q-12 31 35 62q62 40 170 135t141 137q-9 91 -9 95q2 57 43 74q36 15 128 20q248 302 399 590q-49 -26 -176 -67q-203 -66 -280 -93q-109 -39 -109 -136q0 -20 4 -44q6 -37 -19 -37q-18 0 -26 16q-55 115 -65 162q-9 42 -9 44q0 35 33 64q60 51 228 76 q252 38 434 119q22 22 24 25q5 7 10.5 27t19.5 20q23 0 69 -49q15 -17 15 -34q0 -10 -34 -69q-74 -131 -198 -317q-138 -208 -214 -295q238 0 373 12q14 140 61 399l48 254q15 108 145 158q20 8 33 8q22 0 22 -19q0 -18 -20 -46q-62 -89 -117 -477q-48 -343 -45 -535 q4 -192 63 -192q11 0 31.5 8t31.5 8q20 0 20 -15q0 -11 -15 -24q-50 -44 -153 -98q-25 -13 -43 -13q-98 0 -70 496q-240 -14 -453 -39l-198 -242q53 6 40 6q48 0 74 -98q7 -23 7 -36q0 -24 -21 -24q-10 0 -29.5 5t-30.5 5q-85 0 -229 -91l-43 -27q-8 0 -30 15q-47 32 -66 77 zM960 1557q0 17 10 35q21 35 90.5 86.5t106.5 51.5q21 0 47 -64q6 -10 -9 -10q-7 0 -9 3q-8 11 -31 4q-54 -16 -117 -92q-27 -33 -27 -56q0 -34 42 -34q76 0 170 117q23 29 10 51q-6 10 -6 16q0 7 8 6q9 -2 27 -16q32 -25 32 -52q0 -32 -51 -79q-81 -74 -139 -88 q-34 -8 -80 21q-9 5 -16 14q-58 50 -58 86z" />
<glyph unicode="&#xc6;" horiz-adv-x="1782" d="M-10 70q0 25 55 80q92 92 92 139q0 17 18 23q17 6 25 -3q35 -35 74 -90q20 16 111 123q-14 139 17.5 167t164.5 32q91 111 228 320q132 200 202 329q-275 31 -340 31q-51 0 -96 -4q-139 -15 -139 -144q0 -52 20 -147q1 -6 1 -11q0 -30 -27 -30q-24 0 -31 24 q-50 152 -50 267q0 55 11 104q17 79 236 79q187 0 597 -63q41 47 107 72q19 7 32 7q22 0 22 -18q0 -17 -20 -46q-9 -14 -18 -35q201 -36 451 -86q13 -3 25 -3q42 0 73 38q13 16 33 16q26 0 34 -33q18 -69 18 -80q0 -21 -52 -51q-44 -24 -142 -6q-181 35 -477 86 q-47 -187 -69 -393q254 22 434 27q56 1 76 -37q2 -6 16 -68q2 -8 2 -14q0 -34 -78 -47q-53 -10 -67 -8q-18 1 -29 20q-16 27 -55 27q-3 0 -71.5 2t-119.5 2q-73 0 -121 -4q-33 -295 -33 -416q0 -38 3 -66q179 -5 464 -30q32 -3 39.5 30.5t20.5 34.5q26 2 33 -22 q11 -40 28 -115q5 -19 -18 -41q-21 -17 -41.5 -34t-37.5 -16q-2 1 -56 15q-218 59 -332 53q-24 -1 -62 -8q-8 -5 -55 -63q-16 -21 -38 -21q-55 0 -70 92q-88 -3 -158 -12q-11 -21 -27 -21q-20 0 -34 35q-12 29 -12 52q0 58 220 69q-4 147 2 273q-181 -7 -430 -19 q-303 -360 -335 -396q-78 -84 -116 -84q-7 0 -16 1q-18 3 -71 74q-41 20 -41 41zM664 547q235 0 348 10q13 128 102 617q-12 2 -43 6q-4 -9 -12 -25q-229 -402 -395 -608z" />
<glyph unicode="&#xc7;" horiz-adv-x="1034" d="M102 252q0 242 127 520q109 241 269 424q154 175 250 182q35 3 81 -29q6 -4 93 -75q5 40 27 40q24 0 81 -44q36 -28 36 -54q0 -17 -11 -63q-48 -195 -111 -301q-29 -50 -57 -50q-11 0 -27 5q-76 23 -76 55q0 16 21 21q88 132 104 317q-55 49 -104 49q-104 1 -246 -183 q-131 -172 -227 -408q-100 -246 -96 -410q2 -103 57 -142q52 -35 97 -35q28 0 65 13q240 88 422 283q25 27 30 69q3 22 20 22q14 0 21 -18q36 -90 36 -125q0 -33 -27 -62q-18 -18 -85 -69q-211 -158 -364 -198q-38 -10 -68 -13q-29 -2 -51 2q-5 -12 -24 -84q37 8 102 0 q35 -4 44 -19q7 -11 7 -48q30 -40 30 -70t-30 -55q-64 -52 -194 -84q-9 -2 -16 -2q-37 0 -58 74q-4 12 -4 20q0 16 13 16t30 -14q4 -1 9 -1q78 0 159 61q29 22 29 35q0 16 -42 18q-50 2 -125 -17q-27 -4 -45 45q-7 22 13 54q35 55 57 86q-24 12 -47 39q-195 73 -195 223z " />
<glyph unicode="&#xc8;" horiz-adv-x="1235" d="M137 111q0 38 43 51q39 12 174 18q105 194 162 383q-6 18 -31 72q-15 36 -15 52q0 38 77 57q15 4 33 8q46 176 114 450q-143 25 -212 25q-46 0 -93 -6q-110 -16 -110 -147q0 -59 22 -146q10 -39 -17 -39q-19 0 -26 24q-42 138 -42 232q0 67 20 129q29 92 173 92 q106 0 318 -41q52 38 72 38q14 0 14 -18q0 -13 -8 -36q40 -12 395 -92q46 -11 72 34q11 16 25 16q20 0 26 -32q8 -43 8 -63q0 -23 -12 -36q-2 -2 -39 -30q-30 -23 -88 -8q-185 47 -422 86q-68 -276 -100 -416q110 9 377 23q56 1 75 -37q3 -6 17 -68q1 -8 1 -14 q0 -34 -79 -47q-84 -15 -96 9q-14 30 -54 30q-222 0 -272 -9l-80 -249q-35 -102 -61.5 -141.5t-85.5 -80.5q35 2 76 2q165 0 546 -34q31 -3 37.5 30.5t20.5 34.5q27 2 34 -22q10 -43 27 -115q5 -20 -18 -41q-22 -17 -42 -34t-36 -16q-4 1 -58 15q-215 58 -482 58 q-109 0 -234 -9q-84 -73 -105 -73q-17 0 -22 26q-19 94 -19 105zM763 1690q0 6 9 10l57 27q18 8 32 8q27 0 58 -33q104 -109 148 -202q3 -7 3 -14q0 -22 -21 -22q-14 0 -27 17q-71 89 -149 150q-42 32 -69 32q-41 0 -41 27z" />
<glyph unicode="&#xc9;" horiz-adv-x="1235" d="M137 111q0 38 43 51q39 12 174 18q105 194 162 383q-6 18 -31 72q-15 36 -15 52q0 38 77 57q15 4 33 8q46 176 114 450q-143 25 -212 25q-46 0 -93 -6q-110 -16 -110 -147q0 -59 22 -146q10 -39 -17 -39q-19 0 -26 24q-42 138 -42 232q0 67 20 129q29 92 173 92 q106 0 318 -41q52 38 72 38q14 0 14 -18q0 -13 -8 -36q40 -12 395 -92q46 -11 72 34q11 16 25 16q20 0 26 -32q8 -43 8 -63q0 -23 -12 -36q-2 -2 -39 -30q-30 -23 -88 -8q-185 47 -422 86q-68 -276 -100 -416q110 9 377 23q56 1 75 -37q3 -6 17 -68q1 -8 1 -14 q0 -34 -79 -47q-84 -15 -96 9q-14 30 -54 30q-222 0 -272 -9l-80 -249q-35 -102 -61.5 -141.5t-85.5 -80.5q35 2 76 2q165 0 546 -34q31 -3 37.5 30.5t20.5 34.5q27 2 34 -22q10 -43 27 -115q5 -20 -18 -41q-22 -17 -42 -34t-36 -16q-4 1 -58 15q-215 58 -482 58 q-109 0 -234 -9q-84 -73 -105 -73q-17 0 -22 26q-19 94 -19 105zM880 1486q0 7 3 14q43 93 147 202q32 33 59 33q13 0 31 -8l58 -27q8 -4 8 -10q0 -27 -41 -27q-27 0 -74 -36q-74 -59 -143 -146q-13 -17 -28 -17q-20 0 -20 22z" />
<glyph unicode="&#xca;" horiz-adv-x="1235" d="M137 111q0 38 43 51q39 12 174 18q105 194 162 383q-6 18 -31 72q-15 36 -15 52q0 38 77 57q15 4 33 8q46 176 114 450q-143 25 -212 25q-46 0 -93 -6q-110 -16 -110 -147q0 -59 22 -146q10 -39 -17 -39q-19 0 -26 24q-42 138 -42 232q0 67 20 129q29 92 173 92 q106 0 318 -41q52 38 72 38q14 0 14 -18q0 -13 -8 -36q40 -12 395 -92q46 -11 72 34q11 16 25 16q20 0 26 -32q8 -43 8 -63q0 -23 -12 -36q-2 -2 -39 -30q-30 -23 -88 -8q-185 47 -422 86q-68 -276 -100 -416q110 9 377 23q56 1 75 -37q3 -6 17 -68q1 -8 1 -14 q0 -34 -79 -47q-84 -15 -96 9q-14 30 -54 30q-222 0 -272 -9l-80 -249q-35 -102 -61.5 -141.5t-85.5 -80.5q35 2 76 2q165 0 546 -34q31 -3 37.5 30.5t20.5 34.5q27 2 34 -22q10 -43 27 -115q5 -20 -18 -41q-22 -17 -42 -34t-36 -16q-4 1 -58 15q-215 58 -482 58 q-109 0 -234 -9q-84 -73 -105 -73q-17 0 -22 26q-19 94 -19 105zM689 1488q0 19 36 26q45 3 246 160q18 14 29 39q8 18 32 26q37 13 41 -4q16 -66 54.5 -141t68.5 -96q28 -7 28 -17q0 -11 -38 -26q-45 -19 -56 -19q-19 0 -38 33q-40 65 -84 162q-3 10 -37 -13 q-90 -68 -215 -157q-35 -22 -45 -22t-17 22q-5 17 -5 27z" />
<glyph unicode="&#xcb;" horiz-adv-x="1235" d="M137 111q0 38 43 51q39 12 174 18q105 194 162 383q-6 18 -31 72q-15 36 -15 52q0 38 77 57q15 4 33 8q46 176 114 450q-143 25 -212 25q-46 0 -93 -6q-110 -16 -110 -147q0 -59 22 -146q10 -39 -17 -39q-19 0 -26 24q-42 138 -42 232q0 67 20 129q29 92 173 92 q106 0 318 -41q52 38 72 38q14 0 14 -18q0 -13 -8 -36q40 -12 395 -92q46 -11 72 34q11 16 25 16q20 0 26 -32q8 -43 8 -63q0 -23 -12 -36q-2 -2 -39 -30q-30 -23 -88 -8q-185 47 -422 86q-68 -276 -100 -416q110 9 377 23q56 1 75 -37q3 -6 17 -68q1 -8 1 -14 q0 -34 -79 -47q-84 -15 -96 9q-14 30 -54 30q-222 0 -272 -9l-80 -249q-35 -102 -61.5 -141.5t-85.5 -80.5q35 2 76 2q165 0 546 -34q31 -3 37.5 30.5t20.5 34.5q27 2 34 -22q10 -43 27 -115q5 -20 -18 -41q-22 -17 -42 -34t-36 -16q-4 1 -58 15q-215 58 -482 58 q-109 0 -234 -9q-84 -73 -105 -73q-17 0 -22 26q-19 94 -19 105zM770 1481q0 13 6 10q31 82 45 199q2 19 15 41q5 1 47 -45q11 -12 14 -33q3 -41 -33 -133q-33 -86 -48 -86q-12 0 -28 17.5t-18 29.5zM983 1481q0 12 6 12q34 88 47 199q1 18 13 39q5 1 47 -45q12 -14 14 -33 q4 -37 -33 -131q-34 -87 -49 -87q-3 0 -6 1q-35 21 -39 45z" />
<glyph unicode="&#xcc;" horiz-adv-x="848" d="M102 82q0 35 32 35q8 0 16 -4q86 -44 147 -45q133 -4 293 395q153 385 164 690q3 99 -98 99q-16 0 -35 -3q-78 -11 -177 -124q-110 -126 -155 -287q-6 -21 -6 -40q0 -37 25 -68l46 -46q11 -11 11 -20q0 -19 -30 -19q-12 0 -20 4q-86 51 -118 83q-38 39 -38 89 q0 47 36 129q52 121 155 237q98 111 176 144q36 16 148 -18q7 9 21 9q39 0 153 -75q51 -33 29 -223q-35 -291 -184 -648q-175 -421 -339 -423q-99 -1 -241 106q-11 9 -11 23zM534 1690q0 6 9 10l57 27q18 8 32 8q27 0 58 -33q104 -109 148 -202q3 -7 3 -14q0 -22 -21 -22 q-14 0 -27 17q-71 89 -149 150q-42 32 -69 32q-41 0 -41 27z" />
<glyph unicode="&#xcd;" horiz-adv-x="848" d="M102 82q0 35 32 35q8 0 16 -4q86 -44 147 -45q133 -4 293 395q153 385 164 690q3 99 -98 99q-16 0 -35 -3q-78 -11 -177 -124q-110 -126 -155 -287q-6 -21 -6 -40q0 -37 25 -68l46 -46q11 -11 11 -20q0 -19 -30 -19q-12 0 -20 4q-86 51 -118 83q-38 39 -38 89 q0 47 36 129q52 121 155 237q98 111 176 144q36 16 148 -18q7 9 21 9q39 0 153 -75q51 -33 29 -223q-35 -291 -184 -648q-175 -421 -339 -423q-99 -1 -241 106q-11 9 -11 23zM650 1486q0 7 3 14q43 93 147 202q32 33 59 33q13 0 31 -8l58 -27q8 -4 8 -10q0 -27 -41 -27 q-27 0 -74 -36q-74 -59 -143 -146q-13 -17 -28 -17q-20 0 -20 22z" />
<glyph unicode="&#xce;" horiz-adv-x="848" d="M102 82q0 35 32 35q8 0 16 -4q86 -44 147 -45q133 -4 293 395q153 385 164 690q3 99 -98 99q-16 0 -35 -3q-78 -11 -177 -124q-110 -126 -155 -287q-6 -21 -6 -40q0 -37 25 -68l46 -46q11 -11 11 -20q0 -19 -30 -19q-12 0 -20 4q-86 51 -118 83q-38 39 -38 89 q0 47 36 129q52 121 155 237q98 111 176 144q36 16 148 -18q7 9 21 9q39 0 153 -75q51 -33 29 -223q-35 -291 -184 -648q-175 -421 -339 -423q-99 -1 -241 106q-11 9 -11 23zM468 1488q0 19 36 26q45 3 246 160q18 14 29 39q8 18 32 26q37 13 41 -4q16 -66 54.5 -141 t68.5 -96q28 -7 28 -17q0 -11 -38 -26q-45 -19 -56 -19q-19 0 -38 33q-40 65 -84 162q-3 10 -37 -13q-90 -68 -215 -157q-35 -22 -45 -22t-17 22q-5 17 -5 27z" />
<glyph unicode="&#xcf;" horiz-adv-x="848" d="M102 84q0 33 31 33q9 0 37 -14q71 -35 124 -35q91 0 183 154q74 125 141 322q85 250 112 382q24 112 24 228q0 98 -97 98q-105 0 -213 -127q-114 -133 -155 -287q-6 -22 -6 -39q0 -47 48 -92q34 -32 34 -44q0 -18 -29 -18q-32 0 -114 65q-63 51 -63 110q0 63 58 176 q82 160 225 281q70 59 112 59q39 0 120 -23q8 9 19 9q27 0 79 -25q70 -33 93 -69q19 -30 19 -94q0 -166 -59 -377q-113 -399 -260 -632q-84 -133 -157 -161q-27 -11 -58 -11q-60 0 -143 42q-105 53 -105 89zM549 1484q0 8 4 8q1 0 2 -1q31 83 45 199q2 18 15 41 q21 -3 52 -52q9 -15 9 -32q0 -16 -21 -85q-38 -128 -61 -128q-16 0 -36 30q-9 12 -9 20zM762 1484q0 9 6 9q34 88 47 199q1 19 13 39q9 -1 30 -25q31 -34 31 -61q0 -12 -33 -123q-19 -62 -45 -85q-1 -2 -4 -2t-6 1q-39 24 -39 48z" />
<glyph unicode="&#xd0;" horiz-adv-x="1311" d="M102 778q0 59 80 131q169 153 490 338q53 124 77 124q18 0 74 -54l110 50q46 20 75 20q48 0 129 -54q4 4 13 4q56 0 171 -104q62 -57 62 -123q0 -16 -3 -37q-31 -232 -150 -501q-108 -245 -240 -419.5t-212 -175.5q-99 0 -282 123q-14 10 -14 23q0 32 37 32q10 0 20 -5 q75 -47 166 -52q125 -6 320 367q193 368 224 657q10 93 -100 138q-27 10 -45 8q-193 -27 -373 -140q-83 -195 -172 -471h47q179 0 203 29q9 12 20 12q13 0 13 -18q0 -11 -6 -27q-30 -69 -40 -77q-21 -17 -106 -15q-56 2 -100 0h-62q-97 -318 -139 -541q-10 -50 -42 -50 q-12 0 -28 7q-52 27 -68 44q-22 23 -22 63q0 84 27 201q7 29 21 29q13 0 69 -46q25 82 90 291q-63 -2 -74 -27q-9 -15 -19 -15q-7 0 -7 14q0 12 6 32q21 66 33 82q15 20 47 17q42 -5 47 -5q98 312 135 404q-223 -140 -344 -270q-28 -31 -28 -72q0 -37 24 -84t24 -54 q0 -17 -23 -17q-20 0 -30 11q-125 147 -125 203z" />
<glyph unicode="&#xd1;" horiz-adv-x="1432" d="M96 63q2 52 158 146q82 147 209 473q102 260 133 365q-70 112 -143 153q-28 15 -49 15q-43 0 -115 -54q-19 -14 -37 -14q-23 0 -23 21q0 18 21 38q110 106 136 126q56 45 95 40q61 -7 160 -145q21 52 12 80q-1 5 -1 9q0 13 11 13q19 0 58 -33q20 -17 20 -47 q0 -25 -13 -64q-11 -29 -21 -59q136 -190 281 -454q133 -244 179 -375q35 227 170 750q-25 16 -63 49q-17 18 -17 30q0 17 34.5 14.5t170.5 170.5q31 38 52 38q29 0 75 -53q14 -16 14 -35q0 -35 -53 -97q-40 -42 -80 -85q-81 -229 -149 -493q-81 -312 -84 -457 q17 -46 17 -62q0 -40 -74 -90q-14 -9 -27 -9q-17 0 -32 18q-10 11 -19 22q-15 10 0 86q-88 232 -247 530q-137 256 -196 330q-41 -132 -149 -407q-57 -147 -115 -293q27 10 84 -102q6 -11 6 -18q0 -17 -29 -18q19 1 -48 1q-62 0 -105 -43l-25 -57q-18 -42 -51 -42 q-13 0 -30 7q-102 41 -101 81zM839 1559q33 42 87 93q59 55 73 52q44 -8 129 -104q42 -39 90 -53q32 -7 115 90q1 21 17 21q13 0 26 -15q21 -27 21 -33q0 -7 -7 -16q-34 -41 -86 -91q-59 -55 -72 -53q-46 10 -129 103q-49 45 -92 53q-26 8 -114 -88q0 -22 -15 -22 q-13 0 -26 16q-28 33 -17 47z" />
<glyph unicode="&#xd2;" horiz-adv-x="1194" d="M125 324q10 290 173 621q131 266 253 378q51 47 94 47t87 -24q18 -10 114 -74q78 85 133 123q33 22 68 22q59 0 106 -59q83 -5 107 -22q29 -19 29 -80q0 -35 -9 -113q-36 -312 -207 -679q-223 -482 -493 -493q-52 -2 -99 8q-54 10 -47 27q-164 40 -227 93q-87 73 -82 225 zM260 319q5 -101 39 -153q30 -45 107 -84q61 -31 120 -25q204 22 404 417q190 376 217 753q5 75 -35 75q-32 0 -96 -45q-144 -99 -348 -292q-23 -22 -41 -23q-17 -2 -17 15q0 16 15 38q87 136 178 236q-52 39 -93 39q-25 0 -44 -15q-111 -81 -251 -359q-167 -329 -155 -577z M772 1690q0 6 9 10l57 27q18 8 32 8q27 0 58 -33q104 -109 148 -202q3 -7 3 -14q0 -22 -21 -22q-14 0 -27 17q-71 89 -149 150q-42 32 -69 32q-41 0 -41 27z" />
<glyph unicode="&#xd3;" horiz-adv-x="1194" d="M125 324q10 290 173 621q131 266 253 378q51 47 94 47t87 -24q18 -10 114 -74q78 85 133 123q33 22 68 22q59 0 106 -59q83 -5 107 -22q29 -19 29 -80q0 -35 -9 -113q-36 -312 -207 -679q-223 -482 -493 -493q-52 -2 -99 8q-54 10 -47 27q-164 40 -227 93q-87 73 -82 225 zM260 319q5 -101 39 -153q30 -45 107 -84q61 -31 120 -25q204 22 404 417q190 376 217 753q5 75 -35 75q-32 0 -96 -45q-144 -99 -348 -292q-23 -22 -41 -23q-17 -2 -17 15q0 16 15 38q87 136 178 236q-52 39 -93 39q-25 0 -44 -15q-111 -81 -251 -359q-167 -329 -155 -577z M904 1486q0 7 3 14q43 93 147 202q32 33 59 33q13 0 31 -8l58 -27q8 -4 8 -10q0 -27 -41 -27q-27 0 -74 -36q-74 -59 -143 -146q-13 -17 -28 -17q-20 0 -20 22z" />
<glyph unicode="&#xd4;" horiz-adv-x="1194" d="M125 324q10 290 173 621q131 266 253 378q51 47 94 47t87 -24q18 -10 114 -74q78 85 133 123q33 22 68 22q59 0 106 -59q83 -5 107 -22q29 -19 29 -80q0 -35 -9 -113q-36 -312 -207 -679q-223 -482 -493 -493q-52 -2 -99 8q-54 10 -47 27q-164 40 -227 93q-87 73 -82 225 zM260 319q5 -101 39 -153q30 -45 107 -84q61 -31 120 -25q204 22 404 417q190 376 217 753q5 75 -35 75q-32 0 -96 -45q-144 -99 -348 -292q-23 -22 -41 -23q-17 -2 -17 15q0 16 15 38q87 136 178 236q-52 39 -93 39q-25 0 -44 -15q-111 -81 -251 -359q-167 -329 -155 -577z M730 1488q0 19 36 26q45 3 246 160q18 14 29 39q8 18 32 26q37 13 41 -4q16 -66 54.5 -141t68.5 -96q28 -7 28 -17q0 -11 -38 -26q-45 -19 -56 -19q-19 0 -38 33q-40 65 -84 162q-3 10 -37 -13q-90 -68 -215 -157q-35 -22 -45 -22t-17 22q-5 17 -5 27z" />
<glyph unicode="&#xd5;" horiz-adv-x="1194" d="M125 324q10 290 173 621q131 266 253 378q51 47 94 47t87 -24q18 -10 114 -74q78 85 133 123q33 22 68 22q59 0 106 -59q83 -5 107 -22q29 -19 29 -80q0 -35 -9 -113q-36 -312 -207 -679q-223 -482 -493 -493q-52 -2 -99 8q-54 10 -47 27q-164 40 -227 93q-87 73 -82 225 zM260 319q5 -101 39 -153q30 -45 107 -84q61 -31 120 -25q204 22 404 417q190 376 217 753q5 75 -35 75q-32 0 -96 -45q-144 -99 -348 -292q-23 -22 -41 -23q-17 -2 -17 15q0 16 15 38q87 136 178 236q-52 39 -93 39q-25 0 -44 -15q-111 -81 -251 -359q-167 -329 -155 -577z M729 1559q33 42 87 93q59 55 73 52q44 -8 129 -104q42 -39 90 -53q32 -7 115 90q1 21 17 21q13 0 26 -15q21 -27 21 -33q0 -7 -7 -16q-34 -41 -86 -91q-59 -55 -72 -53q-46 10 -129 103q-49 45 -92 53q-26 8 -114 -88q0 -22 -15 -22q-13 0 -26 16q-28 33 -17 47z" />
<glyph unicode="&#xd6;" horiz-adv-x="1194" d="M125 324q10 290 173 621q131 266 253 378q51 47 94 47t87 -24q18 -10 114 -74q78 85 133 123q33 22 68 22q59 0 106 -59q83 -5 107 -22q29 -19 29 -80q0 -35 -9 -113q-36 -312 -207 -679q-223 -482 -493 -493q-52 -2 -99 8q-54 10 -47 27q-164 40 -227 93q-87 73 -82 225 zM260 319q5 -101 39 -153q30 -45 107 -84q61 -31 120 -25q204 22 404 417q190 376 217 753q5 75 -35 75q-32 0 -96 -45q-144 -99 -348 -292q-23 -22 -41 -23q-17 -2 -17 15q0 16 15 38q87 136 178 236q-52 39 -93 39q-25 0 -44 -15q-111 -81 -251 -359q-167 -329 -155 -577z M858 1519q0 13 6 10q31 82 45 199q2 19 15 41q5 1 47 -45q11 -12 14 -33q3 -41 -33 -133q-33 -86 -48 -86q-12 0 -28 17.5t-18 29.5zM1071 1519q0 12 6 12q34 88 47 199q1 18 13 39q5 1 47 -45q12 -14 14 -33q4 -37 -33 -131q-34 -87 -49 -87q-3 0 -6 1q-35 21 -39 45z" />
<glyph unicode="&#xd7;" horiz-adv-x="868" d="M189 661q0 10 19 19q6 3 34 18q29 16 52 16q15 0 53 -42q19 -21 95 -100q12 -12 26 -27q9 9 22 20l50 49q38 37 51 50q37 38 36 64q-1 29 19 29q9 0 18 -14q37 -59 37 -86q0 -20 -52 -65q-46 -41 -120 -109q153 -158 177 -158q3 0 9 2q9 0 16 -5q11 -10 11 -18 q0 -7 -12 -15q-11 -5 -36 -24q-31 -23 -45 -23q-18 0 -34 15q-13 12 -46 52q-46 54 -103 114q-39 -36 -96 -93q-49 -50 -58 -65q-4 -8 -10 -38q-2 -16 -20 -16q-9 0 -15 12q-7 13 -30 46q-15 22 -15 32q0 30 67 85q41 34 115 101q-29 29 -45 46q-106 109 -133 109 q-3 0 -8 -1h-8q-21 0 -21 20z" />
<glyph unicode="&#xd8;" horiz-adv-x="1188" d="M125 324q9 290 173 621q131 266 253 378q51 47 94 47t87 -24q18 -10 114 -74q34 37 67 67q39 119 39 168q0 15 -4 25q-9 27 13 27q9 0 20 -13q44 -48 44 -92q0 -19 -7 -41q15 4 30 4q59 0 105 -59q83 -5 107 -22q29 -19 29 -80q0 -35 -9 -113q-36 -312 -207 -679 q-223 -482 -493 -493q-50 -2 -99 7q-55 10 -49 24q-32 -63 -96 -180q-26 -46 -60 -46q-9 0 -40 11q-21 5 -21 22q0 16 18 23q30 12 74 90q27 51 53 103q-122 36 -174 93q-65 71 -61 206zM260 319q5 -96 36 -147q28 -47 97 -84q269 525 459 1067q-81 -75 -184 -190 q-14 -16 -30 -16q-22 0 -22 22q0 11 9 24q96 146 178 236q-52 39 -93 39q-25 0 -44 -15q-111 -81 -251 -359q-167 -329 -155 -577zM459 61q39 -7 67 -4q204 22 404 417q190 376 217 753q6 84 -50 84q-36 0 -93 -39q-16 -11 -46 -33q-258 -693 -499 -1178z" />
<glyph unicode="&#xd9;" horiz-adv-x="1534" d="M171 1031q0 83 114 118q195 52 491 143q48 75 87 75q44 0 126 -79q12 -11 12 -20q0 -21 -94 -41q-121 -198 -210 -508q-78 -271 -85 -443q-3 -88 36 -140q35 -48 89 -48q52 0 92 47q177 208 341 488q114 196 290 555q41 83 90 155q22 32 52 32q48 0 165 -101q8 -7 8 -14 q0 -21 -31 -21q-8 0 -23.5 3t-23.5 3q-45 0 -91 -88q-211 -400 -285 -932q15 43 33 69l32 46q13 20 28 20q17 0 17 -23q0 -13 -8 -30q-65 -143 -90 -285q-9 -55 -42 -55q-35 0 -101 55q-42 35 -42 47q0 4 4.5 18t6.5 29q29 217 119 551q-218 -398 -408 -614 q-58 -66 -122 -66q-65 0 -109 60q-104 82 -123 108q-38 52 -38 155q0 23 1 50q8 148 85 391q76 239 175 435q-277 -91 -391 -172q-54 -39 -54 -80q0 1 28 -107q1 -5 1 -10q0 -18 -17 -18q-29 0 -50 36q-85 145 -85 206zM1089 1690q0 6 9 10l57 27q18 8 32 8q27 0 58 -33 q104 -109 148 -202q3 -7 3 -14q0 -22 -21 -22q-14 0 -27 17q-71 89 -149 150q-42 32 -69 32q-41 0 -41 27z" />
<glyph unicode="&#xda;" horiz-adv-x="1534" d="M171 1031q0 83 114 118q195 52 491 143q48 75 87 75q44 0 126 -79q12 -11 12 -20q0 -21 -94 -41q-121 -198 -210 -508q-78 -271 -85 -443q-3 -88 36 -140q35 -48 89 -48q52 0 92 47q177 208 341 488q114 196 290 555q41 83 90 155q22 32 52 32q48 0 165 -101q8 -7 8 -14 q0 -21 -31 -21q-8 0 -23.5 3t-23.5 3q-45 0 -91 -88q-211 -400 -285 -932q15 43 33 69l32 46q13 20 28 20q17 0 17 -23q0 -13 -8 -30q-65 -143 -90 -285q-9 -55 -42 -55q-35 0 -101 55q-42 35 -42 47q0 4 4.5 18t6.5 29q29 217 119 551q-218 -398 -408 -614 q-58 -66 -122 -66q-65 0 -109 60q-104 82 -123 108q-38 52 -38 155q0 23 1 50q8 148 85 391q76 239 175 435q-277 -91 -391 -172q-54 -39 -54 -80q0 1 28 -107q1 -5 1 -10q0 -18 -17 -18q-29 0 -50 36q-85 145 -85 206zM1214 1486q0 7 3 14q43 93 147 202q32 33 59 33 q13 0 31 -8l58 -27q8 -4 8 -10q0 -27 -41 -27q-27 0 -74 -36q-74 -59 -143 -146q-13 -17 -28 -17q-20 0 -20 22z" />
<glyph unicode="&#xdb;" horiz-adv-x="1534" d="M171 1031q0 83 114 118q195 52 491 143q48 75 87 75q44 0 126 -79q12 -11 12 -20q0 -21 -94 -41q-121 -198 -210 -508q-78 -271 -85 -443q-3 -88 36 -140q35 -48 89 -48q52 0 92 47q177 208 341 488q114 196 290 555q41 83 90 155q22 32 52 32q48 0 165 -101q8 -7 8 -14 q0 -21 -31 -21q-8 0 -23.5 3t-23.5 3q-45 0 -91 -88q-211 -400 -285 -932q15 43 33 69l32 46q13 20 28 20q17 0 17 -23q0 -13 -8 -30q-65 -143 -90 -285q-9 -55 -42 -55q-35 0 -101 55q-42 35 -42 47q0 4 4.5 18t6.5 29q29 217 119 551q-218 -398 -408 -614 q-58 -66 -122 -66q-65 0 -109 60q-104 82 -123 108q-38 52 -38 155q0 23 1 50q8 148 85 391q76 239 175 435q-277 -91 -391 -172q-54 -39 -54 -80q0 1 28 -107q1 -5 1 -10q0 -18 -17 -18q-29 0 -50 36q-85 145 -85 206zM1019 1488q0 19 36 26q45 3 246 160q18 14 29 39 q8 18 32 26q37 13 41 -4q16 -66 54.5 -141t68.5 -96q28 -7 28 -17q0 -11 -38 -26q-45 -19 -56 -19q-19 0 -38 33q-40 65 -84 162q-3 10 -37 -13q-90 -68 -215 -157q-35 -22 -45 -22t-17 22q-5 17 -5 27z" />
<glyph unicode="&#xdc;" horiz-adv-x="1534" d="M171 1031q0 83 114 118q195 52 491 143q48 75 87 75q44 0 126 -79q12 -11 12 -20q0 -21 -94 -41q-121 -198 -210 -508q-78 -271 -85 -443q-3 -88 36 -140q35 -48 89 -48q52 0 92 47q177 208 341 488q114 196 290 555q41 83 90 155q22 32 52 32q48 0 165 -101q8 -7 8 -14 q0 -21 -31 -21q-8 0 -23.5 3t-23.5 3q-45 0 -91 -88q-211 -400 -285 -932q15 43 33 69l32 46q13 20 28 20q17 0 17 -23q0 -13 -8 -30q-65 -143 -90 -285q-9 -55 -42 -55q-35 0 -101 55q-42 35 -42 47q0 4 4.5 18t6.5 29q29 217 119 551q-218 -398 -408 -614 q-58 -66 -122 -66q-65 0 -109 60q-104 82 -123 108q-38 52 -38 155q0 23 1 50q8 148 85 391q76 239 175 435q-277 -91 -391 -172q-54 -39 -54 -80q0 1 28 -107q1 -5 1 -10q0 -18 -17 -18q-29 0 -50 36q-85 145 -85 206zM1128 1481q0 13 6 10q31 82 45 199q2 19 15 41 q5 1 47 -45q11 -12 14 -33q3 -41 -33 -133q-33 -86 -48 -86q-12 0 -28 17.5t-18 29.5zM1341 1481q0 12 6 12q34 88 47 199q1 18 13 39q5 1 47 -45q12 -14 14 -33q4 -37 -33 -131q-34 -87 -49 -87q-3 0 -6 1q-35 21 -39 45z" />
<glyph unicode="&#xdd;" horiz-adv-x="1366" d="M151 1009q0 78 109 115q194 60 488 162q44 78 85 78q43 0 125 -74q14 -12 14 -22q0 -22 -89 -43q-120 -167 -203 -437q-72 -235 -72 -380q0 -143 77 -143q37 0 75 38q355 357 618 907q26 102 66 102q29 0 72 -48q13 -16 13 -35q0 -49 -122 -223q-28 -71 -158 -499 q-128 -420 -196 -587q-44 -107 -72 -145q-35 -49 -81 -49q-68 0 -261 137q-22 16 -22 31q0 23 33 23q12 0 24 -5q106 -42 133 -42q56 0 98 77q184 333 326 839q-190 -334 -414 -563q-60 -61 -99 -61q-32 0 -75 45q-115 70 -134 94q-33 42 -30 156q6 217 203 702 q-240 -89 -352 -176q-53 -41 -53 -80q0 -3 32 -108q2 -6 2 -11q0 -16 -17 -16q-28 0 -50 35q-93 145 -93 206zM1167 1461q0 7 3 14q43 93 147 202q32 33 59 33q13 0 31 -8l58 -27q8 -4 8 -10q0 -27 -41 -27q-27 0 -74 -36q-74 -59 -143 -146q-13 -17 -28 -17q-20 0 -20 22z " />
<glyph unicode="&#xde;" horiz-adv-x="1159" d="M72 667q0 59 73 128q46 42 196 126q156 87 280 136q31 110 53 217q14 70 12 110q-1 12 10 12q23 0 65 -35t36 -50q-20 -46 -54 -148q-11 -44 -20 -71q178 56 235 55q112 -2 158 -117q61 -45 80 -69q25 -31 25 -74q0 -31 -13 -84q-24 -100 -131 -228q-91 -109 -184 -176 q-57 -41 -112 -41q-33 0 -154 50q-24 9 -24 22q0 21 54 21q91 0 140 36q131 101 177 152q105 118 126 268q11 84 -58 101q-32 8 -65 2q-139 -9 -297 -72q-134 -454 -244 -739q8 3 59 34q29 17 46 15q29 -5 57 -58q23 -43 23 -64q0 -27 -35 -24q-25 3 -83 -28 q-63 -33 -108 -78q-22 -22 -46 -22q-33 0 -81 44q-30 29 -26 50q3 17 32 24q172 396 297 801q-192 -83 -270 -138q-107 -76 -107 -160q0 -25 9 -52q1 -9 18 -51q4 -10 4 -19q0 -28 -21 -28q-32 0 -120 173q-12 24 -12 49z" />
<glyph unicode="&#xdf;" horiz-adv-x="911" d="M-161 -103q0 20 35 36q32 15 71 18q35 2 48 -13q7 -7 15 -38q40 225 205 712q-102 62 -102 101q0 27 51 55q27 14 131 55q191 490 303 598q53 51 92 51q56 0 184 -77q80 -11 101 -21q30 -15 30 -53q0 -10 -2 -23q-10 -83 -124 -305q-21 -39 -51 -39q-29 0 -29 34 q0 11 4 24q46 155 61 291q7 64 -57 64q-42 0 -90 -30q-89 -55 -196 -257q-82 -157 -140 -326l182 48q102 25 178 25q42 0 63 -17q9 -6 52 -58q12 -14 12 -31q0 -50 -92 -117q-75 -55 -143 -80q222 -243 219 -350q-1 -33 -33.5 -69t-73.5 -52q-14 -34 -62.5 -58t-94.5 -24 q-170 3 -297 138q-33 35 -33 63q0 16 25 76q15 37 38 37q12 0 52 -27q16 -11 17 -28.5t1 -34.5q1 -10 2 -29q1 -7 21 -19q140 -84 223 -84q91 0 91 60q0 30 -21 86q-50 133 -205 264q-48 -2 -56.5 5t-15.5 54q-6 42 45 68q14 7 28 7q13 0 64 -27q160 97 160 134q0 11 -6 25 q-2 6 -23 6q-135 0 -360 -88q-75 -198 -160 -517q-80 -302 -102 -453q-13 -90 -34 -109q-6 -6 -85 -37q-21 -8 -35 -8q-31 0 -26 47q7 74 7 131q0 132 -38 156q-24 15 -24 30z" />
<glyph unicode="&#xe0;" horiz-adv-x="797" d="M-20 90q0 11 2 25q18 148 130 344.5t257 331.5q47 44 84 43q36 -2 137 -95q9 -8 9 -17q0 -16 -21 -16q-8 0 -15 3q-71 30 -114 -2q-94 -69 -208 -243q-132 -200 -159 -360q-1 -7 -1 -13q0 -25 20 -25q34 0 81 47q112 109 240 274q131 171 168 258q27 64 35 90 q13 45 28 45t70 -41q23 -17 25 -31q2 -12 -9 -42q-92 -255 -127 -428q15 14 39.5 43t30.5 34q14 18 30 18q15 0 15 -15q0 -9 -8 -21q-94 -139 -125 -281q-9 -40 -27 -40q-17 0 -63 32q-27 18 -31 30q-5 11 0 44q42 254 105 422q-87 -141 -237 -312q-131 -149 -189 -190 q-42 -29 -64 -29q-18 0 -55 29q-53 32 -53 88zM385 1198q0 6 9 10l57 27q18 8 32 8q27 0 58 -33q104 -109 148 -202q3 -7 3 -14q0 -22 -21 -22q-14 0 -27 17q-71 89 -149 150q-42 32 -69 32q-41 0 -41 27z" />
<glyph unicode="&#xe1;" horiz-adv-x="797" d="M-20 90q0 11 2 25q18 148 130 344.5t257 331.5q47 44 84 43q36 -2 137 -95q9 -8 9 -17q0 -16 -21 -16q-8 0 -15 3q-71 30 -114 -2q-94 -69 -208 -243q-132 -200 -159 -360q-1 -7 -1 -13q0 -25 20 -25q34 0 81 47q112 109 240 274q131 171 168 258q27 64 35 90 q13 45 28 45t70 -41q23 -17 25 -31q2 -12 -9 -42q-92 -255 -127 -428q15 14 39.5 43t30.5 34q14 18 30 18q15 0 15 -15q0 -9 -8 -21q-94 -139 -125 -281q-9 -40 -27 -40q-17 0 -63 32q-27 18 -31 30q-5 11 0 44q42 254 105 422q-87 -141 -237 -312q-131 -149 -189 -190 q-42 -29 -64 -29q-18 0 -55 29q-53 32 -53 88zM587 994q0 7 3 14q43 93 147 202q32 33 59 33q13 0 31 -8l58 -27q8 -4 8 -10q0 -27 -41 -27q-27 0 -74 -36q-74 -59 -143 -146q-13 -17 -28 -17q-20 0 -20 22z" />
<glyph unicode="&#xe2;" horiz-adv-x="797" d="M-20 90q0 11 2 25q18 148 130 344.5t257 331.5q47 44 84 43q36 -2 137 -95q9 -8 9 -17q0 -16 -21 -16q-8 0 -15 3q-71 30 -114 -2q-94 -69 -208 -243q-132 -200 -159 -360q-1 -7 -1 -13q0 -25 20 -25q34 0 81 47q112 109 240 274q131 171 168 258q27 64 35 90 q13 45 28 45t70 -41q23 -17 25 -31q2 -12 -9 -42q-92 -255 -127 -428q15 14 39.5 43t30.5 34q14 18 30 18q15 0 15 -15q0 -9 -8 -21q-94 -139 -125 -281q-9 -40 -27 -40q-17 0 -63 32q-27 18 -31 30q-5 11 0 44q42 254 105 422q-87 -141 -237 -312q-131 -149 -189 -190 q-42 -29 -64 -29q-18 0 -55 29q-53 32 -53 88zM343 996q0 19 36 26q45 3 246 160q18 14 29 39q8 18 32 26q37 13 41 -4q16 -66 54.5 -141t68.5 -96q28 -7 28 -17q0 -11 -38 -26q-45 -19 -56 -19q-19 0 -38 33q-40 65 -84 162q-3 10 -37 -13q-90 -68 -215 -157 q-35 -22 -45 -22t-17 22q-5 17 -5 27z" />
<glyph unicode="&#xe3;" horiz-adv-x="797" d="M-20 90q0 11 2 25q18 148 130 344.5t257 331.5q47 44 84 43q36 -2 137 -95q9 -8 9 -17q0 -16 -21 -16q-8 0 -15 3q-71 30 -114 -2q-94 -69 -208 -243q-132 -200 -159 -360q-1 -7 -1 -13q0 -25 20 -25q34 0 81 47q112 109 240 274q131 171 168 258q27 64 35 90 q13 45 28 45t70 -41q23 -17 25 -31q2 -12 -9 -42q-92 -255 -127 -428q15 14 39.5 43t30.5 34q14 18 30 18q15 0 15 -15q0 -9 -8 -21q-94 -139 -125 -281q-9 -40 -27 -40q-17 0 -63 32q-27 18 -31 30q-5 11 0 44q42 254 105 422q-87 -141 -237 -312q-131 -149 -189 -190 q-42 -29 -64 -29q-18 0 -55 29q-53 32 -53 88zM338 1067q33 42 87 93q59 55 73 52q44 -8 129 -104q42 -39 90 -53q32 -7 115 90q1 21 17 21q13 0 26 -15q21 -27 21 -33q0 -7 -7 -16q-34 -41 -86 -91q-59 -55 -72 -53q-46 10 -129 103q-49 45 -92 53q-26 8 -114 -88 q0 -22 -15 -22q-13 0 -26 16q-28 33 -17 47z" />
<glyph unicode="&#xe4;" horiz-adv-x="797" d="M-20 90q0 11 2 25q18 148 130 344.5t257 331.5q47 44 84 43q36 -2 137 -95q9 -8 9 -17q0 -16 -21 -16q-8 0 -15 3q-71 30 -114 -2q-94 -69 -208 -243q-132 -200 -159 -360q-1 -7 -1 -13q0 -25 20 -25q34 0 81 47q112 109 240 274q131 171 168 258q27 64 35 90 q13 45 28 45t70 -41q23 -17 25 -31q2 -12 -9 -42q-92 -255 -127 -428q15 14 39.5 43t30.5 34q14 18 30 18q15 0 15 -15q0 -9 -8 -21q-94 -139 -125 -281q-9 -40 -27 -40q-17 0 -63 32q-27 18 -31 30q-5 11 0 44q42 254 105 422q-87 -141 -237 -312q-131 -149 -189 -190 q-42 -29 -64 -29q-18 0 -55 29q-53 32 -53 88zM479 989q0 13 6 10q31 82 45 199q2 19 15 41q5 1 47 -45q11 -12 14 -33q3 -41 -33 -133q-33 -86 -48 -86q-12 0 -28 17.5t-18 29.5zM692 989q0 12 6 12q34 88 47 199q1 18 13 39q5 1 47 -45q12 -14 14 -33q4 -37 -33 -131 q-34 -87 -49 -87q-3 0 -6 1q-35 21 -39 45z" />
<glyph unicode="&#xe5;" horiz-adv-x="797" d="M-20 90q0 11 2 25q18 148 130 344.5t257 331.5q47 44 84 43q36 -2 137 -95q9 -8 9 -17q0 -16 -21 -16q-8 0 -15 3q-71 30 -114 -2q-94 -69 -208 -243q-132 -200 -159 -360q-1 -7 -1 -13q0 -25 20 -25q34 0 81 47q112 109 240 274q131 171 168 258q27 64 35 90 q13 45 28 45t70 -41q23 -17 25 -31q2 -12 -9 -42q-92 -255 -127 -428q15 14 39.5 43t30.5 34q14 18 30 18q15 0 15 -15q0 -9 -8 -21q-94 -139 -125 -281q-9 -40 -27 -40q-17 0 -63 32q-27 18 -31 30q-5 11 0 44q42 254 105 422q-87 -141 -237 -312q-131 -149 -189 -190 q-42 -29 -64 -29q-18 0 -55 29q-53 32 -53 88zM442 1065q0 17 10 35q21 35 90.5 86.5t106.5 51.5q21 0 47 -64q6 -10 -9 -10q-7 0 -9 3q-8 11 -31 4q-54 -16 -117 -92q-27 -33 -27 -56q0 -34 42 -34q76 0 170 117q23 29 10 51q-6 10 -6 16q0 7 8 6q9 -2 27 -16 q32 -25 32 -52q0 -32 -51 -79q-81 -74 -139 -88q-34 -8 -80 21q-9 5 -16 14q-58 50 -58 86z" />
<glyph unicode="&#xe6;" horiz-adv-x="1001" d="M-21 90q0 15 5 31q47 178 148 297q84 100 136 98q40 -2 140 -94q9 -9 9 -17q0 -17 -21 -17q-8 0 -15 3q-69 30 -105 12q-62 -30 -123 -135q-51 -85 -75 -172q-5 -15 -5 -26q0 -27 23 -27q33 0 90 53q169 154 297 369q42 167 42 209q0 53 -52 53q-10 0 -24 -2 q-132 -14 -213 -57q-37 -20 -37 -70q0 -21 -12 -21t-25 17q-8 13 -37 59q-12 28 -12 44q0 26 28 44q138 90 322 95q52 1 67 -10.5t27 -65.5q60 -20 66 -55q19 34 57 79q46 56 82 56q17 0 86 -29q-3 13 -3 19q0 16 64 16q45 0 45 -16q0 -3 -3 -17t-3 -25q0 -36 1.5 -89.5 t1.5 -71.5q0 -123 -66.5 -171t-139.5 -48q-35 0 -139 24q-18 -29 -40 -121q-28 -114 -25 -202q1 -52 34 -52q12 0 31 6q111 40 322 250q14 14 28 14q19 0 19 -19q0 -11 -8 -23q-220 -310 -355 -308q-41 1 -110 62q-6 5 -40 23.5t-34 77.5q0 67 45 192q-53 -93 -159 -209 q-97 -106 -142 -131q-32 -18 -68 -18q-58 0 -65 28q-60 40 -60 88zM625 473q20 -2 71 -8q71 -9 119 39q30 30 34 99q-1 -22 -1 124q0 39 -18 39q-21 0 -68 -52q-76 -83 -137 -241z" />
<glyph unicode="&#xe7;" horiz-adv-x="602" d="M27 -294q0 17 14 17q13 0 29 -14q3 -1 8 -1q79 0 160 61q30 22 30 35q0 16 -43 18q-35 1 -125 -17q-25 -5 -45 45q-8 22 13 54q7 12 73 98q-117 54 -112 188q4 105 73 294q76 204 158 296q38 42 64 42t102 -44q41 15 81 15q79 0 79 -56q0 -155 -43 -250q-18 -39 -56 -18 q-56 31 -56 51q0 9 13 19q34 96 31 149q-2 45 -45 45q-5 0 -15 2.5t-16 2.5q-35 0 -86 -66q-56 -74 -107 -206q-42 -109 -56 -187q-11 -56 -11 -102q0 -153 97 -150q85 2 249 213q16 19 29 19t13 -16q0 -8 -5 -20q-53 -130 -139 -229q-21 -25 -74 -25q-32 0 -78 13 q-22 0 -55 8q-29 -50 -57 -111q71 19 129 12q32 -3 40.5 -15t10.5 -52q33 -43 33 -64t-29 -43q-87 -67 -205 -94q-9 -2 -16 -2q-32 0 -51 66q-4 11 -4 19z" />
<glyph unicode="&#xe8;" horiz-adv-x="600" d="M27 133q0 11 2 23q18 137 73 303q-37 19 -37 36q0 14 21 14q16 0 33 -9q89 200 160 284q46 56 83 56q17 0 84 -29q-5 30 17 35h47q43 0 43 -15q0 -3 -3 -17t-3 -26q0 -36 1 -89t1 -71q0 -124 -68 -173q-62 -45 -140 -45q-41 0 -136 22q-17 -31 -38 -121 q-28 -114 -26 -202q1 -52 33 -52q12 0 31 6q116 41 323 250q13 13 26 13q19 0 19 -18q0 -11 -10 -23q-243 -311 -342 -311q-47 0 -119 65q-75 35 -75 94zM225 473q20 -3 70 -6q81 -3 121 37q30 30 33 99q-3 -51 -3 124q0 39 -17 39q-11 0 -32 -16q-98 -79 -172 -277z M251 1198q0 6 9 10l57 27q18 8 32 8q27 0 58 -33q104 -109 148 -202q3 -7 3 -14q0 -22 -21 -22q-14 0 -27 17q-71 89 -149 150q-42 32 -69 32q-41 0 -41 27z" />
<glyph unicode="&#xe9;" horiz-adv-x="600" d="M27 133q0 11 2 23q18 137 73 303q-37 19 -37 36q0 14 21 14q16 0 33 -9q89 200 160 284q46 56 83 56q17 0 84 -29q-5 30 17 35h47q43 0 43 -15q0 -3 -3 -17t-3 -26q0 -36 1 -89t1 -71q0 -124 -68 -173q-62 -45 -140 -45q-41 0 -136 22q-17 -31 -38 -121 q-28 -114 -26 -202q1 -52 33 -52q12 0 31 6q116 41 323 250q13 13 26 13q19 0 19 -18q0 -11 -10 -23q-243 -311 -342 -311q-47 0 -119 65q-75 35 -75 94zM225 473q20 -3 70 -6q81 -3 121 37q30 30 33 99q-3 -51 -3 124q0 39 -17 39q-11 0 -32 -16q-98 -79 -172 -277z M392 994q0 7 3 14q43 93 147 202q32 33 59 33q13 0 31 -8l58 -27q8 -4 8 -10q0 -27 -41 -27q-27 0 -74 -36q-74 -59 -143 -146q-13 -17 -28 -17q-20 0 -20 22z" />
<glyph unicode="&#xea;" horiz-adv-x="600" d="M27 133q0 11 2 23q18 137 73 303q-37 19 -37 36q0 14 21 14q16 0 33 -9q89 200 160 284q46 56 83 56q17 0 84 -29q-5 30 17 35h47q43 0 43 -15q0 -3 -3 -17t-3 -26q0 -36 1 -89t1 -71q0 -124 -68 -173q-62 -45 -140 -45q-41 0 -136 22q-17 -31 -38 -121 q-28 -114 -26 -202q1 -52 33 -52q12 0 31 6q116 41 323 250q13 13 26 13q19 0 19 -18q0 -11 -10 -23q-243 -311 -342 -311q-47 0 -119 65q-75 35 -75 94zM191 996q0 19 36 26q45 3 246 160q18 14 29 39q8 18 32 26q37 13 41 -4q16 -66 54.5 -141t68.5 -96q28 -7 28 -17 q0 -11 -38 -26q-45 -19 -56 -19q-19 0 -38 33q-40 65 -84 162q-3 10 -37 -13q-90 -68 -215 -157q-35 -22 -45 -22t-17 22q-5 17 -5 27zM225 473q20 -3 70 -6q81 -3 121 37q30 30 33 99q-3 -51 -3 124q0 39 -17 39q-11 0 -32 -16q-98 -79 -172 -277z" />
<glyph unicode="&#xeb;" horiz-adv-x="600" d="M27 133q0 11 2 23q18 137 73 303q-37 19 -37 36q0 14 21 14q16 0 33 -9q89 200 160 284q46 56 83 56q17 0 84 -29q-5 30 17 35h47q43 0 43 -15q0 -3 -3 -17t-3 -26q0 -36 1 -89t1 -71q0 -124 -68 -173q-62 -45 -140 -45q-41 0 -136 22q-17 -31 -38 -121 q-28 -114 -26 -202q1 -52 33 -52q12 0 31 6q116 41 323 250q13 13 26 13q19 0 19 -18q0 -11 -10 -23q-243 -311 -342 -311q-47 0 -119 65q-75 35 -75 94zM225 473q20 -3 70 -6q81 -3 121 37q30 30 33 99q-3 -51 -3 124q0 39 -17 39q-11 0 -32 -16q-98 -79 -172 -277z M303 989q0 13 6 10q31 82 45 199q2 19 15 41q5 1 47 -45q11 -12 14 -33q3 -41 -33 -133q-33 -86 -48 -86q-12 0 -28 17.5t-18 29.5zM516 989q0 12 6 12q34 88 47 199q1 18 13 39q5 1 47 -45q12 -14 14 -33q4 -37 -33 -131q-34 -87 -49 -87q-3 0 -6 1q-35 21 -39 45z" />
<glyph unicode="&#xec;" horiz-adv-x="389" d="M0 23q0 6 10 24q58 107 121 318q73 245 73 341q0 25 -10 25q-8 0 -32 -22l-62 -58q-17 -16 -26 -16q-7 0 -7 12q0 11 58 85q60 78 81 78q16 0 48 -22l10 -3q34 -8 41 -12q23 -11 23 -53q0 -83 -129 -489q32 28 68 79q18 25 27 25q8 0 8 -8q0 -17 -71 -128 q-69 -108 -99 -181q-11 -28 -17.5 -34.5t-22.5 -6.5q-18 0 -65 23q-27 13 -27 23zM79 1198q0 6 9 10l57 27q18 8 32 8q27 0 58 -33q104 -109 148 -202q3 -7 3 -14q0 -22 -21 -22q-14 0 -27 17q-71 89 -149 150q-42 32 -69 32q-41 0 -41 27z" />
<glyph unicode="&#xed;" horiz-adv-x="389" d="M0 23q0 6 10 24q58 107 121 318q73 245 73 341q0 25 -10 25q-8 0 -32 -22l-62 -58q-17 -16 -26 -16q-7 0 -7 12q0 11 58 85q60 78 81 78q16 0 48 -22l10 -3q34 -8 41 -12q23 -11 23 -53q0 -83 -129 -489q32 28 68 79q18 25 27 25q8 0 8 -8q0 -17 -71 -128 q-69 -108 -99 -181q-11 -28 -17.5 -34.5t-22.5 -6.5q-18 0 -65 23q-27 13 -27 23zM188 994q0 7 3 14q43 93 147 202q32 33 59 33q13 0 31 -8l58 -27q8 -4 8 -10q0 -27 -41 -27q-27 0 -74 -36q-74 -59 -143 -146q-13 -17 -28 -17q-20 0 -20 22z" />
<glyph unicode="&#xee;" horiz-adv-x="389" d="M0 23q0 6 10 24q58 107 121 318q73 245 73 341q0 25 -10 25q-8 0 -32 -22l-62 -58q-17 -16 -26 -16q-7 0 -7 12q0 11 58 85q60 78 81 78q16 0 48 -22l10 -3q34 -8 41 -12q23 -11 23 -53q0 -83 -129 -489q32 28 68 79q18 25 27 25q8 0 8 -8q0 -17 -71 -128 q-69 -108 -99 -181q-11 -28 -17.5 -34.5t-22.5 -6.5q-18 0 -65 23q-27 13 -27 23zM7 996q0 19 36 26q45 3 246 160q18 14 29 39q8 18 32 26q37 13 41 -4q16 -66 54.5 -141t68.5 -96q28 -7 28 -17q0 -11 -38 -26q-45 -19 -56 -19q-19 0 -38 33q-40 65 -84 162q-3 10 -37 -13 q-90 -68 -215 -157q-35 -22 -45 -22t-17 22q-5 17 -5 27z" />
<glyph unicode="&#xef;" horiz-adv-x="389" d="M0 23q0 6 10 24q58 107 121 318q73 245 73 341q0 25 -10 25q-8 0 -32 -22l-62 -58q-17 -16 -26 -16q-7 0 -7 12q0 11 58 85q60 78 81 78q16 0 48 -22l10 -3q34 -8 41 -12q23 -11 23 -53q0 -83 -129 -489q32 28 68 79q18 25 27 25q8 0 8 -8q0 -17 -71 -128 q-69 -108 -99 -181q-11 -28 -17.5 -34.5t-22.5 -6.5q-18 0 -65 23q-27 13 -27 23zM129 992q0 8 4 8q1 0 2 -1q32 87 45 199q2 18 15 41q19 -3 52 -52q9 -14 9 -32q0 -16 -21 -85q-38 -128 -61 -128q-16 0 -37 30q-8 12 -8 20zM342 992q0 8 6 9q34 88 47 199q1 18 13 39 q10 -1 30 -25q31 -34 31 -61q0 -12 -33 -123q-19 -61 -45 -85q-1 -2 -4 -2q-4 0 -6 1q-39 24 -39 48z" />
<glyph unicode="&#xf0;" horiz-adv-x="713" d="M27 190q4 106 73 296q76 207 158 298q39 44 64 44q34 0 110 -70q78 28 102 28q17 0 27 -8q-16 164 -74 357q-125 -34 -151.5 -45.5t-32.5 -32.5t-15 -21q-13 0 -12 43q2 54 9 68q11 23 53 31q53 9 125 28q-10 26 -31 76q-64 139 -136 139q-14 0 -38.5 -7t-35.5 -7 q-28 0 -28 21q0 13 17 22q56 31 111 61q48 26 75 23q32 -8 54 -37q56 -75 120 -260q123 39 136 66q7 14 18 14q15 0 15 -27q0 -7 -1 -14q-10 -65 -23 -76t-104 -31q-12 -4 -16 -4q51 -181 76 -366q73 -46 73 -62q0 -19 -61 -71v-33q-4 -93 -44 -236q-64 -232 -183 -360 q-63 -68 -140 -68q-30 0 -77 13q-94 6 -153 59q-64 58 -60 149zM149 177q0 -154 95 -150q38 1 82 30q84 57 156 221q69 155 85 312q7 65 7 85q0 43 -25 43q-11 0 -27 -5q-61 -19 -153 -49q-27 -11 -31 -11q-8 0 -16 19q-58 -71 -108 -205q-39 -105 -54 -188 q-11 -56 -11 -102z" />
<glyph unicode="&#xf1;" horiz-adv-x="860" d="M14 46q0 4 11 28q58 127 115 322q61 211 69 329q2 36 -2 36q-1 0 -28 -27t-75 -70q-9 -9 -20 -9q-14 0 -14 11q0 8 10 18q43 55 113 137q15 17 31 17q24 0 42 -35q81 -24 76 -74q-11 -110 -113 -397q67 129 195 288.5t190 188.5q31 14 44 14t42 -22q83 -29 82 -96 q0 -70 -34 -225q-27 -128 -50 -199q29 37 74 96q8 10 16 10q15 0 15 -19q0 -6 -2 -12q-60 -91 -156 -264q-18 -45 -35 -90q-14 -31 -37 -31q-18 0 -53 15q-39 16 -39 32q0 7 13 31q65 132 116 329q55 207 47 316q-2 44 -20 44q-13 0 -39 -25q-252 -246 -436 -658 q-23 -51 -54 -51q-22 0 -73 25q-20 9 -21 17zM330 1067q33 42 87 93q59 55 73 52q44 -8 129 -104q42 -39 90 -53q32 -7 115 90q1 21 17 21q13 0 26 -15q21 -27 21 -33q0 -7 -7 -16q-34 -41 -86 -91q-59 -55 -72 -53q-46 10 -129 103q-49 45 -92 53q-26 8 -114 -88 q0 -22 -15 -22q-13 0 -26 16q-28 33 -17 47z" />
<glyph unicode="&#xf2;" horiz-adv-x="713" d="M27 190q4 106 73 296q76 207 158 298q39 44 64 44q34 0 110 -70q21 10 86 37q33 11 50 11q39 0 87 -73q31 -45 29 -100q-2 -89 -43 -236q-65 -232 -184 -360q-63 -68 -140 -68q-30 0 -77 13q-94 6 -153 59q-64 58 -60 149zM149 177q0 -154 95 -150q38 1 82 30 q84 57 157 228q70 161 86 319q7 67 7 85q0 42 -26 42q-10 0 -26 -4l-155 -63q-27 -11 -31 -11q-8 0 -16 19q-58 -71 -108 -205q-39 -105 -54 -188q-11 -56 -11 -102zM272 1198q0 6 9 10l57 27q18 8 32 8q27 0 58 -33q104 -109 148 -202q3 -7 3 -14q0 -22 -21 -22 q-14 0 -27 17q-71 89 -149 150q-42 32 -69 32q-41 0 -41 27z" />
<glyph unicode="&#xf3;" horiz-adv-x="713" d="M27 190q4 106 73 296q76 207 158 298q39 44 64 44q34 0 110 -70q21 10 86 37q33 11 50 11q39 0 87 -73q31 -45 29 -100q-2 -89 -43 -236q-65 -232 -184 -360q-63 -68 -140 -68q-30 0 -77 13q-94 6 -153 59q-64 58 -60 149zM149 177q0 -154 95 -150q38 1 82 30 q84 57 157 228q70 161 86 319q7 67 7 85q0 42 -26 42q-10 0 -26 -4l-155 -63q-27 -11 -31 -11q-8 0 -16 19q-58 -71 -108 -205q-39 -105 -54 -188q-11 -56 -11 -102zM442 994q0 7 3 14q43 93 147 202q32 33 59 33q13 0 31 -8l58 -27q8 -4 8 -10q0 -27 -41 -27q-27 0 -74 -36 q-74 -59 -143 -146q-13 -17 -28 -17q-20 0 -20 22z" />
<glyph unicode="&#xf4;" horiz-adv-x="713" d="M27 190q4 106 73 296q76 207 158 298q39 44 64 44q34 0 110 -70q21 10 86 37q33 11 50 11q39 0 87 -73q31 -45 29 -100q-2 -89 -43 -236q-65 -232 -184 -360q-63 -68 -140 -68q-30 0 -77 13q-94 6 -153 59q-64 58 -60 149zM149 177q0 -154 95 -150q38 1 82 30 q84 57 157 228q70 161 86 319q7 67 7 85q0 42 -26 42q-10 0 -26 -4l-155 -63q-27 -11 -31 -11q-8 0 -16 19q-58 -71 -108 -205q-39 -105 -54 -188q-11 -56 -11 -102zM234 996q0 19 36 26q45 3 246 160q18 14 29 39q8 18 32 26q37 13 41 -4q16 -66 54.5 -141t68.5 -96 q28 -7 28 -17q0 -11 -38 -26q-45 -19 -56 -19q-19 0 -38 33q-40 65 -84 162q-3 10 -37 -13q-90 -68 -215 -157q-35 -22 -45 -22t-17 22q-5 17 -5 27z" />
<glyph unicode="&#xf5;" horiz-adv-x="713" d="M27 190q4 106 73 296q76 207 158 298q39 44 64 44q34 0 110 -70q21 10 86 37q33 11 50 11q39 0 87 -73q31 -45 29 -100q-2 -89 -43 -236q-65 -232 -184 -360q-63 -68 -140 -68q-30 0 -77 13q-94 6 -153 59q-64 58 -60 149zM149 177q0 -154 95 -150q38 1 82 30 q84 57 157 228q70 161 86 319q7 67 7 85q0 42 -26 42q-10 0 -26 -4l-155 -63q-27 -11 -31 -11q-8 0 -16 19q-58 -71 -108 -205q-39 -105 -54 -188q-11 -56 -11 -102zM243 1067q33 42 87 93q59 55 73 52q44 -8 129 -104q42 -39 90 -53q32 -7 115 90q1 21 17 21q13 0 26 -15 q21 -27 21 -33q0 -7 -7 -16q-34 -41 -86 -91q-59 -55 -72 -53q-46 10 -129 103q-49 45 -92 53q-26 8 -114 -88q0 -22 -15 -22q-13 0 -26 16q-28 33 -17 47z" />
<glyph unicode="&#xf6;" horiz-adv-x="713" d="M27 190q4 106 73 296q76 207 158 298q39 44 64 44q34 0 110 -70q21 10 86 37q33 11 50 11q39 0 87 -73q31 -45 29 -100q-2 -89 -43 -236q-65 -232 -184 -360q-63 -68 -140 -68q-30 0 -77 13q-94 6 -153 59q-64 58 -60 149zM149 177q0 -154 95 -150q38 1 82 30 q84 57 157 228q70 161 86 319q7 67 7 85q0 42 -26 42q-10 0 -26 -4l-155 -63q-27 -11 -31 -11q-8 0 -16 19q-58 -71 -108 -205q-39 -105 -54 -188q-11 -56 -11 -102zM342 989q0 13 6 10q31 82 45 199q2 19 15 41q5 1 47 -45q11 -12 14 -33q3 -41 -33 -133q-33 -86 -48 -86 q-12 0 -28 17.5t-18 29.5zM555 989q0 12 6 12q34 88 47 199q1 18 13 39q5 1 47 -45q12 -14 14 -33q4 -37 -33 -131q-34 -87 -49 -87q-3 0 -6 1q-35 21 -39 45z" />
<glyph unicode="&#xf7;" horiz-adv-x="868" d="M117 436q3 12 14 70q8 44 96 35q160 -16 400 -19q92 -1 102 19q8 14 23 12q16 -1 16 -16t-14 -52.5t-24 -46.5q-14 -13 -54 -10q-220 14 -410 14q-102 0 -112 -18q-7 -12 -24 -9q-18 4 -13 21zM323 195q-4 11 9 14q9 22 30 102q12 43 31 43q17 0 68 -18q36 -13 36 -33 q0 -13 -18 -55q-29 -70 -88 -70q-17 0 -53 4q-12 1 -15 13zM396 633q-4 11 10 14q9 22 30 103q11 42 31 42q17 0 68 -18q36 -12 36 -33q0 -13 -18 -55q-29 -69 -88 -69q-17 0 -53 4q-12 1 -16 12z" />
<glyph unicode="&#xf8;" horiz-adv-x="713" d="M27 190q4 106 73 296q76 206 158 298q39 44 64 44q34 0 110 -70q26 14 86 37l29 67q18 43 -8 66q-8 5 -3 15t15 5q11 -3 55 -30q14 -9 -10 -68l-18 -45q32 -3 77 -72q31 -46 29 -100q-2 -89 -43 -236q-65 -232 -184 -360q-63 -68 -140 -68q-30 0 -77 13q-22 0 -43 6 l-39 -92q-19 -45 8 -66q6 -6 1 -16q-4 -9 -13 -4q-15 4 -58 30q-14 9 13 68l43 94q-130 51 -125 188zM149 177q0 -78 29 -118l299 650q-45 -19 -108 -45q-41 -17 -47 8q-113 -140 -162 -393q-11 -56 -11 -102zM217 31q45 -17 109 26q84 58 158 228q69 162 85 319q9 82 6 101 q-4 28 -32 24z" />
<glyph unicode="&#xf9;" horiz-adv-x="813" d="M66 72q0 11 2 24q25 286 104 475q-17 -16 -51 -47q-13 -11 -20 -6q-8 6 3 23q54 79 64 104q31 78 65 121q18 22 38 22q27 0 79 -32q14 -9 14 -18l-22 -33q-50 -76 -106 -268q-61 -208 -62 -339q0 -43 18 -43q16 0 52 37q77 82 223 310q129 201 156 262q45 102 73 120 q18 12 32 12t54 -21t40 -31q0 -3 -7 -8t-10 -11q-133 -247 -199 -580q28 49 68 125q5 14 16 14q15 0 15 -19q0 -6 -3 -13q-64 -146 -84 -225q-12 -50 -32 -50t-78 39q-31 22 -21 78q42 218 101 379q-193 -314 -324 -463q-29 -33 -63 -33q-28 0 -66 23q-69 12 -69 72z M335 1198q0 6 9 10l57 27q18 8 32 8q27 0 58 -33q104 -109 148 -202q3 -7 3 -14q0 -22 -21 -22q-14 0 -27 17q-71 89 -149 150q-42 32 -69 32q-41 0 -41 27z" />
<glyph unicode="&#xfa;" horiz-adv-x="813" d="M66 72q0 11 2 24q25 286 104 475q-17 -16 -51 -47q-13 -11 -20 -6q-8 6 3 23q54 79 64 104q31 78 65 121q18 22 38 22q27 0 79 -32q14 -9 14 -18l-22 -33q-50 -76 -106 -268q-61 -208 -62 -339q0 -43 18 -43q16 0 52 37q77 82 223 310q129 201 156 262q45 102 73 120 q18 12 32 12t54 -21t40 -31q0 -3 -7 -8t-10 -11q-133 -247 -199 -580q28 49 68 125q5 14 16 14q15 0 15 -19q0 -6 -3 -13q-64 -146 -84 -225q-12 -50 -32 -50t-78 39q-31 22 -21 78q42 218 101 379q-193 -314 -324 -463q-29 -33 -63 -33q-28 0 -66 23q-69 12 -69 72z M462 994q0 7 3 14q43 93 147 202q32 33 59 33q13 0 31 -8l58 -27q8 -4 8 -10q0 -27 -41 -27q-27 0 -74 -36q-74 -59 -143 -146q-13 -17 -28 -17q-20 0 -20 22z" />
<glyph unicode="&#xfb;" horiz-adv-x="813" d="M66 72q0 11 2 24q25 286 104 475q-17 -16 -51 -47q-13 -11 -20 -6q-8 6 3 23q54 79 64 104q31 78 65 121q18 22 38 22q27 0 79 -32q14 -9 14 -18l-22 -33q-50 -76 -106 -268q-61 -208 -62 -339q0 -43 18 -43q16 0 52 37q77 82 223 310q129 201 156 262q45 102 73 120 q18 12 32 12t54 -21t40 -31q0 -3 -7 -8t-10 -11q-133 -247 -199 -580q28 49 68 125q5 14 16 14q15 0 15 -19q0 -6 -3 -13q-64 -146 -84 -225q-12 -50 -32 -50t-78 39q-31 22 -21 78q42 218 101 379q-193 -314 -324 -463q-29 -33 -63 -33q-28 0 -66 23q-69 12 -69 72z M281 996q0 19 36 26q45 3 246 160q18 14 29 39q8 18 32 26q37 13 41 -4q16 -66 54.5 -141t68.5 -96q28 -7 28 -17q0 -11 -38 -26q-45 -19 -56 -19q-19 0 -38 33q-40 65 -84 162q-3 10 -37 -13q-90 -68 -215 -157q-35 -22 -45 -22t-17 22q-5 17 -5 27z" />
<glyph unicode="&#xfc;" horiz-adv-x="813" d="M66 72q0 11 2 24q25 286 104 475q-17 -16 -51 -47q-13 -11 -20 -6q-8 6 3 23q54 79 64 104q31 78 65 121q18 22 38 22q27 0 79 -32q14 -9 14 -18l-22 -33q-50 -76 -106 -268q-61 -208 -62 -339q0 -43 18 -43q16 0 52 37q77 82 223 310q129 201 156 262q45 102 73 120 q18 12 32 12t54 -21t40 -31q0 -3 -7 -8t-10 -11q-133 -247 -199 -580q28 49 68 125q5 14 16 14q15 0 15 -19q0 -6 -3 -13q-64 -146 -84 -225q-12 -50 -32 -50t-78 39q-31 22 -21 78q42 218 101 379q-193 -314 -324 -463q-29 -33 -63 -33q-28 0 -66 23q-69 12 -69 72z M403 989q0 13 6 10q31 82 45 199q2 19 15 41q5 1 47 -45q11 -12 14 -33q3 -41 -33 -133q-33 -86 -48 -86q-12 0 -28 17.5t-18 29.5zM616 989q0 12 6 12q34 88 47 199q1 18 13 39q5 1 47 -45q12 -14 14 -33q4 -37 -33 -131q-34 -87 -49 -87q-3 0 -6 1q-35 21 -39 45z" />
<glyph unicode="&#xfd;" horiz-adv-x="834" d="M-430 -654q0 30 28 30q14 0 27 -11q163 -139 291 -139q235 0 427 392q151 307 263 824q7 37 23 113q-105 -171 -235 -337q-125 -160 -197 -220q-40 -33 -64 -33q-19 0 -39 21q-21 27 -43 53q-10 12 -10 22v2q2 12 18 17q48 65 90 281q32 170 44 323q2 36 -9 36 q-3 0 -47 -36q-70 -59 -76 -59q-14 0 -14 14q0 7 6 14q17 21 76 105q53 75 71 75q14 0 38 -12q51 8 57 8q34 0 34 -52q0 -87 -50 -340.5t-82 -327.5q100 79 260 310q156 225 194 339q2 67 29 67q21 0 78 -43q32 -24 18 -90q-139 -641 -261 -959q-236 -618 -542 -618 q-179 0 -385 195q-18 17 -18 36zM454 994q0 7 3 14q43 93 147 202q32 33 59 33q13 0 31 -8l58 -27q8 -4 8 -10q0 -27 -41 -27q-27 0 -74 -36q-74 -59 -143 -146q-13 -17 -28 -17q-20 0 -20 22z" />
<glyph unicode="&#xfe;" horiz-adv-x="844" d="M-143 -766q47 532 308 1349q239 744 404 1000q54 83 97 82q41 -1 159 -76q16 -10 16 -20q0 -16 -23 -16q-7 0 -21.5 2.5t-22.5 2.5q-68 0 -129 -106q-221 -384 -414 -1063q147 240 342 412q30 26 54 26q11 0 55 -30q136 -48 127 -181q-12 -169 -89 -363 q-72 -181 -142 -247q-40 -37 -81 -37q-46 0 -153 74q-21 14 -21 29q0 19 27 19q11 0 32 -7t34 -7q73 0 131 93q49 80 93 215q53 168 46 289q-3 58 -39 58q-32 0 -78 -44q-324 -310 -456 -741q-75 -245 -100 -454q-1 -7 -27 -347q-4 -49 -24 -49q-21 0 -75 49q-39 36 -30 88z " />
<glyph unicode="&#xff;" horiz-adv-x="834" d="M-430 -654q0 30 28 30q14 0 27 -11q163 -139 291 -139q235 0 427 392q151 307 263 824q7 37 23 113q-105 -171 -235 -337q-125 -160 -197 -220q-40 -33 -64 -33q-19 0 -39 21q-21 27 -43 53q-10 12 -10 22v2q2 12 18 17q48 65 90 281q32 170 44 323q2 36 -9 36 q-3 0 -47 -36q-70 -59 -76 -59q-14 0 -14 14q0 7 6 14q17 21 76 105q53 75 71 75q14 0 38 -12q51 8 57 8q34 0 34 -52q0 -87 -50 -340.5t-82 -327.5q100 79 260 310q156 225 194 339q2 67 29 67q21 0 78 -43q32 -24 18 -90q-139 -641 -261 -959q-236 -618 -542 -618 q-179 0 -385 195q-18 17 -18 36zM387 989q0 13 6 10q31 82 45 199q2 19 15 41q5 1 47 -45q11 -12 14 -33q3 -41 -33 -133q-33 -86 -48 -86q-12 0 -28 17.5t-18 29.5zM600 989q0 12 6 12q34 88 47 199q1 18 13 39q5 1 47 -45q12 -14 14 -33q4 -37 -33 -131q-34 -87 -49 -87 q-3 0 -6 1q-35 21 -39 45z" />
<glyph unicode="&#x152;" horiz-adv-x="1692" d="M129 322q10 289 173 618q131 265 253 379q50 47 94 47q77 0 168 -43q41 52 157 52q58 0 140 -11q113 -15 318 -67q187 -47 254 -52q50 66 73 62q35 -6 27 -109q-3 -36 -12 -45q-1 -1 -31 -16q-44 -22 -88 -11l-8 2q-5 2 -7 2q3 -1 5 -2h-2q-6 2 -31 9q-138 36 -342 69 q16 -38 16 -80q0 -80 -84 -319q216 20 318 12q57 -4 71 -35q2 -3 11 -69q4 -35 -30 -49q-8 -3 -89 -21q-13 -3 -23 -3q-26 0 -41 28t-37 28q-126 0 -223 -10q-33 -92 -112 -247q-88 -170 -142 -234q392 0 596 -23q39 -4 43 41t33 41q27 -4 55 -135q2 -7 2 -14 q0 -21 -19.5 -41.5t-38 -41.5t-38.5 -21q8 0 -72 18q-257 58 -454 58q-99 0 -207 -11q-63 -63 -115 -86q-59 -27 -158 -29q-48 -1 -94 13t-46 32q0 4 1 6q-137 35 -195 92q-74 73 -69 216zM262 315q5 -99 40 -151q30 -45 106 -84q73 -38 136 -38q34 0 68 11q-4 26 -4 45 q0 53 35 71q27 14 102 17q46 34 125 164q79 127 113 221q-50 86 -50 130q0 41 44 56q44 10 88 19q43 103 76.5 231.5t33.5 193.5q0 11 -1 20q-114 21 -148 21q-81 0 -152 -73q-95 -97 -112 -440q-3 -48 -26 -48t-25.5 42.5t-2.5 86.5q0 241 72 458q-74 10 -110 -17 q-111 -83 -252 -359q-168 -329 -156 -577z" />
<glyph unicode="&#x153;" horiz-adv-x="1036" d="M27 189q0 108 73 307q75 202 158 299q37 43 64 43q32 0 110 -70q97 49 135 49q43 0 101 -96q86 120 132 120q17 0 85 -28q-1 6 -1 10q0 19 16 25h7h16h24q43 -1 43 -16v-2l-2 -15q-3 -15 -3 -30q0 -39 2 -85v-12q1 -55 1 -62q0 -116 -67 -168q-62 -48 -134 -48 q-29 0 -128 22q-81 -158 -81 -310q0 -65 34 -65q29 0 79 27q68 37 190 147q56 50 86 82q13 14 27 14q17 0 17 -17q0 -11 -42 -65q-205 -269 -309 -269q-29 0 -76 32q-33 22 -43 33q-23 25 -50 34q-5 2 -8 3q-1 -1 -2 -3l-9 -10q-2 -3 -4 -5q-6 -7 -11 -13q-22 -28 -63 -47.5 t-77 -19.5q-27 0 -77 12q-79 7 -130 42q-83 57 -83 155zM149 183q0 -146 91 -146q66 0 138 75q89 94 165 347q-41 21 -41 39q0 12 18 12q13 0 29 -8q10 35 17 85q11 79 11 112q0 42 -27 42q-16 0 -26 -4l-155 -63q-27 -11 -31 -11q-7 0 -16 19q-75 -95 -131 -271 q-42 -132 -42 -228zM674 475q57 -9 79 -9q126 0 134 139q0 -4 -1 -8v-3v-1l-1 97q0 52 -2 62q-4 16 -15 16q-24 0 -67 -51q-62 -72 -127 -242z" />
<glyph unicode="&#x178;" horiz-adv-x="1366" d="M151 1009q0 78 109 115q194 60 488 162q44 78 85 78q43 0 125 -74q14 -12 14 -22q0 -22 -89 -43q-120 -167 -203 -437q-72 -235 -72 -380q0 -143 77 -143q37 0 75 38q355 357 618 907q26 102 66 102q29 0 72 -48q13 -16 13 -35q0 -49 -122 -223q-28 -71 -158 -499 q-128 -420 -196 -587q-44 -107 -72 -145q-35 -49 -81 -49q-68 0 -261 137q-22 16 -22 31q0 23 33 23q12 0 24 -5q106 -42 133 -42q56 0 98 77q184 333 326 839q-190 -334 -414 -563q-60 -61 -99 -61q-32 0 -75 45q-115 70 -134 94q-33 42 -30 156q6 217 203 702 q-240 -89 -352 -176q-53 -41 -53 -80q0 -3 32 -108q2 -6 2 -11q0 -16 -17 -16q-28 0 -50 35q-93 145 -93 206zM1059 1481q0 13 6 10q31 82 45 199q2 19 15 41q5 1 47 -45q11 -12 14 -33q3 -41 -33 -133q-33 -86 -48 -86q-12 0 -28 17.5t-18 29.5zM1272 1481q0 12 6 12 q34 88 47 199q1 18 13 39q5 1 47 -45q12 -14 14 -33q4 -37 -33 -131q-34 -87 -49 -87q-3 0 -6 1q-35 21 -39 45z" />
<glyph unicode="&#x2c6;" horiz-adv-x="614" d="M179 996q0 19 36 26q45 3 246 160q18 14 29 39q8 18 32 26q37 13 41 -4q16 -66 54.5 -141t68.5 -96q28 -7 28 -17q0 -11 -38 -26q-45 -19 -56 -19q-19 0 -38 33q-40 65 -84 162q-3 10 -37 -13q-90 -68 -215 -157q-35 -22 -45 -22t-17 22q-5 17 -5 27z" />
<glyph unicode="&#x2dc;" horiz-adv-x="614" d="M180 1067q33 42 87 93q59 55 73 52q44 -8 129 -104q42 -39 90 -53q32 -7 115 90q1 21 17 21q13 0 26 -15q21 -27 21 -33q0 -7 -7 -16q-34 -41 -86 -91q-59 -55 -72 -53q-46 10 -129 103q-49 45 -92 53q-26 8 -114 -88q0 -22 -15 -22q-13 0 -26 16q-28 33 -17 47z" />
<glyph unicode="&#x2000;" horiz-adv-x="884" />
<glyph unicode="&#x2001;" horiz-adv-x="1769" />
<glyph unicode="&#x2002;" horiz-adv-x="884" />
<glyph unicode="&#x2003;" horiz-adv-x="1769" />
<glyph unicode="&#x2004;" horiz-adv-x="589" />
<glyph unicode="&#x2005;" horiz-adv-x="442" />
<glyph unicode="&#x2006;" horiz-adv-x="294" />
<glyph unicode="&#x2007;" horiz-adv-x="294" />
<glyph unicode="&#x2008;" horiz-adv-x="221" />
<glyph unicode="&#x2009;" horiz-adv-x="353" />
<glyph unicode="&#x200a;" horiz-adv-x="98" />
<glyph unicode="&#x2010;" horiz-adv-x="743" d="M83 335q0 4 1 7q4 19 18 82q11 45 24 45q9 0 24 -4q235 -70 366 -72q48 0 67 13q11 7 23 34q7 15 19 11q12 -3 10 -19q-3 -18 -10 -84q-4 -36 -7 -42q-7 -13 -36 -13q-142 0 -379 57q-32 8 -49 8q-27 0 -43 -30q-6 -10 -14 -10q-14 0 -14 17z" />
<glyph unicode="&#x2011;" horiz-adv-x="743" d="M83 335q0 4 1 7q4 19 18 82q11 45 24 45q9 0 24 -4q235 -70 366 -72q48 0 67 13q11 7 23 34q7 15 19 11q12 -3 10 -19q-3 -18 -10 -84q-4 -36 -7 -42q-7 -13 -36 -13q-142 0 -379 57q-32 8 -49 8q-27 0 -43 -30q-6 -10 -14 -10q-14 0 -14 17z" />
<glyph unicode="&#x2012;" horiz-adv-x="743" d="M83 335q0 4 1 7q4 19 18 82q11 45 24 45q9 0 24 -4q235 -70 366 -72q48 0 67 13q11 7 23 34q7 15 19 11q12 -3 10 -19q-3 -18 -10 -84q-4 -36 -7 -42q-7 -13 -36 -13q-142 0 -379 57q-32 8 -49 8q-27 0 -43 -30q-6 -10 -14 -10q-14 0 -14 17z" />
<glyph unicode="&#x2013;" horiz-adv-x="909" d="M83 334q0 5 1 8q6 19 25 82q12 45 31 45q11 0 30 -4q305 -70 475 -72q64 0 88 13q11 6 29 34q7 12 20 12q21 0 19 -20q-5 -18 -15 -84q-4 -37 -7 -42q-9 -13 -48 -13q-182 0 -493 57q-41 8 -63 8q-34 0 -56 -30q-7 -10 -18 -10q-18 0 -18 16z" />
<glyph unicode="&#x2014;" horiz-adv-x="2241" d="M82 335q0 4 2 7q8 19 33 82q12 32 13 34q7 11 28 11q14 0 39 -4q146 -26 877 -51q579 -19 855 -21q84 0 115 13q15 6 39 34q12 15 31 11q20 -3 18 -19q-5 -18 -18 -84q-7 -37 -11 -42q-12 -13 -63 -13q-195 0 -868 19q-766 21 -887 38q-54 8 -83 8q-44 0 -73 -30 q-9 -10 -23 -10q-24 0 -24 17z" />
<glyph unicode="&#x2018;" horiz-adv-x="410" d="M240 1012q-9 12 18 63q81 150 127 305q-10 7 4 21q30 38 82 31q14 -2 14 -26q0 -30 -30 -136q-44 -155 -82 -203q-20 -24 -43 -33q-87 -30 -90 -22z" />
<glyph unicode="&#x2019;" horiz-adv-x="410" d="M269 1033q0 30 30 134q44 155 82 203q19 24 45 33q85 30 90 22q7 -11 -20 -63q-85 -160 -127 -305q7 -5 -2 -21q-34 -38 -82 -28q-16 1 -16 25z" />
<glyph unicode="&#x201a;" horiz-adv-x="410" d="M-8 -163q0 30 28 134q42 152 82 203q19 24 45 33q86 29 91 22q7 -11 -21 -63q-78 -149 -127 -305q7 -5 -2 -21q-30 -39 -82 -28q-14 1 -14 25z" />
<glyph unicode="&#x201c;" horiz-adv-x="633" d="M238 1012q-8 12 20 63q81 150 127 305q-10 7 4 21q30 38 82 31q14 -2 14 -26q0 -30 -30 -136q-44 -155 -82 -203q-20 -24 -43 -33q-88 -30 -92 -22zM463 1012q-7 11 20 63q79 149 127 305q-11 8 2 21q30 38 82 31q14 -3 14 -27q0 -31 -28 -135q-40 -148 -84 -203 q-20 -25 -55 -37q-74 -26 -78 -18z" />
<glyph unicode="&#x201d;" horiz-adv-x="633" d="M269 1031q0 30 30 136q44 155 82 203q19 24 45 33q85 30 90 22q7 -11 -20 -63q-85 -160 -127 -305q7 -5 -2 -21q-34 -38 -84 -28q-14 1 -14 23zM494 1033q0 30 28 134q42 152 82 203q19 24 45 33q86 29 90 22q7 -11 -20 -63q-79 -149 -127 -305q7 -5 -2 -21 q-31 -39 -82 -28q-14 1 -14 25z" />
<glyph unicode="&#x201e;" horiz-adv-x="633" d="M-10 -165q0 30 30 136q44 155 82 203q19 24 45 33q86 30 91 22q7 -11 -21 -63q-84 -160 -127 -305q7 -5 -2 -21q-34 -38 -84 -28q-14 1 -14 23zM215 -163q0 30 29 134q41 152 82 203q18 24 45 33q85 29 90 22q7 -11 -21 -63q-78 -149 -127 -305q8 -5 -2 -21 q-30 -39 -82 -28q-14 1 -14 25z" />
<glyph unicode="&#x2022;" horiz-adv-x="541" d="M137 682q0 74 51 125t123 51q74 0 125 -51t51 -125q0 -72 -51 -123t-125 -51q-72 0 -123 51t-51 123z" />
<glyph unicode="&#x2026;" horiz-adv-x="2048" d="M161 -4q-3 11 11 14q26 61 64 164q10 42 28 42q17 0 68 -17q26 -9 26 -35q0 -22 -41 -115q-32 -74 -69 -74q15 0 -72 9q-12 1 -15 12zM845 -4q-4 11 9 14q49 111 64 164q11 42 30 42q16 0 66 -17q26 -10 26 -36q0 -24 -39 -114q-32 -74 -70 -74q14 0 -71 9q-11 1 -15 12z M1527 -4q-4 11 9 14q49 111 63 164q12 42 31 42q17 0 68 -17q26 -9 26 -35q0 -22 -41 -115q-32 -74 -69 -74q15 0 -72 9q-11 1 -15 12z" />
<glyph unicode="&#x202f;" horiz-adv-x="353" />
<glyph unicode="&#x2039;" horiz-adv-x="543" d="M81 498q0 27 109 102q104 71 160 131q-2 19 -2 26q0 31 74 77q34 21 43 21q14 0 34 -30.5t20 -45.5q0 -29 -58 -72q-62 -41 -189 -146q-48 -50 -48 -62q0 -4 1 -7q87 -185 129 -308q17 -47 17 -72q0 -36 -45 -63q-60 -35 -77 -35q-11 0 -11 14q0 13 6 37t6 38 q0 144 -166 384q-3 5 -3 11z" />
<glyph unicode="&#x203a;" horiz-adv-x="543" d="M25 88q0 30 57 72q62 40 188 145q51 52 51 63q0 4 -2 7q-84 168 -131 307q-16 47 -16 73q0 39 45 64q60 35 76 35q12 0 12 -15q0 -13 -6 -37t-6 -37q0 -134 168 -386q3 -4 3 -9q0 -26 -111 -103.5t-158 -131.5q3 -42 -14 -61q-8 -8 -58 -39q-37 -23 -45 -23q-13 0 -33 31 t-20 45z" />
<glyph unicode="&#x205f;" horiz-adv-x="442" />
<glyph unicode="&#x20ac;" horiz-adv-x="1034" d="M13 474q5 21 14 69q5 29 40 31q10 -1 56 -6l28 -3q23 78 53 150h-41q-102 0 -112 -18q-7 -12 -24 -9q-17 4 -13 21q4 10 14 59q9 44 96 35q44 -4 116 -8q80 171 211 343q175 231 297 240q35 3 81 -29q7 -5 93 -75q5 40 27 40q24 0 81 -44q36 -28 36 -54q0 -14 -11 -63 q-24 -108 -91 -221q-29 -50 -57 -50q-11 0 -27 5q-76 23 -76 55q0 16 21 21q81 121 84 237q-55 49 -104 49q-105 1 -246 -183q-93 -122 -169 -277q96 -3 234 -4q92 -1 102 18q8 14 23 13q16 -2 16 -17q0 -17 -13.5 -52t-25 -42t-53.5 -4q-125 8 -318 12q-35 -79 -61 -157 q105 -5 229 -6q92 -1 102 18q8 14 23 13q16 -2 16 -17q0 -10 -15.5 -46t-22.5 -42q-14 -13 -54 -10q-157 10 -302 13q-36 -130 -34 -231q2 -96 57 -142q41 -34 93 -34q30 0 69 12q98 31 226 118q117 81 196 165q25 26 30 69q3 22 20 22q14 0 21 -18q36 -90 36 -125 q0 -34 -27 -62q-17 -18 -85 -69q-279 -210 -450 -210q-77 0 -125 55q-195 86 -195 223q0 111 26 227q-70 -3 -77.5 -16t-24.5 -10q-17 4 -13 21z" />
<glyph unicode="&#x2122;" horiz-adv-x="1802" d="M287 1219q0 75 129 98q174 31 317 31q22 36 42 36q23 0 54 -34q34 0 101 3t100 3q14 4 25 4q49 0 110 -94q17 65 17 88q0 31 9 31q26 0 45 -29q6 -9 5 -29q-1 -38 -33 -133q100 -194 150 -350q181 304 371 524q8 23 34 64q13 19 38 19q43 0 114 -56q10 -8 3 -16t-26 -5 q-40 7 -71 -53q-100 -193 -135 -533q7 16 20 39t16 31q7 13 16 13q11 0 11 -15q0 -7 -4 -16q-35 -84 -47 -172q-6 -42 -30 -42t-77 40q-28 21 -22 57q64 406 110 496q-169 -203 -309 -469q12 -38 12 -56q0 -24 -39 -59q-21 -20 -28 -20t-35 47q-14 24 -13 37q2 9 17 36 q-38 143 -131 338q-51 -129 -131 -289q43 -48 43 -65q0 -12 -31 -17q-73 -10 -112 -63q-5 -19 -19 -19q-20 0 -63 37q-21 18 -2 35q20 18 92 68q110 185 182 389q-48 108 -127 117q-55 0 -199 -11q-91 -154 -186 -581q-10 -44 -29 -44q-12 0 -53 13q-35 12 -35 53 q0 87 29 160q11 28 24 28q4 0 14 -3t17 -4q51 197 125 374q-253 -14 -305 -53q-39 -29 -39 -55q0 -23 31 -92q2 -6 2 -11q0 -20 -18 -20q-9 0 -15 10q-61 106 -61 189z" />
<glyph unicode="&#xe000;" horiz-adv-x="945" d="M0 0v945h945v-945h-945z" />
</font>
</defs>
</svg>
