<?xml version="1.0" standalone="no"?>
<!DOCTYPE svg PUBLIC "-//W3C//DTD SVG 1.1//EN" "http://www.w3.org/Graphics/SVG/1.1/DTD/svg11.dtd" >
<svg xmlns="http://www.w3.org/2000/svg" xmlns:xlink="http://www.w3.org/1999/xlink" version="1.1">
<metadata>
Created by FontForge 20170731 at Fri Jul  8 21:54:12 2016
 By Aleksey,,,
Copyright (c) 2015 by Radomir Tinkov. All rights reserved.
</metadata>
<defs>
<font id="Gilroy-BoldItalic" horiz-adv-x="575" >
  <font-face 
    font-family="Gilroy-BoldItalic"
    font-weight="400"
    font-style="italic"
    font-stretch="normal"
    units-per-em="1000"
    panose-1="0 0 8 0 0 0 0 0 0 0"
    ascent="773"
    descent="-227"
    x-height="500"
    cap-height="700"
    bbox="-361 -263 1079.19 975"
    underline-thickness="50"
    underline-position="-150"
    slope="-10"
    unicode-range="U+0020-FB02"
  />
<missing-glyph horiz-adv-x="500" 
d="M410 800v-1000h-317v1000h317zM333 733h-165v-33h65v-37h-66v-33h166v33h-66v37h66v33zM267 604h-100v-104h166v34h-66v70zM233 570v-36h-33v36h33zM333 473h-166v-33h66v-37h-66v-33h100v70h66v33zM333 413h-33v-66h-133v-34h166v100zM333 291h-100v-56h34v23h33v-47
h-100v80h-33v-113h166v113zM333 118h-166v-113h166v113zM300 85v-47h-100v47h100zM333 -18h-166v-33h70l-70 -47v-33h166v33h-102l70 47h32v33z" />
    <glyph glyph-name="fi" unicode="fi" horiz-adv-x="557" 
d="M542 500l-88 -500h-129l66 376h-147l-66 -376h-129l66 376h-71l21 124h72l1 5q19 108 85.5 158.5t186.5 50.5q53 0 114 -14l-20 -118q-44 8 -99 8q-123 0 -138 -85l-1 -5h276z" />
    <glyph glyph-name="fl" unicode="fl" horiz-adv-x="557" 
d="M410 714q65 0 166 -21l-122 -693h-129l105 600q-13 1 -40 1q-106 0 -123 -96l-1 -5h83l-21 -124h-84l-66 -376h-129l66 376h-71l21 124h72l1 5q19 108 85.5 158.5t186.5 50.5z" />
    <glyph glyph-name="f_f" unicode="ff" horiz-adv-x="605" 
d="M417 515q38 224 272 209l-22 -124q-105 8 -121 -85l-3 -15h106l-21 -124h-107l-66 -376h-129l66 376h-148l-66 -376h-129l66 376h-71l21 124h72l1 5q38 224 272 209l-22 -124q-105 8 -121 -85l-1 -5h148z" />
    <glyph glyph-name="f_f_i" unicode="ffi" horiz-adv-x="834" 
d="M819 500l-88 -500h-129l66 376h-147l-66 -376h-129l66 376h-148l-66 -376h-129l66 376h-71l21 124h72l1 5q38 224 272 209l-22 -124q-105 8 -121 -85l-1 -5h148l3 15q18 108 84 158.5t180 50.5q62 0 123 -14l-21 -118q-44 8 -98 8q-124 0 -139 -85l-3 -15h276z" />
    <glyph glyph-name="f_f_l" unicode="ffl" horiz-adv-x="834" 
d="M689 724q67 0 166 -21l-124 -703h-129l107 610q-13 1 -40 1q-106 0 -123 -96l-3 -15h84l-22 -124h-84l-66 -376h-129l66 376h-148l-66 -376h-129l66 376h-71l21 124h72l1 5q38 224 272 209l-22 -124q-105 8 -121 -85l-1 -5h148l3 15q19 108 85.5 158.5t186.5 50.5z" />
    <glyph glyph-name=".notdef" horiz-adv-x="500" 
d="M410 800v-1000h-317v1000h317zM333 733h-165v-33h65v-37h-66v-33h166v33h-66v37h66v33zM267 604h-100v-104h166v34h-66v70zM233 570v-36h-33v36h33zM333 473h-166v-33h66v-37h-66v-33h100v70h66v33zM333 413h-33v-66h-133v-34h166v100zM333 291h-100v-56h34v23h33v-47
h-100v80h-33v-113h166v113zM333 118h-166v-113h166v113zM300 85v-47h-100v47h100zM333 -18h-166v-33h70l-70 -47v-33h166v33h-102l70 47h32v33z" />
    <glyph glyph-name=".null" horiz-adv-x="0" 
 />
    <glyph glyph-name="nonmarkingreturn" horiz-adv-x="333" 
 />
    <glyph glyph-name="space" unicode=" " horiz-adv-x="250" 
 />
    <glyph glyph-name="exclam" unicode="!" horiz-adv-x="268" 
d="M80 235l20 265l35 200h155l-35 -200l-72 -265h-103zM87 -13q-35 0 -55.5 26t-14.5 61t34.5 59t65.5 24q35 0 56 -26t14 -61q-6 -35 -34 -59t-66 -24z" />
    <glyph glyph-name="quotedbl" unicode="&#x22;" horiz-adv-x="378" 
d="M99 470l23 230h122l-58 -230h-87zM269 470l23 230h122l-58 -230h-87z" />
    <glyph glyph-name="numbersign" unicode="#" horiz-adv-x="616" 
d="M603 395h-109l-30 -90h109l-33 -97h-110l-54 -158h-102l54 158h-102l-54 -158h-101l54 158h-110l34 97h110l30 90h-110l33 98h111l54 157h101l-54 -157h102l54 157h102l-54 -157h108zM362 305l30 90h-102l-30 -90h102z" />
    <glyph glyph-name="dollar" unicode="$" horiz-adv-x="560" 
d="M351 406q88 -40 120 -67q69 -60 51 -162q-16 -88 -82 -136.5t-163 -53.5l-15 -87h-68l16 89q-79 10 -131.5 51.5t-71.5 106.5l125 64q24 -75 101 -89l31 175q-20 9 -35.5 16t-34.5 18t-31.5 21t-27.5 24t-22 28.5t-14.5 34t-6 40t3.5 46.5q16 91 86 139.5t156 49.5l15 86
h68l-16 -93q113 -28 158 -137l-122 -63q-25 48 -61 64zM236 514q-8 -47 53 -78l25 144q-67 -9 -78 -66zM381 192q9 47 -54 78l-26 -148q68 14 80 70z" />
    <glyph glyph-name="percent" unicode="%" horiz-adv-x="766" 
d="M242 384q-73 0 -113 49t-31 115q10 68 62.5 117t131.5 49q75 0 115 -54t26 -123q-14 -65 -65 -109t-126 -44zM89 107l545 508l59 -37l-545 -509zM255 485q27 0 47.5 18.5t25.5 45.5t-9 45t-41 18t-47.5 -18t-25.5 -45t9 -45.5t41 -18.5zM510 -12q-74 0 -113.5 51
t-28.5 117q10 67 62.5 114.5t130.5 47.5q74 0 114 -53t27 -120q-13 -66 -64.5 -111.5t-127.5 -45.5zM523 89q28 0 48.5 19t25.5 45q5 28 -9 46t-42 18q-27 0 -47 -18.5t-25 -45.5t8.5 -45.5t40.5 -18.5z" />
    <glyph glyph-name="ampersand" unicode="&#x26;" horiz-adv-x="684" 
d="M638 283q-40 -89 -91 -150l77 -104l-116 -61l-57 77q-90 -59 -201 -59q-113 0 -171.5 63t-40.5 158q23 124 157 192q-31 61 -19 128q15 86 81.5 136.5t160.5 50.5q164 0 214 -150l-125 -66q-26 82 -100 82q-36 0 -63 -20t-33 -56q-7 -43 40 -106l120 -162q32 52 55 116z
M278 113q54 0 101 28l-119 161l-4 6q-66 -33 -79 -98q-7 -43 19.5 -70t81.5 -27z" />
    <glyph glyph-name="quotesingle" unicode="'" horiz-adv-x="208" 
d="M99 470l23 230h122l-58 -230h-87z" />
    <glyph glyph-name="parenleft" unicode="(" horiz-adv-x="307" 
d="M101 -100q-72 216 -29 459q40 229 188 441h129q-149 -219 -189 -450t30 -450h-129z" />
    <glyph glyph-name="parenright" unicode=")" horiz-adv-x="306" 
d="M241 800q72 -216 29 -459q-40 -229 -188 -441h-129q149 219 189 450t-30 450h129z" />
    <glyph glyph-name="asterisk" unicode="*" horiz-adv-x="398" 
d="M409 609l-14 -80l-89 7l42 -70l-71 -42l-29 84l-57 -84l-64 42l66 70l-91 -7l14 80l89 -8l-42 71l71 42l28 -84l58 84l64 -42l-66 -71z" />
    <glyph glyph-name="plus" unicode="+" horiz-adv-x="555" 
d="M531 411l-22 -121h-164l-29 -165h-121l29 165h-165l22 121h164l29 164h121l-29 -164h165z" />
    <glyph glyph-name="comma" unicode="," horiz-adv-x="278" 
d="M209 138l-124 -278h-105l89 278h140z" />
    <glyph glyph-name="hyphen" unicode="-" horiz-adv-x="505" 
d="M63 240l22 124h375l-22 -124h-375z" />
    <glyph glyph-name="period" unicode="." horiz-adv-x="268" 
d="M87 -13q-35 0 -55 25.5t-14 61.5t34 59.5t65 23.5q35 0 56 -26t14 -61q-6 -35 -34 -59t-66 -24z" />
    <glyph glyph-name="slash" unicode="/" horiz-adv-x="523" 
d="M33 -100h-63l555 900h62z" />
    <glyph glyph-name="zero" unicode="0" horiz-adv-x="631" 
d="M277 -14q-133 0 -192.5 104.5t-30.5 269.5t116.5 259.5t219.5 94.5t191.5 -104t30.5 -269t-116.5 -260t-218.5 -95zM293 121q69 0 115 58.5t66 170.5t-5.5 171t-95.5 59q-69 0 -115 -59t-66 -171t5.5 -170.5t95.5 -58.5z" />
    <glyph glyph-name="one" unicode="1" horiz-adv-x="388" 
d="M275 700h120l-123 -700h-138l96 549l-138 -37l-13 123z" />
    <glyph glyph-name="two" unicode="2" horiz-adv-x="532" 
d="M-17 0l18 103l283 246q94 82 105 140q7 41 -14 66t-59 25q-74 0 -128 -85l-110 71q46 73 112.5 110.5t143.5 37.5q92 0 151.5 -64.5t41.5 -165.5q-11 -60 -46 -109.5t-99 -104.5l-161 -137h254l-23 -133h-469z" />
    <glyph glyph-name="three" unicode="3" horiz-adv-x="545" 
d="M563 700l-19 -114l-160 -173q65 -25 99 -79.5t22 -126.5q-19 -107 -97 -164t-183 -57q-81 0 -140.5 37.5t-82.5 110.5l125 67q23 -80 113 -80q53 0 86.5 25.5t41.5 69.5q7 43 -17 69t-77 26h-31l-39 80l165 180h-268l22 129h440z" />
    <glyph glyph-name="four" unicode="4" horiz-adv-x="578" 
d="M566 247l-22 -128h-76l-21 -119h-139l21 119h-331l23 128l306 453h155l-307 -453h177l29 166h139l-29 -166h75z" />
    <glyph glyph-name="five" unicode="5" horiz-adv-x="548" 
d="M543 571h-266l-32 -126h70q94 0 155 -65.5t42 -172.5q-19 -108 -96.5 -164.5t-180.5 -56.5q-84 0 -144 38t-86 112l127 66q22 -81 118 -81q51 0 84 26t40 69q8 43 -15.5 69t-74.5 26h-212l96 389h398z" />
    <glyph glyph-name="six" unicode="6" horiz-adv-x="553" 
d="M330 472q99 -8 156 -79t39 -172q-19 -107 -96.5 -171t-190.5 -64q-112 0 -174 72.5t-43 180.5q17 94 78 154l261 307h165zM387 230q10 51 -17 82t-77 31q-51 0 -88 -30.5t-47 -82.5q-9 -52 18 -83t77 -31t87.5 31t46.5 83z" />
    <glyph glyph-name="seven" unicode="7" horiz-adv-x="490" 
d="M92 700h452l-20 -117l-333 -583h-153l325 568h-294z" />
    <glyph glyph-name="eight" unicode="8" horiz-adv-x="568" 
d="M557 503q-17 -95 -101 -143q41 -30 59.5 -75.5t8.5 -98.5q-17 -96 -90.5 -148t-189.5 -52q-114 0 -175.5 61t-44.5 157q20 111 127 165q-65 55 -49 146q17 97 89 148t170 51q95 0 154 -57t42 -154zM238 502q-6 -38 15.5 -60.5t59.5 -22.5q40 0 69.5 22.5t35.5 60.5
q7 38 -14.5 60t-60.5 22q-40 0 -69 -22t-36 -60zM391 213q7 45 -20 70.5t-76 25.5q-51 0 -87.5 -25.5t-43.5 -70.5q-9 -46 18.5 -71.5t77.5 -25.5q51 0 86.5 25.5t44.5 71.5z" />
    <glyph glyph-name="nine" unicode="9" horiz-adv-x="553" 
d="M350 714q112 0 174 -72.5t44 -180.5q-17 -88 -72 -146l-267 -315h-166l195 229q-99 8 -156 79t-39 172q19 107 96.5 170.5t190.5 63.5zM201 471q-10 -52 17 -83t77 -31q51 0 88.5 31t46.5 83q10 52 -17 82.5t-78 30.5q-50 0 -87.5 -31t-46.5 -82z" />
    <glyph glyph-name="colon" unicode=":" horiz-adv-x="268" 
d="M150 345q-35 0 -55 25.5t-14 61.5t34 59.5t65 23.5q35 0 56 -26t14 -61q-6 -35 -34 -59t-66 -24zM87 -13q-35 0 -55 25.5t-14 61.5t34 59.5t65 23.5q35 0 56 -26t14 -61q-6 -35 -34 -59t-66 -24z" />
    <glyph glyph-name="semicolon" unicode=";" horiz-adv-x="279" 
d="M162 345q-35 0 -55 25.5t-14 61.5t34 59.5t65 23.5q35 0 56 -26t14 -61q-6 -35 -34 -59t-66 -24zM209 138l-124 -278h-105l89 278h140z" />
    <glyph glyph-name="less" unicode="&#x3c;" horiz-adv-x="528" 
d="M544 598l-25 -141l-310 -114l270 -113l-22 -127l-404 190l10 57l10 58z" />
    <glyph glyph-name="equal" unicode="=" horiz-adv-x="525" 
d="M71 393l21 121h434l-21 -121h-434zM34 186l22 121h434l-22 -121h-434z" />
    <glyph glyph-name="greater" unicode="&#x3e;" horiz-adv-x="528" 
d="M107 598l403 -190l-10 -58l-10 -57l-471 -190l26 141l311 113l-272 114z" />
    <glyph glyph-name="question" unicode="?" horiz-adv-x="553" 
d="M192 235q8 50 41 90.5t68.5 63.5t67 54.5t37.5 63.5q6 34 -13.5 53.5t-56.5 19.5q-86 0 -135 -92l-112 71q37 74 108.5 114.5t155.5 40.5q94 0 152 -56.5t41 -149.5q-9 -51 -43 -93.5t-69.5 -66.5t-67 -54t-36.5 -59h-138zM217 -13q-35 0 -55 25.5t-14 61.5t34 59.5
t65 23.5q35 0 56 -26t14 -61q-6 -35 -34 -59t-66 -24z" />
    <glyph glyph-name="at" unicode="@" horiz-adv-x="779" 
d="M458 612q79 0 141.5 -31t97.5 -81.5t49 -112t3 -124.5q-19 -105 -72 -157.5t-124 -52.5q-45 0 -75.5 20.5t-39.5 56.5q-46 -44 -108 -44q-63 0 -97.5 50t-22.5 121q13 70 59.5 113.5t107.5 43.5q58 0 92 -45l6 34h107l-41 -231q-12 -73 46 -73q43 0 76.5 42.5t49.5 128.5
q23 131 -51.5 219.5t-206.5 88.5q-138 0 -248.5 -94t-135.5 -233q-26 -142 55.5 -235.5t230.5 -93.5q95 0 167 25l-6 -36q-72 -23 -166 -23q-163 0 -254.5 107t-63.5 264q26 150 147 251.5t277 101.5zM372 182q28 0 49 19t27 49q5 30 -9.5 49t-42.5 19q-29 0 -50.5 -19
t-26.5 -49t9.5 -49t43.5 -19z" />
    <glyph glyph-name="A" unicode="A" horiz-adv-x="668" 
d="M472 0l-18 126h-280l-65 -126h-151l369 700h171l123 -700h-149zM241 255h194l-42 292z" />
    <glyph glyph-name="B" unicode="B" horiz-adv-x="605" 
d="M597 498q-13 -87 -89 -139q77 -54 63 -161q-13 -88 -80.5 -143t-180.5 -55h-289l123 700h265q92 0 147 -57t41 -145zM393 571h-134l-27 -154h135q35 0 60.5 22t31.5 55q6 32 -11.5 54.5t-54.5 22.5zM436 212q6 36 -13 59t-57 23h-155l-29 -165h153q39 0 66.5 23.5
t34.5 59.5z" />
    <glyph glyph-name="C" unicode="C" horiz-adv-x="729" 
d="M359 -14q-105 0 -182 51t-109.5 136.5t-15.5 186.5q25 154 142.5 254t271.5 100q100 0 172.5 -44t107.5 -122l-126 -66q-47 98 -167 98q-100 0 -173.5 -64t-90.5 -166q-18 -101 32 -165t147 -64q130 0 203 102l113 -73q-57 -76 -142.5 -120t-182.5 -44z" />
    <glyph glyph-name="D" unicode="D" horiz-adv-x="715" 
d="M422 700q138 0 220 -106.5t56 -253.5q-26 -149 -137.5 -244.5t-261.5 -95.5h-278l123 700h278zM566 354q16 96 -30 155t-137 59h-140l-77 -436h132q96 0 165.5 62t86.5 160z" />
    <glyph glyph-name="E" unicode="E" horiz-adv-x="530" 
d="M549 568h-290l-27 -150h266l-24 -129h-264l-28 -157h295l-23 -132h-433l123 700h428z" />
    <glyph glyph-name="F" unicode="F" horiz-adv-x="519" 
d="M538 568h-279l-29 -166h272l-24 -132h-272l-47 -270h-138l123 700h418z" />
    <glyph glyph-name="G" unicode="G" horiz-adv-x="786" 
d="M775 376l-9 -54q-26 -153 -136 -244.5t-265 -91.5q-162 0 -251 109.5t-62 265.5q26 153 143 253t272 100q104 0 178.5 -44.5t113.5 -125.5l-126 -66q-53 102 -179 102q-101 0 -174.5 -63.5t-90.5 -165.5q-18 -102 33.5 -166t155.5 -64q172 0 230 133h-205l21 122h351z
" />
    <glyph glyph-name="H" unicode="H" horiz-adv-x="665" 
d="M542 700h137l-123 -700h-137l51 290h-260l-51 -290h-138l123 700h138l-49 -278h260z" />
    <glyph glyph-name="I" unicode="I" horiz-adv-x="268" 
d="M144 700h138l-123 -700h-138z" />
    <glyph glyph-name="J" unicode="J" horiz-adv-x="566" 
d="M228 -14q-168 0 -218 137l126 69q11 -38 36 -54.5t68 -16.5q110 0 127 97l85 482h138l-85 -482q-21 -117 -94.5 -174.5t-182.5 -57.5z" />
    <glyph glyph-name="K" unicode="K" horiz-adv-x="614" 
d="M689 700l-337 -344l216 -356h-145l-205 338l-59 -338h-138l123 700h138l-53 -300l295 300h165z" />
    <glyph glyph-name="L" unicode="L" horiz-adv-x="483" 
d="M182 132h267l-23 -132h-405l23 132l100 568h138z" />
    <glyph glyph-name="M" unicode="M" horiz-adv-x="815" 
d="M829 700l-123 -700h-137l80 455l-258 -326h-16l-135 330l-81 -459h-138l123 700h141l132 -335l260 335h152z" />
    <glyph glyph-name="N" unicode="N" horiz-adv-x="673" 
d="M21 0l123 700h104l225 -437l76 437h138l-123 -700h-104l-224 437l-77 -437h-138z" />
    <glyph glyph-name="O" unicode="O" horiz-adv-x="793" 
d="M354 -14q-152 0 -241 110.5t-61 263.5q26 155 143.5 254.5t278.5 99.5q150 0 239.5 -111t62.5 -264q-27 -155 -144 -254t-278 -99zM370 121q98 0 174.5 64t94.5 164q17 100 -36 165.5t-150 65.5t-171.5 -64.5t-92.5 -165.5q-18 -100 33.5 -164.5t147.5 -64.5z" />
    <glyph glyph-name="P" unicode="P" horiz-adv-x="590" 
d="M395 700q106 0 164 -69.5t42 -172.5q-15 -101 -91 -164.5t-194 -63.5h-117l-40 -230h-138l123 700h251zM464 468q9 47 -14 75t-76 28h-115l-37 -212h108q55 0 90 30t44 79z" />
    <glyph glyph-name="Q" unicode="Q" horiz-adv-x="798" 
d="M776 339q-24 -139 -125 -235l54 -68l-105 -80l-57 73q-88 -43 -189 -43q-96 0 -172.5 50.5t-112 137t-17.5 186.5q26 154 145.5 254t276.5 100q150 0 239.5 -111t62.5 -264zM469 337l101 -128q54 59 69 140q17 100 -36 165.5t-150 65.5t-171.5 -64.5t-92.5 -165.5
q-18 -100 33.5 -164.5t147.5 -64.5q47 0 89 15l-95 121z" />
    <glyph glyph-name="R" unicode="R" horiz-adv-x="614" 
d="M616 458q-13 -70 -57.5 -122t-110.5 -75l106 -261h-140l-97 243h-115l-43 -243h-138l123 700h273q95 0 155.5 -73t43.5 -169zM479 468q8 44 -16 73.5t-69 29.5h-135l-36 -207h142q42 0 74 30t40 74z" />
    <glyph glyph-name="S" unicode="S" horiz-adv-x="586" 
d="M269 -14q-106 0 -173.5 46.5t-86.5 126.5l125 64q26 -104 146 -104q55 0 86.5 20t37.5 53q8 38 -21.5 59t-102.5 45q-98 33 -147.5 83.5t-33.5 142.5q17 95 89.5 143.5t165.5 48.5q86 0 147 -41t88 -115l-121 -64q-37 87 -125 87q-42 0 -69.5 -18t-34.5 -49
q-8 -37 21 -58.5t98 -46.5q18 -7 30 -11t30 -11.5t29.5 -14t26.5 -16t25 -19t20.5 -22t16 -26.5t9.5 -30.5t4 -36.5t-4 -42q-17 -94 -91.5 -144t-184.5 -50z" />
    <glyph glyph-name="T" unicode="T" horiz-adv-x="540" 
d="M607 700l-23 -132h-189l-100 -568h-138l100 568h-188l23 132h515z" />
    <glyph glyph-name="U" unicode="U" horiz-adv-x="646" 
d="M291 -14q-124 0 -191.5 68t-47.5 175l83 471h137l-81 -460q-9 -54 16.5 -86.5t92.5 -32.5t104.5 33t46.5 86l81 460h138l-83 -471q-21 -118 -101 -180.5t-195 -62.5z" />
    <glyph glyph-name="V" unicode="V" horiz-adv-x="632" 
d="M187 0l-105 700h142l70 -539l258 539h157l-351 -700h-171z" />
    <glyph glyph-name="W" unicode="W" horiz-adv-x="999" 
d="M167 0l-73 700h137l45 -519l238 519h118l56 -519l226 519h149l-319 -700h-157l-51 462l-212 -462h-157z" />
    <glyph glyph-name="X" unicode="X" horiz-adv-x="610" 
d="M665 700l-264 -347l153 -353h-149l-99 229l-174 -229h-164l279 366l-144 334h148l91 -210l160 210h163z" />
    <glyph glyph-name="Y" unicode="Y" horiz-adv-x="601" 
d="M678 700l-298 -390l-55 -310h-137l55 312l-161 388h147l98 -258l187 258h164z" />
    <glyph glyph-name="Z" unicode="Z" horiz-adv-x="535" 
d="M582 700l-19 -109l-371 -459h296l-23 -132h-473l20 110l371 458h-284l23 132h460z" />
    <glyph glyph-name="bracketleft" unicode="[" horiz-adv-x="310" 
d="M366 676h-109l-115 -652h109l-23 -124h-238l160 900h237z" />
    <glyph glyph-name="backslash" unicode="\" horiz-adv-x="523" 
d="M372 -100l-242 900h56l242 -900h-56z" />
    <glyph glyph-name="bracketright" unicode="]" horiz-adv-x="310" 
d="M355 800l-159 -900h-238l22 124h109l115 652h-108l21 124h238z" />
    <glyph glyph-name="asciicircum" unicode="^" horiz-adv-x="560" 
d="M408 700l133 -330h-135l-67 182l-135 -182h-143l249 330h98z" />
    <glyph glyph-name="underscore" unicode="_" horiz-adv-x="520" 
d="M-42 -171l22 124h455l-22 -124h-455z" />
    <glyph glyph-name="grave" unicode="`" horiz-adv-x="275" 
d="M311 563l-62 137h-150l90 -137h122z" />
    <glyph glyph-name="a" unicode="a" horiz-adv-x="627" 
d="M483 500h129l-88 -500h-129l8 46q-65 -60 -166 -60q-113 0 -168 83t-34 193q19 107 96.5 179.5t185.5 72.5q106 0 154 -81zM277 109q58 0 103 36.5t58 96.5l2 16q8 61 -25.5 97t-90.5 36q-59 0 -104 -37.5t-56 -102.5q-11 -63 21 -102.5t92 -39.5z" />
    <glyph glyph-name="b" unicode="b" horiz-adv-x="626" 
d="M388 514q107 0 164.5 -81.5t39.5 -190.5q-17 -106 -93 -181t-187 -75q-108 0 -156 82l-12 -68h-129l123 700h129l-45 -254q68 68 166 68zM463 251q11 63 -20.5 101.5t-91.5 38.5t-106 -39t-57 -102t22 -102t93 -39t105 39.5t55 102.5z" />
    <glyph glyph-name="c" unicode="c" horiz-adv-x="540" 
d="M263 -14q-116 0 -181.5 79.5t-46.5 194.5q17 110 101.5 182t197.5 72q77 0 132 -35.5t79 -94.5l-117 -62q-27 65 -105 65q-58 0 -103.5 -37.5t-55.5 -96.5q-10 -60 21 -99.5t89 -39.5q78 0 124 67l104 -67q-38 -62 -101.5 -95t-137.5 -33z" />
    <glyph glyph-name="d" unicode="d" horiz-adv-x="628" 
d="M520 700h129l-123 -700h-129l8 48q-65 -62 -168 -62q-113 0 -168 83t-34 193q19 107 96.5 179.5t185.5 72.5t156 -83zM278 109q61 0 106.5 39t55.5 101q12 65 -21 103.5t-93 38.5q-59 0 -105 -37.5t-57 -102.5q-11 -63 21.5 -102.5t92.5 -39.5z" />
    <glyph glyph-name="e" unicode="e" horiz-adv-x="583" 
d="M333 514q111 0 175 -76.5t43 -187.5q-2 -22 -14 -53h-378q4 -48 37 -71t83 -23q75 0 123 51l91 -73q-84 -95 -224 -95q-124 0 -188.5 79t-45.5 195q17 109 102 181.5t196 72.5zM177 298h254q-1 51 -30.5 75.5t-75.5 24.5q-50 0 -88.5 -26t-59.5 -74z" />
    <glyph glyph-name="f" unicode="f" horiz-adv-x="329" 
d="M388 590q-105 8 -121 -85l-1 -5h106l-22 -124h-106l-66 -376h-129l66 376h-71l21 124h72l1 5q19 108 87.5 162t184.5 47z" />
    <glyph glyph-name="g" unicode="g" horiz-adv-x="628" 
d="M487 500h126l-84 -476q-21 -122 -99 -180t-190 -58q-83 0 -142.5 31t-86.5 91l115 60q31 -67 123 -67q63 0 103.5 31.5t50.5 91.5l8 44q-66 -66 -166 -66q-115 0 -171 79t-38 188q17 102 93.5 173.5t182.5 71.5q115 0 162 -86zM281 123q59 0 104.5 36t57.5 94l2 10
q9 59 -25.5 94.5t-93.5 35.5t-105.5 -37t-56.5 -97q-10 -59 23 -97.5t94 -38.5z" />
    <glyph glyph-name="h" unicode="h" 
d="M377 514q84 0 130 -56t29 -151l-54 -307h-129l51 291q9 51 -13.5 77t-67.5 26q-46 0 -80.5 -27t-48.5 -82l-50 -285h-129l123 700h129l-45 -255q58 69 155 69z" />
    <glyph glyph-name="i" unicode="i" horiz-adv-x="247" 
d="M179 560q-33 0 -52 23.5t-14 55.5q5 33 32 56.5t60 23.5t52.5 -24t14.5 -56q-6 -33 -33 -56t-60 -23zM15 0l88 500h129l-88 -500h-129z" />
    <glyph glyph-name="j" unicode="j" horiz-adv-x="264" 
d="M222 719q33 0 52.5 -24t14.5 -56q-5 -33 -32 -56t-61 -23q-33 0 -52 23.5t-14 55.5q5 33 32 56.5t60 23.5zM30 -10l90 510h129l-90 -510q-20 -117 -80.5 -164t-172.5 -40l22 124q88 -6 102 80z" />
    <glyph glyph-name="k" unicode="k" horiz-adv-x="517" 
d="M550 500l-241 -247l159 -253h-140l-143 235l-41 -235h-129l123 700h129l-72 -411l202 211h153z" />
    <glyph glyph-name="l" unicode="l" horiz-adv-x="248" 
d="M16 0l55 314l73 416h129l-74 -421l-54 -309h-129z" />
    <glyph glyph-name="m" unicode="m" horiz-adv-x="850" 
d="M654 514q85 0 129.5 -57t28.5 -149l-55 -308h-129l52 299q8 45 -9.5 70t-57.5 25q-84 0 -110 -95l-52 -299h-129l52 299q8 45 -9.5 70t-56.5 25q-44 0 -74.5 -28t-39.5 -82l-50 -284h-129l88 500h129l-9 -50q58 64 145 64q92 0 127 -75q61 75 159 75z" />
    <glyph glyph-name="n" unicode="n" 
d="M377 514q84 0 130 -56t29 -151l-54 -307h-129l51 291q9 51 -13.5 77t-67.5 26q-46 0 -80.5 -27t-48.5 -81l-50 -286h-129l88 500h129l-10 -54q59 68 155 68z" />
    <glyph glyph-name="o" unicode="o" horiz-adv-x="594" 
d="M264 -14q-124 0 -187 83.5t-41 196.5q21 107 104 177.5t198 70.5q116 0 178.5 -83.5t42.5 -193.5q-18 -106 -102.5 -178.5t-192.5 -72.5zM273 112q57 0 102.5 38t55.5 101q12 62 -20 99.5t-89 37.5q-56 0 -100.5 -37.5t-56.5 -100.5q-11 -63 20.5 -100.5t87.5 -37.5z" />
    <glyph glyph-name="p" unicode="p" horiz-adv-x="627" 
d="M389 514q106 0 163.5 -82.5t39.5 -191.5q-16 -106 -92 -180t-184 -74q-110 0 -160 84l-47 -270h-129l123 700h129l-9 -52q66 66 166 66zM463 249q11 63 -20.5 102.5t-91.5 39.5q-57 0 -101.5 -35t-59.5 -92l-4 -25q-7 -60 27 -95t91 -35q58 0 103 37.5t56 102.5z" />
    <glyph glyph-name="q" unicode="q" horiz-adv-x="627" 
d="M483 500h129l-123 -700h-129l43 246q-65 -60 -166 -60q-113 0 -167.5 83t-34.5 193q19 107 96.5 179.5t185.5 72.5q106 0 154 -81zM277 109q58 0 102.5 35.5t57.5 94.5l4 20q7 61 -26.5 96.5t-90.5 35.5q-59 0 -104 -37.5t-56 -102.5q-11 -63 21 -102.5t92 -39.5z" />
    <glyph glyph-name="r" unicode="r" horiz-adv-x="357" 
d="M218 420q54 92 168 90l-25 -144q-35 4 -68.5 -4.5t-64.5 -38.5t-41 -79l-43 -244h-129l88 500h129z" />
    <glyph glyph-name="s" unicode="s" horiz-adv-x="470" 
d="M206 -14q-153 0 -203 123l116 58q20 -64 98 -64q65 0 73 39q3 21 -22 34t-62 24t-73 26.5t-57 51.5t-12 89q13 70 71.5 108.5t131.5 38.5q65 0 114 -28t72 -78l-116 -58q-18 50 -77 50q-58 0 -67 -43q-4 -23 20.5 -36t62 -23t74 -24.5t57.5 -50t11 -91.5
q-13 -73 -70.5 -109.5t-141.5 -36.5z" />
    <glyph glyph-name="t" unicode="t" horiz-adv-x="386" 
d="M255 376l-37 -208q-7 -39 17 -47t87 -4l-20 -117q-126 -15 -178.5 26t-34.5 142l37 208h-87l22 124h86l18 101l136 39l-25 -140h114l-23 -124h-112z" />
    <glyph glyph-name="u" unicode="u" 
d="M431 500h129l-88 -500h-129l10 54q-59 -68 -155 -68q-84 0 -130 56t-29 151l54 307h129l-51 -291q-9 -51 13.5 -77t67.5 -26q46 0 80.5 27t48.5 81z" />
    <glyph glyph-name="v" unicode="v" horiz-adv-x="500" 
d="M399 500h143l-270 -500h-132l-93 500h132l51 -341z" />
    <glyph glyph-name="w" unicode="w" horiz-adv-x="778" 
d="M665 500h142l-247 -500h-123l-39 302l-138 -302h-130l-71 500h129l36 -307l140 307h125l39 -308z" />
    <glyph glyph-name="x" unicode="x" horiz-adv-x="525" 
d="M556 500l-220 -249l140 -251h-140l-86 154l-136 -154h-153l230 260l-134 240h140l80 -143l126 143h153z" />
    <glyph glyph-name="y" unicode="y" horiz-adv-x="525" 
d="M424 500h143l-270 -500q-61 -114 -133.5 -159.5t-166.5 -40.5l21 120q53 -1 84 19.5t58 73.5l3 5l-116 482h132l74 -337z" />
    <glyph glyph-name="z" unicode="z" horiz-adv-x="454" 
d="M462 500l-15 -86l-258 -293h216l-21 -121h-396l16 86l257 293h-196l22 121h375z" />
    <glyph glyph-name="braceleft" unicode="{" horiz-adv-x="360" 
d="M276 -107q-99 -8 -146.5 41.5t-31.5 144.5l26 148q8 41 -9 53t-58 9l22 125q40 -3 61 9t29 53l26 148q18 107 76.5 150.5t166.5 35.5l-23 -124q-40 5 -62 -8t-29 -54l-26 -148q-9 -51 -28.5 -79.5t-53.5 -45.5q53 -36 37 -124l-26 -148q-7 -41 10.5 -54t60.5 -8z" />
    <glyph glyph-name="bar" unicode="|" horiz-adv-x="259" 
d="M-14 -200l162 920h129l-162 -920h-129z" />
    <glyph glyph-name="braceright" unicode="}" horiz-adv-x="359" 
d="M119 809q99 8 146.5 -41.5t31.5 -144.5l-26 -148q-8 -41 9 -53t58 -9l-22 -125q-40 3 -61 -9t-29 -53l-26 -148q-18 -107 -76.5 -150.5t-166.5 -35.5l23 124q40 -5 62 8t29 54l26 148q9 51 28.5 79.5t53.5 45.5q-53 36 -37 124l26 148q7 41 -10.5 54t-60.5 8z" />
    <glyph glyph-name="asciitilde" unicode="~" horiz-adv-x="599" 
d="M151 255l-96 50q36 99 110 128.5t152 -14.5q69 -37 103.5 -32.5t62.5 56.5l95 -51q-37 -99 -110 -128t-151 15q-69 36 -104 32t-62 -56z" />
    <glyph glyph-name="exclamdown" unicode="&#xa1;" horiz-adv-x="268" 
d="M181 513q35 0 55.5 -26t14.5 -61t-34.5 -59t-65.5 -24q-35 0 -56 26t-14 61q6 35 34 59t66 24zM188 265l-20 -265l-35 -200h-155l35 200l72 265h103z" />
    <glyph glyph-name="cent" unicode="&#xa2;" horiz-adv-x="540" 
d="M291 214q78 0 124 67l104 -67q-38 -62 -101.5 -95t-137.5 -33q-32 0 -66 8l-46 -94h-60l56 113q-64 33 -94.5 99.5t-17.5 147.5q17 110 101.5 182t197.5 72q31 0 58 -6l46 92h60l-54 -109q71 -34 101 -107l-117 -62q-13 33 -43 50l-127 -257q5 -1 16 -1zM181 353
q-14 -81 43 -120l125 254h-9q-58 0 -103.5 -37.5t-55.5 -96.5z" />
    <glyph glyph-name="sterling" unicode="&#xa3;" horiz-adv-x="581" 
d="M247 274l-24 -141h326l-23 -133h-538l24 133h73l25 141h-60l21 121h60l17 98q20 110 86 165.5t163 55.5q73 0 126 -39t76 -107l-122 -64q-27 76 -96 76q-36 0 -62 -22.5t-33 -64.5l-17 -98h204l-22 -121h-204z" />
    <glyph glyph-name="currency" unicode="&#xa4;" horiz-adv-x="543" 
d="M564 551l-82 -70q35 -58 22 -132t-68 -130l57 -70l-44 -36l-56 70q-65 -43 -141 -43q-70 0 -120 40l-81 -69l-36 38l82 70q-35 58 -22 132q13 75 68 131l-57 69l41 37l58 -71q66 44 142 44q69 0 119 -40l80 68zM203 350q-7 -38 13 -63t58 -25q39 0 67 24.5t36 63.5
q6 39 -13.5 63.5t-58.5 24.5q-38 0 -67 -24.5t-35 -63.5z" />
    <glyph glyph-name="yen" unicode="&#xa5;" horiz-adv-x="601" 
d="M678 700l-259 -338h132l-15 -80h-161l-8 -45h161l-13 -81h-162l-28 -156h-137l28 156h-161l13 81h162l8 45h-162l15 80h131l-140 338h147l98 -258l187 258h164z" />
    <glyph glyph-name="brokenbar" unicode="&#xa6;" horiz-adv-x="259" 
d="M83 350l65 370h129l-65 -370h-129zM-14 -200l65 370h129l-65 -370h-129z" />
    <glyph glyph-name="section" unicode="&#xa7;" horiz-adv-x="546" 
d="M385 454q64 -25 102 -70.5t27 -111.5q-14 -74 -84 -121q28 -44 18 -105q-15 -80 -74.5 -119t-147.5 -39q-157 0 -210 126l116 63q28 -75 106 -75q72 0 80 47q4 6 0.5 13.5t-3.5 12.5t-7.5 11.5t-11 10.5t-14 10t-16.5 9t-18.5 8.5t-19.5 9t-20.5 9t-20.5 8.5
q-142 64 -122 186q14 75 85 118q-24 43 -14 104q14 77 71 116t137 39q64 0 114.5 -32t76.5 -94l-109 -55q-28 67 -91 67q-28 0 -47 -13t-23 -36q-2 -13 4 -25t14.5 -20.5t28 -18.5t33 -16t40.5 -17zM262 254l85 -36q29 19 35 51q5 29 -14 47t-61 35q-59 23 -77 33
q-29 -19 -35 -52q-5 -27 12.5 -45t54.5 -33z" />
    <glyph glyph-name="dieresis" unicode="&#xa8;" horiz-adv-x="343" 
d="M140 549q-28 0 -44 19.5t-11 47.5t28 48t51 20t44.5 -20t11.5 -48t-28.5 -47.5t-51.5 -19.5zM330 549q-28 0 -44 19.5t-11 47.5t28 48t51 20t44.5 -20t11.5 -48t-28.5 -47.5t-51.5 -19.5z" />
    <glyph glyph-name="copyright" unicode="&#xa9;" horiz-adv-x="789" 
d="M355 -12q-147 0 -238.5 109.5t-64.5 258.5q26 151 145.5 253.5t272.5 102.5q147 0 238.5 -109.5t65.5 -258.5q-27 -151 -146.5 -253.5t-272.5 -102.5zM358 22q137 0 246 95.5t133 232.5q23 135 -57.5 231.5t-213.5 96.5q-136 0 -245 -95.5t-133 -232.5
q-24 -135 57 -231.5t213 -96.5zM381 154q-83 0 -130.5 61.5t-32.5 143.5q14 81 76 134t144 53q51 0 94 -27t66 -71l-101 -53q-21 40 -70 40q-38 0 -65.5 -25t-32.5 -60q-7 -34 11.5 -59.5t53.5 -25.5q53 0 82 42l91 -57q-33 -45 -82.5 -70.5t-103.5 -25.5z" />
    <glyph glyph-name="guillemotleft" unicode="&#xab;" horiz-adv-x="546" 
d="M334 497l-141 -192l73 -183h-118l-75 187l138 188h123zM527 497l-144 -196l73 -179h-118l-74 183l140 192h123z" />
    <glyph glyph-name="logicalnot" unicode="&#xac;" horiz-adv-x="550" 
d="M533 411l-42 -240h-129l21 119h-331l21 121h460z" />
    <glyph glyph-name="registered" unicode="&#xae;" horiz-adv-x="789" 
d="M470 712q147 0 238.5 -109.5t65.5 -258.5q-27 -151 -146.5 -253.5t-272.5 -102.5q-147 0 -238.5 109.5t-64.5 258.5q26 151 145.5 253.5t272.5 102.5zM737 350q23 135 -57.5 231.5t-213.5 96.5q-136 0 -245 -95.5t-133 -232.5q-24 -135 57 -231.5t213 -96.5
q137 0 246 95.5t133 232.5zM459 535q58 0 94 -40t26 -95q-13 -74 -73 -105l51 -130h-112l-34 110h-41l-19 -110h-107l65 370h150zM399 438l-13 -73h34q43 0 50 36q6 37 -37 37h-34z" />
    <glyph glyph-name="macron" unicode="&#xaf;" horiz-adv-x="331" 
d="M76 564l18 105h290l-18 -105h-290z" />
    <glyph glyph-name="degree" unicode="&#xb0;" horiz-adv-x="401" 
d="M243 480q-71 0 -112 50.5t-28 119.5q11 69 66 114.5t129 45.5q71 0 111.5 -50t28.5 -120q-12 -69 -65.5 -114.5t-129.5 -45.5zM260 585q27 0 46 17t23 43q5 26 -8.5 43t-39.5 17t-45 -17t-24 -43t8 -43t40 -17z" />
    <glyph glyph-name="plusminus" unicode="&#xb1;" horiz-adv-x="555" 
d="M382 502h165l-21 -121h-165l-26 -146h-121l26 146h-164l21 121h164l26 146h121zM18 53l21 121h450l-21 -121h-450z" />
    <glyph glyph-name="acute" unicode="&#xb4;" horiz-adv-x="275" 
d="M76 563h127l131 137h-158z" />
    <glyph glyph-name="uni00B5" unicode="&#xb5;" horiz-adv-x="617" 
d="M536 121h36l-22 -121h-60q-70 0 -100 50q-59 -64 -151 -64q-52 0 -93 25l-37 -211h-129l123 700h129l-51 -293q-8 -50 14.5 -75.5t67.5 -25.5t79 26t48 79l51 289h129l-61 -347q-5 -32 27 -32z" />
    <glyph glyph-name="paragraph" unicode="&#xb6;" horiz-adv-x="669" 
d="M701 700l-19 -113h-62l-138 -787h-121l138 787h-79l-138 -787h-121l83 470q-89 1 -140.5 68t-35.5 156q16 88 88.5 147t162.5 59h382z" />
    <glyph glyph-name="periodcentered" unicode="&#xb7;" horiz-adv-x="267" 
d="M135 262q-35 0 -55 25.5t-14 61.5t34 59.5t65 23.5q35 0 56 -26t14 -61q-6 -35 -34 -59t-66 -24z" />
    <glyph glyph-name="cedilla" unicode="&#xb8;" horiz-adv-x="260" 
d="M118 -46q27 -8 44.5 -30t11.5 -56q-19 -101 -236 -84l16 91q106 -7 112 20q3 22 -59 25l14 80h105z" />
    <glyph glyph-name="guillemotright" unicode="&#xbb;" horiz-adv-x="547" 
d="M229 496l74 -183l-140 -192h-123l144 196l-73 179h118zM419 496l75 -187l-138 -188h-123l141 192l-73 183h118z" />
    <glyph glyph-name="onequarter" unicode="&#xbc;" horiz-adv-x="813" 
d="M591 700h95l-518 -700h-95zM169 585l-85 -23l-10 95l128 43h94l-71 -400h-107zM781 162l-16 -98h-41l-11 -64h-102l11 64h-186l16 98l167 238h118l-162 -238h65l12 69h102l-12 -69h39z" />
    <glyph glyph-name="onehalf" unicode="&#xbd;" horiz-adv-x="813" 
d="M591 700h95l-518 -700h-95zM169 585l-85 -23l-10 95l128 43h94l-71 -400h-107zM782 275q-6 -31 -27 -57t-61 -59l-73 -62h135l-17 -97h-300l12 70l178 153q43 37 46 58q3 16 -6 25.5t-27 9.5q-39 0 -70 -53l-84 53q26 45 69.5 71.5t98.5 26.5q64 0 101 -38t25 -101z" />
    <glyph glyph-name="threequarters" unicode="&#xbe;" horiz-adv-x="894" 
d="M349 414q-11 -64 -56 -96t-117 -32q-112 0 -144 89l94 50q16 -45 62 -45q48 0 54 41q4 19 -8 29.5t-36 10.5h-19l-29 57l81 85h-142l17 97h275l-14 -79l-85 -88q38 -15 56 -46.5t11 -72.5zM672 700h95l-518 -700h-95zM862 162l-16 -98h-41l-11 -64h-102l11 64h-186l16 98
l167 238h118l-162 -238h65l12 69h102l-12 -69h39z" />
    <glyph glyph-name="questiondown" unicode="&#xbf;" horiz-adv-x="553" 
d="M336 513q35 0 55 -25.5t14 -61.5t-34 -59.5t-65 -23.5q-35 0 -56 26t-14 61q6 35 34 59t66 24zM361 265q-8 -50 -41 -90.5t-68.5 -63.5t-67 -54.5t-37.5 -63.5q-6 -34 13.5 -53.5t56.5 -19.5q86 0 135 92l112 -71q-37 -74 -108.5 -114.5t-155.5 -40.5q-94 0 -152 56.5
t-41 149.5q9 51 43 93.5t69.5 66.5t67 54t36.5 59h138z" />
    <glyph glyph-name="Agrave" unicode="&#xc0;" horiz-adv-x="668" 
d="M502 763h-122l-90 137h150zM472 0l-18 126h-280l-65 -126h-151l369 700h171l123 -700h-149zM241 255h194l-42 292z" />
    <glyph glyph-name="Aacute" unicode="&#xc1;" horiz-adv-x="668" 
d="M603 900l-131 -137h-127l100 137h158zM472 0l-18 126h-280l-65 -126h-151l369 700h171l123 -700h-149zM241 255h194l-42 292z" />
    <glyph glyph-name="Acircumflex" unicode="&#xc2;" horiz-adv-x="668" 
d="M434 820l-58 -65h-128l131 145h130l81 -145h-126zM472 0l-18 126h-280l-65 -126h-151l369 700h171l123 -700h-149zM241 255h194l-42 292z" />
    <glyph glyph-name="Atilde" unicode="&#xc3;" horiz-adv-x="668" 
d="M419 784q-26 20 -40.5 16t-20.5 -40h-104q6 56 27.5 92t50.5 48t61 7t61 -26q25 -20 39.5 -16t20.5 40h104q-6 -56 -27 -92t-50 -48t-61 -7t-61 26zM472 0l-18 126h-280l-65 -126h-151l369 700h171l123 -700h-149zM241 255h194l-42 292z" />
    <glyph glyph-name="Adieresis" unicode="&#xc4;" horiz-adv-x="668" 
d="M326 749q-28 0 -44 19.5t-11 47.5t28 48t51 20t44.5 -20t11.5 -48t-28.5 -47.5t-51.5 -19.5zM516 749q-28 0 -44 19.5t-11 47.5t28 48t51 20t44.5 -20t11.5 -48t-28.5 -47.5t-51.5 -19.5zM472 0l-18 126h-280l-65 -126h-151l369 700h171l123 -700h-149zM241 255h194
l-42 292z" />
    <glyph glyph-name="Aring" unicode="&#xc5;" horiz-adv-x="668" 
d="M472 0l-18 126h-280l-65 -126h-151l361 685q-30 35 -21 86t49 83t95 32t86 -36t22 -86q-9 -52 -49 -83l120 -681h-149zM385 768q-3 -16 5.5 -27t26.5 -11q40 0 47 37q3 17 -6 27.5t-27 10.5q-39 0 -46 -37zM241 255h194l-42 292z" />
    <glyph glyph-name="AE" unicode="&#xc6;" horiz-adv-x="880" 
d="M899 568h-259l-27 -150h237l-23 -129h-236l-28 -157h264l-23 -132h-398l22 126h-218l-98 -126h-156l537 700h429zM309 255h142l41 236z" />
    <glyph glyph-name="Ccedilla" unicode="&#xc7;" horiz-adv-x="729" 
d="M368 121q130 0 203 102l113 -73q-49 -66 -120.5 -108.5t-153.5 -52.5l-6 -35q27 -8 44.5 -30t11.5 -56q-19 -101 -236 -84l16 91q106 -7 112 20q3 22 -59 25l12 70q-136 19 -206.5 124t-46.5 246q25 154 142.5 254t271.5 100q100 0 172.5 -44t107.5 -122l-126 -66
q-47 98 -167 98q-100 0 -173.5 -64t-90.5 -166q-18 -101 32 -165t147 -64z" />
    <glyph glyph-name="Egrave" unicode="&#xc8;" horiz-adv-x="530" 
d="M447 763h-122l-90 137h150zM549 568h-290l-27 -150h266l-24 -129h-264l-28 -157h295l-23 -132h-433l123 700h428z" />
    <glyph glyph-name="Eacute" unicode="&#xc9;" horiz-adv-x="530" 
d="M548 900l-131 -137h-127l100 137h158zM549 568h-290l-27 -150h266l-24 -129h-264l-28 -157h295l-23 -132h-433l123 700h428z" />
    <glyph glyph-name="Ecircumflex" unicode="&#xca;" horiz-adv-x="530" 
d="M379 820l-58 -65h-128l131 145h130l81 -145h-126zM549 568h-290l-27 -150h266l-24 -129h-264l-28 -157h295l-23 -132h-433l123 700h428z" />
    <glyph glyph-name="Edieresis" unicode="&#xcb;" horiz-adv-x="530" 
d="M271 749q-28 0 -44 19.5t-11 47.5t28 48t51 20t44.5 -20t11.5 -48t-28.5 -47.5t-51.5 -19.5zM461 749q-28 0 -44 19.5t-11 47.5t28 48t51 20t44.5 -20t11.5 -48t-28.5 -47.5t-51.5 -19.5zM549 568h-290l-27 -150h266l-24 -129h-264l-28 -157h295l-23 -132h-433l123 700
h428z" />
    <glyph glyph-name="Igrave" unicode="&#xcc;" horiz-adv-x="268" 
d="M302 763l-62 137h-150l90 -137h122zM144 700h138l-123 -700h-138z" />
    <glyph glyph-name="Iacute" unicode="&#xcd;" horiz-adv-x="268" 
d="M145 763h127l131 137h-158zM144 700h138l-123 -700h-138z" />
    <glyph glyph-name="Icircumflex" unicode="&#xce;" horiz-adv-x="268" 
d="M234 820l-58 -65h-128l131 145h130l81 -145h-126zM21 0l123 700h138l-123 -700h-138z" />
    <glyph glyph-name="Idieresis" unicode="&#xcf;" horiz-adv-x="268" 
d="M126 749q-28 0 -44 19.5t-11 47.5t28 48t51 20t44.5 -20t11.5 -48t-28.5 -47.5t-51.5 -19.5zM316 749q-28 0 -44 19.5t-11 47.5t28 48t51 20t44.5 -20t11.5 -48t-28.5 -47.5t-51.5 -19.5zM144 700h138l-123 -700h-138z" />
    <glyph glyph-name="Eth" unicode="&#xd0;" horiz-adv-x="750" 
d="M458 700q138 0 220 -106.5t56 -253.5q-26 -149 -137.5 -244.5t-261.5 -95.5h-278l49 281h-78l22 124h78l52 295h278zM602 354q16 96 -30 155t-137 59h-140l-29 -163h159l-22 -124h-159l-26 -149h132q96 0 165.5 62t86.5 160z" />
    <glyph glyph-name="Ntilde" unicode="&#xd1;" horiz-adv-x="673" 
d="M256 760q6 56 27.5 92t50.5 48t61 7t61 -26q25 -20 39.5 -16t20.5 40h104q-6 -56 -27 -92t-50 -48t-61 -7t-61 26q-26 20 -40.5 16t-20.5 -40h-104zM21 0l123 700h104l225 -437l76 437h138l-123 -700h-104l-224 437l-77 -437h-138z" />
    <glyph glyph-name="Ograve" unicode="&#xd2;" horiz-adv-x="793" 
d="M566 771l-62 137h-150l90 -137h122zM354 -14q-152 0 -241 110.5t-61 263.5q26 155 143.5 254.5t278.5 99.5q150 0 239.5 -111t62.5 -264q-27 -155 -144 -254t-278 -99zM370 121q98 0 174.5 64t94.5 164q17 100 -36 165.5t-150 65.5t-171.5 -64.5t-92.5 -165.5
q-18 -100 33.5 -164.5t147.5 -64.5z" />
    <glyph glyph-name="Oacute" unicode="&#xd3;" horiz-adv-x="793" 
d="M409 771h127l131 137h-158zM354 -14q-152 0 -241 110.5t-61 263.5q26 155 143.5 254.5t278.5 99.5q150 0 239.5 -111t62.5 -264q-27 -155 -144 -254t-278 -99zM370 121q98 0 174.5 64t94.5 164q17 100 -36 165.5t-150 65.5t-171.5 -64.5t-92.5 -165.5
q-18 -100 33.5 -164.5t147.5 -64.5z" />
    <glyph glyph-name="Ocircumflex" unicode="&#xd4;" horiz-adv-x="793" 
d="M498 828l-58 -65h-128l131 145h130l81 -145h-126zM474 714q150 0 239.5 -111t62.5 -264q-27 -155 -144 -254t-278 -99q-152 0 -241 110.5t-61 263.5q26 155 143.5 254.5t278.5 99.5zM639 349q17 100 -36 165.5t-150 65.5t-171.5 -64.5t-92.5 -165.5q-18 -100 33.5 -164.5
t147.5 -64.5q98 0 174.5 64t94.5 164z" />
    <glyph glyph-name="Otilde" unicode="&#xd5;" horiz-adv-x="793" 
d="M318 768q6 56 27.5 92t50.5 48t61 7t61 -26q25 -20 39.5 -16t20.5 40h104q-6 -56 -27 -92t-50 -48t-61 -7t-61 26q-26 20 -40.5 16t-20.5 -40h-104zM354 -14q-152 0 -241 110.5t-61 263.5q26 155 143.5 254.5t278.5 99.5q150 0 239.5 -111t62.5 -264q-27 -155 -144 -254
t-278 -99zM370 121q98 0 174.5 64t94.5 164q17 100 -36 165.5t-150 65.5t-171.5 -64.5t-92.5 -165.5q-18 -100 33.5 -164.5t147.5 -64.5z" />
    <glyph glyph-name="Odieresis" unicode="&#xd6;" horiz-adv-x="793" 
d="M390 757q-28 0 -44 19.5t-11 47.5t28 48t51 20t44.5 -20t11.5 -48t-28.5 -47.5t-51.5 -19.5zM580 757q-28 0 -44 19.5t-11 47.5t28 48t51 20t44.5 -20t11.5 -48t-28.5 -47.5t-51.5 -19.5zM354 -14q-152 0 -241 110.5t-61 263.5q26 155 143.5 254.5t278.5 99.5
q150 0 239.5 -111t62.5 -264q-27 -155 -144 -254t-278 -99zM370 121q98 0 174.5 64t94.5 164q17 100 -36 165.5t-150 65.5t-171.5 -64.5t-92.5 -165.5q-18 -100 33.5 -164.5t147.5 -64.5z" />
    <glyph glyph-name="multiply" unicode="&#xd7;" horiz-adv-x="512" 
d="M501 471l-143 -124l100 -118l-94 -84l-101 120l-139 -120l-77 84l142 123l-100 119l93 84l102 -120l139 120z" />
    <glyph glyph-name="Oslash" unicode="&#xd8;" horiz-adv-x="799" 
d="M719 605q91 -112 64 -266q-28 -155 -145 -254t-278 -99q-110 0 -192 63l-59 -60l-66 42l72 72q-83 108 -57 257q27 155 144 254.5t278 99.5q104 0 183 -57l54 54l66 -42zM195 350q-15 -84 20 -145l347 350q-45 25 -103 25q-97 0 -171.5 -64.5t-92.5 -165.5zM645 349
q16 90 -27 154l-350 -353q46 -29 108 -29q98 0 174.5 64t94.5 164z" />
    <glyph glyph-name="Ugrave" unicode="&#xd9;" horiz-adv-x="646" 
d="M491 763l-62 137h-150l90 -137h122zM291 -14q-124 0 -191.5 68t-47.5 175l83 471h137l-81 -460q-9 -54 16.5 -86.5t92.5 -32.5t104.5 33t46.5 86l81 460h138l-83 -471q-21 -118 -101 -180.5t-195 -62.5z" />
    <glyph glyph-name="Uacute" unicode="&#xda;" horiz-adv-x="646" 
d="M334 763h127l131 137h-158zM291 -14q-124 0 -191.5 68t-47.5 175l83 471h137l-81 -460q-9 -54 16.5 -86.5t92.5 -32.5t104.5 33t46.5 86l81 460h138l-83 -471q-21 -118 -101 -180.5t-195 -62.5z" />
    <glyph glyph-name="Ucircumflex" unicode="&#xdb;" horiz-adv-x="646" 
d="M423 820l-58 -65h-128l131 145h130l81 -145h-126zM532 700h138l-83 -471q-21 -118 -101 -180.5t-195 -62.5q-124 0 -191.5 68t-47.5 175l83 471h137l-81 -460q-9 -54 16.5 -86.5t92.5 -32.5t104.5 33t46.5 86z" />
    <glyph glyph-name="Udieresis" unicode="&#xdc;" horiz-adv-x="646" 
d="M315 749q-28 0 -44 19.5t-11 47.5t28 48t51 20t44.5 -20t11.5 -48t-28.5 -47.5t-51.5 -19.5zM505 749q-28 0 -44 19.5t-11 47.5t28 48t51 20t44.5 -20t11.5 -48t-28.5 -47.5t-51.5 -19.5zM291 -14q-124 0 -191.5 68t-47.5 175l83 471h137l-81 -460q-9 -54 16.5 -86.5
t92.5 -32.5t104.5 33t46.5 86l81 460h138l-83 -471q-21 -118 -101 -180.5t-195 -62.5z" />
    <glyph glyph-name="Yacute" unicode="&#xdd;" horiz-adv-x="601" 
d="M569 900l-131 -137h-127l100 137h158zM678 700l-298 -390l-55 -310h-137l55 312l-161 388h147l98 -258l187 258h164z" />
    <glyph glyph-name="Thorn" unicode="&#xde;" horiz-adv-x="590" 
d="M375 585q106 0 164 -69.5t43 -172.5q-15 -101 -91 -164.5t-194 -63.5h-118l-20 -115h-138l123 700h138l-20 -115h113zM445 353q9 47 -14.5 75t-76.5 28h-115l-37 -212h109q54 0 89.5 30t44.5 79z" />
    <glyph glyph-name="germandbls" unicode="&#xdf;" horiz-adv-x="537" 
d="M234 -6l20 114q111 -13 123 58q6 33 -39.5 111t-39.5 113q5 29 44.5 75.5t44.5 67.5q7 30 -11 46.5t-50 16.5q-34 0 -59 -19.5t-32 -62.5l-91 -514h-129l91 515q16 94 76.5 146.5t164.5 52.5q84 0 134 -49.5t37 -119.5q-6 -32 -26.5 -62t-39 -53.5t-21.5 -40.5
q-4 -19 8.5 -49t29 -58t27.5 -68.5t5 -77.5q-12 -76 -77.5 -116.5t-189.5 -25.5z" />
    <glyph glyph-name="agrave" unicode="&#xe0;" horiz-adv-x="627" 
d="M434 563h-122l-90 137h150zM483 500h129l-88 -500h-129l8 46q-65 -60 -166 -60q-113 0 -168 83t-34 193q19 107 96.5 179.5t185.5 72.5q106 0 154 -81zM277 109q58 0 103 36.5t58 96.5l2 16q8 61 -25.5 97t-90.5 36q-59 0 -104 -37.5t-56 -102.5q-11 -63 21 -102.5
t92 -39.5z" />
    <glyph glyph-name="aacute" unicode="&#xe1;" horiz-adv-x="627" 
d="M535 700l-131 -137h-127l100 137h158zM483 500h129l-88 -500h-129l8 46q-65 -60 -166 -60q-113 0 -168 83t-34 193q19 107 96.5 179.5t185.5 72.5q106 0 154 -81zM277 109q58 0 103 36.5t58 96.5l2 16q8 61 -25.5 97t-90.5 36q-59 0 -104 -37.5t-56 -102.5
q-11 -63 21 -102.5t92 -39.5z" />
    <glyph glyph-name="acircumflex" unicode="&#xe2;" horiz-adv-x="627" 
d="M366 620l-58 -65h-128l131 145h130l81 -145h-126zM483 500h129l-88 -500h-129l8 46q-65 -60 -166 -60q-113 0 -168 83t-34 193q19 107 96.5 179.5t185.5 72.5q106 0 154 -81zM277 109q58 0 103 36.5t58 96.5l2 16q8 61 -25.5 97t-90.5 36q-59 0 -104 -37.5t-56 -102.5
q-11 -63 21 -102.5t92 -39.5z" />
    <glyph glyph-name="atilde" unicode="&#xe3;" horiz-adv-x="627" 
d="M351 584q-26 20 -40.5 16t-20.5 -40h-104q6 56 27.5 92t50.5 48t61 7t61 -26q25 -20 39.5 -16t20.5 40h104q-6 -56 -27 -92t-50 -48t-61 -7t-61 26zM483 500h129l-88 -500h-129l8 46q-65 -60 -166 -60q-113 0 -168 83t-34 193q19 107 96.5 179.5t185.5 72.5
q106 0 154 -81zM277 109q58 0 103 36.5t58 96.5l2 16q8 61 -25.5 97t-90.5 36q-59 0 -104 -37.5t-56 -102.5q-11 -63 21 -102.5t92 -39.5z" />
    <glyph glyph-name="adieresis" unicode="&#xe4;" horiz-adv-x="627" 
d="M258 549q-28 0 -44 19.5t-11 47.5t28 48t51 20t44.5 -20t11.5 -48t-28.5 -47.5t-51.5 -19.5zM448 549q-28 0 -44 19.5t-11 47.5t28 48t51 20t44.5 -20t11.5 -48t-28.5 -47.5t-51.5 -19.5zM483 500h129l-88 -500h-129l8 46q-65 -60 -166 -60q-113 0 -168 83t-34 193
q19 107 96.5 179.5t185.5 72.5q106 0 154 -81zM277 109q58 0 103 36.5t58 96.5l2 16q8 61 -25.5 97t-90.5 36q-59 0 -104 -37.5t-56 -102.5q-11 -63 21 -102.5t92 -39.5z" />
    <glyph glyph-name="aring" unicode="&#xe5;" horiz-adv-x="627" 
d="M355 539q-55 0 -86 35.5t-22 86.5t49 83t95 32t86 -36t22 -86q-8 -51 -48 -83t-96 -32zM334 658q-3 -16 5.5 -27t26.5 -11q40 0 47 37q3 17 -6 27.5t-27 10.5q-39 0 -46 -37zM483 500h129l-88 -500h-129l8 46q-65 -60 -166 -60q-113 0 -168 83t-34 193q19 107 96.5 179.5
t185.5 72.5q106 0 154 -81zM277 109q58 0 103 36.5t58 96.5l2 16q8 61 -25.5 97t-90.5 36q-59 0 -104 -37.5t-56 -102.5q-11 -63 21 -102.5t92 -39.5z" />
    <glyph glyph-name="ae" unicode="&#xe6;" horiz-adv-x="989" 
d="M765 514q104 0 158 -76t34 -188q-5 -30 -14 -53h-378q4 -48 37 -71t82 -23q76 0 124 51l92 -73q-87 -95 -209 -95q-110 0 -164 73l-10 -59h-122l10 55q-71 -69 -168 -69q-113 0 -168 83t-34 193q19 107 96.5 179.5t185.5 72.5q109 0 155 -76l11 62h122l-8 -44
q69 58 168 58zM584 298h252q-1 50 -30.5 75t-74.5 25q-50 0 -88.5 -26.5t-58.5 -73.5zM277 109q58 0 103 36.5t58 96.5l2 16q8 61 -25.5 97t-90.5 36q-59 0 -104.5 -37.5t-57.5 -102.5q-10 -63 22.5 -102.5t92.5 -39.5z" />
    <glyph glyph-name="ccedilla" unicode="&#xe7;" horiz-adv-x="540" 
d="M274 114q78 0 124 67l104 -67q-65 -105 -193 -125l-6 -35q27 -8 44.5 -30t11.5 -56q-19 -101 -236 -84l16 91q106 -7 112 20q3 22 -59 25l13 72q-91 20 -138.5 94.5t-31.5 173.5q17 110 101.5 182t197.5 72q77 0 132 -35.5t79 -94.5l-117 -62q-27 65 -105 65
q-58 0 -103.5 -37.5t-55.5 -96.5q-10 -60 21 -99.5t89 -39.5z" />
    <glyph glyph-name="egrave" unicode="&#xe8;" horiz-adv-x="583" 
d="M436 567h-122l-90 137h150zM333 514q111 0 175 -76.5t43 -187.5q-2 -22 -14 -53h-378q4 -48 37 -71t83 -23q75 0 123 51l91 -73q-84 -95 -224 -95q-124 0 -188.5 79t-45.5 195q17 109 102 181.5t196 72.5zM177 298h254q-1 51 -30.5 75.5t-75.5 24.5q-50 0 -88.5 -26
t-59.5 -74z" />
    <glyph glyph-name="eacute" unicode="&#xe9;" horiz-adv-x="583" 
d="M537 704l-131 -137h-127l100 137h158zM333 514q111 0 175 -76.5t43 -187.5q-2 -22 -14 -53h-378q4 -48 37 -71t83 -23q75 0 123 51l91 -73q-84 -95 -224 -95q-124 0 -188.5 79t-45.5 195q17 109 102 181.5t196 72.5zM177 298h254q-1 51 -30.5 75.5t-75.5 24.5
q-50 0 -88.5 -26t-59.5 -74z" />
    <glyph glyph-name="ecircumflex" unicode="&#xea;" horiz-adv-x="583" 
d="M368 624l-58 -65h-128l131 145h130l81 -145h-126zM333 514q111 0 175 -76.5t43 -187.5q-2 -22 -14 -53h-378q4 -48 37 -71t83 -23q75 0 123 51l91 -73q-84 -95 -224 -95q-124 0 -188.5 79t-45.5 195q17 109 102 181.5t196 72.5zM177 298h254q-1 51 -30.5 75.5t-75.5 24.5
q-50 0 -88.5 -26t-59.5 -74z" />
    <glyph glyph-name="edieresis" unicode="&#xeb;" horiz-adv-x="583" 
d="M260 553q-28 0 -44 19.5t-11 47.5t28 48t51 20t44.5 -20t11.5 -48t-28.5 -47.5t-51.5 -19.5zM450 553q-28 0 -44 19.5t-11 47.5t28 48t51 20t44.5 -20t11.5 -48t-28.5 -47.5t-51.5 -19.5zM333 514q111 0 175 -76.5t43 -187.5q-2 -22 -14 -53h-378q4 -48 37 -71t83 -23
q75 0 123 51l91 -73q-84 -95 -224 -95q-124 0 -188.5 79t-45.5 195q17 109 102 181.5t196 72.5zM177 298h254q-1 51 -30.5 75.5t-75.5 24.5q-50 0 -88.5 -26t-59.5 -74z" />
    <glyph glyph-name="igrave" unicode="&#xec;" horiz-adv-x="247" 
d="M238 555l-25 145h-140l44 -145h121zM144 0h-129l88 500h129z" />
    <glyph glyph-name="iacute" unicode="&#xed;" horiz-adv-x="247" 
d="M114 555h124l91 145h-148zM15 0l88 500h129l-88 -500h-129z" />
    <glyph glyph-name="icircumflex" unicode="&#xee;" horiz-adv-x="247" 
d="M189 608l-39 -53h-131l118 145h131l68 -145h-124zM15 0l88 500h129l-88 -500h-129z" />
    <glyph glyph-name="idieresis" unicode="&#xef;" horiz-adv-x="247" 
d="M92 553q-28 0 -44.5 19.5t-11.5 47.5t28 48t51 20t44.5 -20t11.5 -48q-4 -28 -27.5 -47.5t-51.5 -19.5zM261 553q-28 0 -44 19.5t-11 47.5t28 48t51 20t44.5 -20t11.5 -48t-28.5 -47.5t-51.5 -19.5zM15 0l88 500h129l-88 -500h-129z" />
    <glyph glyph-name="eth" unicode="&#xf0;" horiz-adv-x="574" 
d="M505 371q43 -76 31 -152q-19 -110 -99.5 -170.5t-186.5 -60.5q-104 0 -171.5 72t-47.5 181q17 99 99 161t183 52l-44 81l-142 -63l16 93l88 39l-53 96h135l27 -47l137 61l-16 -94l-80 -36zM407 228q8 42 -10 72q-28 47 -95 47q-56 0 -94.5 -30.5t-47.5 -83.5
q-10 -56 19.5 -90t84.5 -34t94 31.5t49 87.5z" />
    <glyph glyph-name="ntilde" unicode="&#xf1;" 
d="M337 592q-26 20 -40.5 16t-20.5 -40h-104q6 56 27.5 92t50.5 48t61 7t61 -26q25 -20 39.5 -16t20.5 40h104q-6 -56 -27 -92t-50 -48t-61 -7t-61 26zM377 514q84 0 130 -56t29 -151l-54 -307h-129l51 291q9 51 -13.5 77t-67.5 26q-46 0 -80.5 -27t-48.5 -81l-50 -286h-129
l88 500h129l-10 -54q59 68 155 68z" />
    <glyph glyph-name="ograve" unicode="&#xf2;" horiz-adv-x="594" 
d="M432 571l-62 137h-150l90 -137h122zM264 -14q-124 0 -187 83.5t-41 196.5q21 107 104 177.5t198 70.5q116 0 178.5 -83.5t42.5 -193.5q-18 -106 -102.5 -178.5t-192.5 -72.5zM273 112q57 0 102.5 38t55.5 101q12 62 -20 99.5t-89 37.5q-56 0 -100.5 -37.5t-56.5 -100.5
q-11 -63 20.5 -100.5t87.5 -37.5z" />
    <glyph glyph-name="oacute" unicode="&#xf3;" horiz-adv-x="594" 
d="M275 571h127l131 137h-158zM264 -14q-124 0 -187 83.5t-41 196.5q21 107 104 177.5t198 70.5q116 0 178.5 -83.5t42.5 -193.5q-18 -106 -102.5 -178.5t-192.5 -72.5zM273 112q57 0 102.5 38t55.5 101q12 62 -20 99.5t-89 37.5q-56 0 -100.5 -37.5t-56.5 -100.5
q-11 -63 20.5 -100.5t87.5 -37.5z" />
    <glyph glyph-name="ocircumflex" unicode="&#xf4;" horiz-adv-x="594" 
d="M364 628l-58 -65h-128l131 145h130l81 -145h-126zM338 514q116 0 178.5 -83.5t42.5 -193.5q-18 -106 -102.5 -178.5t-192.5 -72.5q-124 0 -187 83.5t-41 196.5q21 107 104 177.5t198 70.5zM431 251q12 62 -20 99.5t-89 37.5q-56 0 -100.5 -37.5t-56.5 -100.5
q-11 -63 20.5 -100.5t87.5 -37.5q57 0 102.5 38t55.5 101z" />
    <glyph glyph-name="otilde" unicode="&#xf5;" horiz-adv-x="594" 
d="M184 568q6 56 27.5 92t50.5 48t61 7t61 -26q25 -20 39.5 -16t20.5 40h104q-6 -56 -27 -92t-50 -48t-61 -7t-61 26q-26 20 -40.5 16t-20.5 -40h-104zM264 -14q-124 0 -187 83.5t-41 196.5q21 107 104 177.5t198 70.5q116 0 178.5 -83.5t42.5 -193.5
q-18 -106 -102.5 -178.5t-192.5 -72.5zM273 112q57 0 102.5 38t55.5 101q12 62 -20 99.5t-89 37.5q-56 0 -100.5 -37.5t-56.5 -100.5q-11 -63 20.5 -100.5t87.5 -37.5z" />
    <glyph glyph-name="odieresis" unicode="&#xf6;" horiz-adv-x="594" 
d="M256 557q-28 0 -44 19.5t-11 47.5t28 48t51 20t44.5 -20t11.5 -48t-28.5 -47.5t-51.5 -19.5zM446 557q-28 0 -44 19.5t-11 47.5t28 48t51 20t44.5 -20t11.5 -48t-28.5 -47.5t-51.5 -19.5zM264 -14q-124 0 -187 83.5t-41 196.5q21 107 104 177.5t198 70.5
q116 0 178.5 -83.5t42.5 -193.5q-18 -106 -102.5 -178.5t-192.5 -72.5zM273 112q57 0 102.5 38t55.5 101q12 62 -20 99.5t-89 37.5q-56 0 -100.5 -37.5t-56.5 -100.5q-11 -63 20.5 -100.5t87.5 -37.5z" />
    <glyph glyph-name="divide" unicode="&#xf7;" horiz-adv-x="565" 
d="M321 463q-34 0 -54 25t-14 59t33 56.5t62 22.5q34 0 54 -24t14 -59q-7 -35 -33.5 -57.5t-61.5 -22.5zM52 290l21 121h475l-21 -121h-475zM252 74q-34 0 -53.5 24.5t-13.5 59.5q6 34 33 56.5t62 22.5q34 0 53.5 -24.5t13.5 -58.5q-6 -35 -33 -57.5t-62 -22.5z" />
    <glyph glyph-name="oslash" unicode="&#xf8;" horiz-adv-x="594" 
d="M572 476l-51 -51q58 -82 38 -188q-18 -108 -100.5 -179.5t-194.5 -71.5q-83 0 -143 42l-37 -37l-58 32l49 49q-61 81 -39 194q21 107 104 177.5t198 70.5q81 0 138 -44l39 39zM165 250q-8 -45 8 -81l207 206q-28 13 -58 13q-56 0 -100.5 -37.5t-56.5 -100.5zM431 251
q9 45 -7 78l-206 -205q24 -12 55 -12q57 0 102.5 38t55.5 101z" />
    <glyph glyph-name="ugrave" unicode="&#xf9;" 
d="M410 563h-122l-90 137h150zM431 500h129l-88 -500h-129l10 54q-59 -68 -155 -68q-84 0 -130 56t-29 151l54 307h129l-51 -291q-9 -51 13.5 -77t67.5 -26q46 0 80.5 27t48.5 81z" />
    <glyph glyph-name="uacute" unicode="&#xfa;" 
d="M511 700l-131 -137h-127l100 137h158zM431 500h129l-88 -500h-129l10 54q-59 -68 -155 -68q-84 0 -130 56t-29 151l54 307h129l-51 -291q-9 -51 13.5 -77t67.5 -26q46 0 80.5 27t48.5 81z" />
    <glyph glyph-name="ucircumflex" unicode="&#xfb;" 
d="M342 620l-58 -65h-128l131 145h130l81 -145h-126zM431 500h129l-88 -500h-129l10 54q-59 -68 -155 -68q-84 0 -130 56t-29 151l54 307h129l-51 -291q-9 -51 13.5 -77t67.5 -26q46 0 80.5 27t48.5 81z" />
    <glyph glyph-name="udieresis" unicode="&#xfc;" 
d="M234 549q-28 0 -44 19.5t-11 47.5t28 48t51 20t44.5 -20t11.5 -48t-28.5 -47.5t-51.5 -19.5zM424 549q-28 0 -44 19.5t-11 47.5t28 48t51 20t44.5 -20t11.5 -48t-28.5 -47.5t-51.5 -19.5zM431 500h129l-88 -500h-129l10 54q-59 -68 -155 -68q-84 0 -130 56t-29 151
l54 307h129l-51 -291q-9 -51 13.5 -77t67.5 -26q46 0 80.5 27t48.5 81z" />
    <glyph glyph-name="yacute" unicode="&#xfd;" horiz-adv-x="525" 
d="M482 700l-131 -137h-127l100 137h158zM424 500h143l-270 -500q-61 -114 -133.5 -159.5t-166.5 -40.5l21 120q53 -1 84 19.5t58 73.5l3 5l-116 482h132l74 -337z" />
    <glyph glyph-name="thorn" unicode="&#xfe;" horiz-adv-x="627" 
d="M389 514q106 0 163.5 -82.5t39.5 -191.5q-16 -106 -92 -180t-184 -74q-110 0 -160 84l-47 -270h-129l158 900h129l-44 -252q66 66 166 66zM463 249q11 63 -20.5 102.5t-91.5 39.5q-58 0 -102.5 -35t-58.5 -93l-4 -23q-7 -61 27 -96t91 -35q58 0 103 37.5t56 102.5z" />
    <glyph glyph-name="ydieresis" unicode="&#xff;" horiz-adv-x="525" 
d="M205 549q-28 0 -44 19.5t-11 47.5t28 48t51 20t44.5 -20t11.5 -48t-28.5 -47.5t-51.5 -19.5zM395 549q-28 0 -44 19.5t-11 47.5t28 48t51 20t44.5 -20t11.5 -48t-28.5 -47.5t-51.5 -19.5zM424 500h143l-270 -500q-61 -114 -133.5 -159.5t-166.5 -40.5l21 120
q53 -1 84 19.5t58 73.5l3 5l-116 482h132l74 -337z" />
    <glyph glyph-name="Amacron" unicode="&#x100;" horiz-adv-x="668" 
d="M588 869l-18 -105h-290l18 105h290zM472 0l-18 126h-280l-65 -126h-151l369 700h171l123 -700h-149zM241 255h194l-42 292z" />
    <glyph glyph-name="amacron" unicode="&#x101;" horiz-adv-x="627" 
d="M520 669l-18 -105h-290l18 105h290zM483 500h129l-88 -500h-129l8 46q-65 -60 -166 -60q-113 0 -168 83t-34 193q19 107 96.5 179.5t185.5 72.5q106 0 154 -81zM277 109q58 0 103 36.5t58 96.5l2 16q8 61 -25.5 97t-90.5 36q-59 0 -104 -37.5t-56 -102.5
q-11 -63 21 -102.5t92 -39.5z" />
    <glyph glyph-name="Abreve" unicode="&#x102;" horiz-adv-x="668" 
d="M428 747q-79 0 -119 39t-28 106h115q-9 -52 42 -52q52 0 61 52h115q-11 -70 -58.5 -107.5t-127.5 -37.5zM472 0l-18 126h-280l-65 -126h-151l369 700h171l123 -700h-149zM241 255h194l-42 292z" />
    <glyph glyph-name="abreve" unicode="&#x103;" horiz-adv-x="627" 
d="M360 547q-79 0 -119 39t-28 106h115q-9 -52 42 -52q52 0 61 52h115q-11 -70 -58.5 -107.5t-127.5 -37.5zM483 500h129l-88 -500h-129l8 46q-65 -60 -166 -60q-113 0 -168 83t-34 193q19 107 96.5 179.5t185.5 72.5q106 0 154 -81zM277 109q58 0 103 36.5t58 96.5l2 16
q8 61 -25.5 97t-90.5 36q-59 0 -104 -37.5t-56 -102.5q-11 -63 21 -102.5t92 -39.5z" />
    <glyph glyph-name="Aogonek" unicode="&#x104;" horiz-adv-x="668" 
d="M552 -90q-3 -13 2.5 -21t17.5 -8q16 0 29 5l-15 -84q-42 -16 -83 -16q-42 0 -65.5 26.5t-15.5 69.5q11 59 84 118h-34l-18 126h-280l-65 -126h-151l369 700h171l123 -700q-61 -52 -69 -90zM241 255h194l-42 292z" />
    <glyph glyph-name="aogonek" unicode="&#x105;" horiz-adv-x="627" 
d="M483 500h129l-88 -500q-28 -24 -48.5 -53t-21.5 -47q-3 -22 21 -22q15 0 28 5l-14 -81q-33 -16 -74 -16q-46 0 -72 23.5t-18 66.5q9 54 86 124h-16l8 46q-65 -60 -166 -60q-113 0 -168 83t-34 193q19 107 96.5 179.5t185.5 72.5q106 0 154 -81zM277 109q58 0 103 36.5
t58 96.5l2 16q8 61 -25.5 97t-90.5 36q-59 0 -104 -37.5t-56 -102.5q-11 -63 21 -102.5t92 -39.5z" />
    <glyph glyph-name="Cacute" unicode="&#x106;" horiz-adv-x="729" 
d="M410 771h127l131 137h-158zM359 -14q-105 0 -182 51t-109.5 136.5t-15.5 186.5q25 154 142.5 254t271.5 100q100 0 172.5 -44t107.5 -122l-126 -66q-47 98 -167 98q-100 0 -173.5 -64t-90.5 -166q-18 -101 32 -165t147 -64q130 0 203 102l113 -73q-57 -76 -142.5 -120
t-182.5 -44z" />
    <glyph glyph-name="cacute" unicode="&#x107;" horiz-adv-x="540" 
d="M261 563h127l131 137h-158zM263 -14q-116 0 -181.5 79.5t-46.5 194.5q17 110 101.5 182t197.5 72q77 0 132 -35.5t79 -94.5l-117 -62q-27 65 -105 65q-58 0 -103.5 -37.5t-55.5 -96.5q-10 -60 21 -99.5t89 -39.5q78 0 124 67l104 -67q-38 -62 -101.5 -95t-137.5 -33z" />
    <glyph glyph-name="Cdotaccent" unicode="&#x10a;" horiz-adv-x="729" 
d="M488 759q-32 0 -51 23t-13 55q5 31 31.5 54t58.5 23t51 -23t14 -54q-6 -32 -33 -55t-58 -23zM359 -14q-105 0 -182 51t-109.5 136.5t-15.5 186.5q25 154 142.5 254t271.5 100q100 0 172.5 -44t107.5 -122l-126 -66q-47 98 -167 98q-100 0 -173.5 -64t-90.5 -166
q-18 -101 32 -165t147 -64q130 0 203 102l113 -73q-57 -76 -142.5 -120t-182.5 -44z" />
    <glyph glyph-name="cdotaccent" unicode="&#x10b;" horiz-adv-x="540" 
d="M339 551q-32 0 -51 23t-13 55q5 31 31.5 54t58.5 23t51 -23t14 -54q-6 -32 -33 -55t-58 -23zM263 -14q-116 0 -181.5 79.5t-46.5 194.5q17 110 101.5 182t197.5 72q77 0 132 -35.5t79 -94.5l-117 -62q-27 65 -105 65q-58 0 -103.5 -37.5t-55.5 -96.5q-10 -60 21 -99.5
t89 -39.5q78 0 124 67l104 -67q-38 -62 -101.5 -95t-137.5 -33z" />
    <glyph glyph-name="Ccaron" unicode="&#x10c;" horiz-adv-x="729" 
d="M419 763l-81 145h123l32 -65l55 65h133l-131 -145h-131zM368 121q130 0 203 102l113 -73q-57 -76 -142.5 -120t-182.5 -44q-105 0 -182 51t-109.5 136.5t-15.5 186.5q25 154 142.5 254t271.5 100q100 0 172.5 -44t107.5 -122l-126 -66q-47 98 -167 98q-100 0 -173.5 -64
t-90.5 -166q-18 -101 32 -165t147 -64z" />
    <glyph glyph-name="ccaron" unicode="&#x10d;" horiz-adv-x="540" 
d="M270 555l-81 145h123l32 -65l55 65h133l-131 -145h-131zM274 114q78 0 124 67l104 -67q-38 -62 -101.5 -95t-137.5 -33q-116 0 -181.5 79.5t-46.5 194.5q17 110 101.5 182t197.5 72q77 0 132 -35.5t79 -94.5l-117 -62q-27 65 -105 65q-58 0 -103.5 -37.5t-55.5 -96.5
q-10 -60 21 -99.5t89 -39.5z" />
    <glyph glyph-name="Dcaron" unicode="&#x10e;" horiz-adv-x="715" 
d="M345 755l-81 145h123l32 -65l55 65h133l-131 -145h-131zM422 700q138 0 220 -106.5t56 -253.5q-26 -149 -137.5 -244.5t-261.5 -95.5h-278l123 700h278zM566 354q16 96 -30 155t-137 59h-140l-77 -436h132q96 0 165.5 62t86.5 160z" />
    <glyph glyph-name="dcaron" unicode="&#x10f;" horiz-adv-x="739" 
d="M473 431l47 269h129l-123 -700h-129l8 48q-65 -62 -168 -62q-113 0 -168 83t-34 193q19 107 96.5 179.5t185.5 72.5t156 -83zM707 700h121l-65 -200h-102zM278 109q61 0 106.5 39t55.5 101q12 65 -21 103.5t-93 38.5q-59 0 -105 -37.5t-57 -102.5q-11 -63 21.5 -102.5
t92.5 -39.5z" />
    <glyph glyph-name="Dcroat" unicode="&#x110;" horiz-adv-x="750" 
d="M458 700q138 0 220 -106.5t56 -253.5q-26 -149 -137.5 -244.5t-261.5 -95.5h-278l49 281h-78l22 124h78l52 295h278zM602 354q16 96 -30 155t-137 59h-140l-29 -163h159l-22 -124h-159l-26 -149h132q96 0 165.5 62t86.5 160z" />
    <glyph glyph-name="dcroat" unicode="&#x111;" horiz-adv-x="633" 
d="M699 638l-15 -84h-62l-97 -554h-129l8 47q-64 -61 -167 -61q-113 0 -168 83t-34 193q19 107 96.5 179.5t185.5 72.5q107 0 155 -82l21 122h-152l15 84h152l11 62h129l-11 -62h62zM278 109q57 0 101 34t58 91l5 27q7 60 -26.5 95t-89.5 35q-59 0 -105 -37.5t-57 -102.5
q-11 -63 21.5 -102.5t92.5 -39.5z" />
    <glyph glyph-name="Emacron" unicode="&#x112;" horiz-adv-x="530" 
d="M533 869l-18 -105h-290l18 105h290zM549 568h-290l-27 -150h266l-24 -129h-264l-28 -157h295l-23 -132h-433l123 700h428z" />
    <glyph glyph-name="emacron" unicode="&#x113;" horiz-adv-x="583" 
d="M522 673l-18 -105h-290l18 105h290zM333 514q111 0 175 -76.5t43 -187.5q-2 -22 -14 -53h-378q4 -48 37 -71t83 -23q75 0 123 51l91 -73q-84 -95 -224 -95q-124 0 -188.5 79t-45.5 195q17 109 102 181.5t196 72.5zM177 298h254q-1 51 -30.5 75.5t-75.5 24.5
q-50 0 -88.5 -26t-59.5 -74z" />
    <glyph glyph-name="Edotaccent" unicode="&#x116;" horiz-adv-x="530" 
d="M368 751q-32 0 -51 23t-13 55q5 31 31.5 54t58.5 23t51 -23t14 -54q-6 -32 -33 -55t-58 -23zM549 568h-290l-27 -150h266l-24 -129h-264l-28 -157h295l-23 -132h-433l123 700h428z" />
    <glyph glyph-name="edotaccent" unicode="&#x117;" horiz-adv-x="583" 
d="M357 555q-32 0 -51 23t-13 55q5 31 31.5 54t58.5 23t51 -23t14 -54q-6 -32 -33 -55t-58 -23zM333 514q111 0 175 -76.5t43 -187.5q-2 -22 -14 -53h-378q4 -48 37 -71t83 -23q75 0 123 51l91 -73q-84 -95 -224 -95q-124 0 -188.5 79t-45.5 195q17 109 102 181.5t196 72.5z
M177 298h254q-1 51 -30.5 75.5t-75.5 24.5q-50 0 -88.5 -26t-59.5 -74z" />
    <glyph glyph-name="Eogonek" unicode="&#x118;" horiz-adv-x="530" 
d="M549 568h-290l-27 -150h266l-24 -129h-264l-28 -157h295l-23 -132q-62 -54 -70 -94q-5 -28 20 -28q13 -1 29 5l-14 -81q-42 -16 -83 -16q-43 0 -65.5 24t-15.5 66q10 57 89 124h-323l123 700h428z" />
    <glyph glyph-name="eogonek" unicode="&#x119;" horiz-adv-x="583" 
d="M333 514q111 0 175 -76.5t43 -187.5q-2 -22 -14 -53h-378q4 -48 37 -71t83 -23q75 0 123 51l91 -73q-15 -18 -36 -34h1q-104 -81 -114 -139q-6 -30 22 -30q14 0 27 5l-14 -81q-37 -16 -76 -16q-50 0 -73 25.5t-16 63.5q8 52 79 112q-8 -1 -24 -1q-124 0 -188.5 79
t-45.5 195q17 109 102 181.5t196 72.5zM177 298h254q-1 51 -30.5 75.5t-75.5 24.5q-50 0 -88.5 -26t-59.5 -74z" />
    <glyph glyph-name="Ecaron" unicode="&#x11a;" horiz-adv-x="530" 
d="M299 755l-81 145h123l32 -65l55 65h133l-131 -145h-131zM549 568h-290l-27 -150h266l-24 -129h-264l-28 -157h295l-23 -132h-433l123 700h428z" />
    <glyph glyph-name="ecaron" unicode="&#x11b;" horiz-adv-x="583" 
d="M288 559l-81 145h123l32 -65l55 65h133l-131 -145h-131zM333 514q111 0 175 -76.5t43 -187.5q-2 -22 -14 -53h-378q4 -48 37 -71t83 -23q75 0 123 51l91 -73q-84 -95 -224 -95q-124 0 -188.5 79t-45.5 195q17 109 102 181.5t196 72.5zM177 298h254q-1 51 -30.5 75.5
t-75.5 24.5q-50 0 -88.5 -26t-59.5 -74z" />
    <glyph glyph-name="Gbreve" unicode="&#x11e;" horiz-adv-x="786" 
d="M490 755q-79 0 -119 39t-28 106h115q-9 -52 42 -52q52 0 61 52h115q-11 -70 -58.5 -107.5t-127.5 -37.5zM775 376l-9 -54q-26 -153 -136 -244.5t-265 -91.5q-162 0 -251 109.5t-62 265.5q26 153 143 253t272 100q104 0 178.5 -44.5t113.5 -125.5l-126 -66
q-53 102 -179 102q-101 0 -174.5 -63.5t-90.5 -165.5q-18 -102 33.5 -166t155.5 -64q172 0 230 133h-205l21 122h351z" />
    <glyph glyph-name="gbreve" unicode="&#x11f;" horiz-adv-x="628" 
d="M359 555q-79 0 -119 39t-28 106h115q-9 -52 42 -52q52 0 61 52h115q-11 -70 -58.5 -107.5t-127.5 -37.5zM487 500h126l-84 -476q-21 -122 -99 -180t-190 -58q-83 0 -142.5 31t-86.5 91l115 60q31 -67 123 -67q63 0 103.5 31.5t50.5 91.5l8 44q-66 -66 -166 -66
q-115 0 -171 79t-38 188q17 102 93.5 173.5t182.5 71.5q115 0 162 -86zM281 123q59 0 104.5 36t57.5 94l2 10q9 59 -25.5 94.5t-93.5 35.5t-105.5 -37t-56.5 -97q-10 -59 23 -97.5t94 -38.5z" />
    <glyph glyph-name="Gdotaccent" unicode="&#x120;" horiz-adv-x="786" 
d="M485 759q-32 0 -51 23t-13 55q5 31 31.5 54t58.5 23t51 -23t14 -54q-6 -32 -33 -55t-58 -23zM775 376l-9 -54q-26 -153 -136 -244.5t-265 -91.5q-162 0 -251 109.5t-62 265.5q26 153 143 253t272 100q104 0 178.5 -44.5t113.5 -125.5l-126 -66q-53 102 -179 102
q-101 0 -174.5 -63.5t-90.5 -165.5q-18 -102 33.5 -166t155.5 -64q172 0 230 133h-205l21 122h351z" />
    <glyph glyph-name="gdotaccent" unicode="&#x121;" horiz-adv-x="628" 
d="M354 559q-32 0 -51 23t-13 55q5 31 31.5 54t58.5 23t51 -23t14 -54q-6 -32 -33 -55t-58 -23zM487 500h126l-84 -476q-21 -122 -99 -180t-190 -58q-83 0 -142.5 31t-86.5 91l115 60q31 -67 123 -67q63 0 103.5 31.5t50.5 91.5l8 44q-66 -66 -166 -66q-115 0 -171 79
t-38 188q17 102 93.5 173.5t182.5 71.5q115 0 162 -86zM281 123q59 0 104.5 36t57.5 94l2 10q9 59 -25.5 94.5t-93.5 35.5t-105.5 -37t-56.5 -97q-10 -59 23 -97.5t94 -38.5z" />
    <glyph glyph-name="Gcommaaccent" unicode="&#x122;" horiz-adv-x="786" 
d="M775 376l-9 -54q-26 -153 -136 -244.5t-265 -91.5q-162 0 -251 109.5t-62 265.5q26 153 143 253t272 100q104 0 178.5 -44.5t113.5 -125.5l-126 -66q-53 102 -179 102q-101 0 -174.5 -63.5t-90.5 -165.5q-18 -102 33.5 -166t155.5 -64q172 0 230 133h-205l21 122h351z
M247 -263l46 200h121l-65 -200h-102z" />
    <glyph glyph-name="gcommaaccent" unicode="&#x123;" horiz-adv-x="628" 
d="M457 783l-46 -200h-121l65 200h102zM487 500h126l-84 -476q-21 -122 -99 -180t-190 -58q-83 0 -142.5 31t-86.5 91l115 60q31 -67 123 -67q63 0 103.5 31.5t50.5 91.5l8 44q-66 -66 -166 -66q-115 0 -171 79t-38 188q17 102 93.5 173.5t182.5 71.5q115 0 162 -86z
M281 123q59 0 104.5 36t57.5 94l2 10q9 59 -25.5 94.5t-93.5 35.5t-105.5 -37t-56.5 -97q-10 -59 23 -97.5t94 -38.5z" />
    <glyph glyph-name="Hbar" unicode="&#x126;" horiz-adv-x="708" 
d="M745 602l-18 -101h-62l-88 -501h-137l48 272h-260l-48 -272h-138l88 501h-60l17 101h61l17 98h138l-17 -98h260l17 98h137l-17 -98h62zM511 404l17 97h-260l-17 -97h260z" />
    <glyph glyph-name="hbar" unicode="&#x127;" horiz-adv-x="581" 
d="M384 514q83 0 129 -56t30 -151l-54 -307h-129l51 291q9 51 -13.5 77t-68.5 26q-49 0 -85 -30.5t-46 -93.5v3l-48 -273h-129l97 554h-62l15 84h62l11 62h129l-11 -62h142l-15 -84h-142l-19 -109q58 69 156 69z" />
    <glyph glyph-name="Imacron" unicode="&#x12a;" horiz-adv-x="268" 
d="M80 764l18 105h290l-18 -105h-290zM144 700h138l-123 -700h-138z" />
    <glyph glyph-name="imacron" unicode="&#x12b;" horiz-adv-x="247" 
d="M64 564l19 112h230l-19 -112h-230zM15 0l88 500h129l-88 -500h-129z" />
    <glyph glyph-name="Iogonek" unicode="&#x12e;" horiz-adv-x="268" 
d="M159 0q-49 -57 -53 -94q-3 -28 22 -28q11 -1 29 5l-14 -81q-42 -16 -84 -16q-43 0 -64 25.5t-17 63.5q9 61 68 125h-25l123 700h138z" />
    <glyph glyph-name="iogonek" unicode="&#x12f;" horiz-adv-x="247" 
d="M205 719q33 0 52.5 -24t14.5 -56q-6 -33 -33 -56t-60 -23t-52 23.5t-14 55.5q5 33 32 56.5t60 23.5zM15 0l88 500h129l-88 -500q-45 -55 -51 -94q-5 -28 20 -28q11 -1 29 5l-15 -81q-40 -16 -83 -16q-41 0 -63 25t-18 61q6 53 66 128h-14z" />
    <glyph glyph-name="Idotaccent" unicode="&#x130;" horiz-adv-x="268" 
d="M223 751q-32 0 -51 23t-13 55q5 31 31.5 54t58.5 23t51 -23t14 -54q-6 -32 -33 -55t-58 -23zM144 700h138l-123 -700h-138z" />
    <glyph glyph-name="dotlessi" unicode="&#x131;" horiz-adv-x="247" 
d="M15 0l88 500h129l-88 -500h-129z" />
    <glyph glyph-name="Kcommaaccent" unicode="&#x136;" horiz-adv-x="614" 
d="M689 700l-337 -344l216 -356h-145l-205 338l-59 -338h-138l123 700h138l-53 -300l295 300h165zM151 -263l46 200h121l-65 -200h-102z" />
    <glyph glyph-name="kcommaaccent" unicode="&#x137;" horiz-adv-x="517" 
d="M550 500l-241 -247l159 -253h-140l-143 235l-41 -235h-129l123 700h129l-72 -411l202 211h153zM124 -263l46 200h121l-65 -200h-102z" />
    <glyph glyph-name="Lacute" unicode="&#x139;" horiz-adv-x="483" 
d="M416 900l-131 -137h-127l100 137h158zM182 132h267l-23 -132h-405l23 132l100 568h138z" />
    <glyph glyph-name="lacute" unicode="&#x13a;" horiz-adv-x="248" 
d="M148 763h127l131 137h-158zM16 0l55 314l73 416h129l-74 -421l-54 -309h-129z" />
    <glyph glyph-name="Lcommaaccent" unicode="&#x13b;" horiz-adv-x="483" 
d="M182 132h267l-23 -132h-405l23 132l100 568h138zM110 -263l46 200h121l-65 -200h-102z" />
    <glyph glyph-name="lcommaaccent" unicode="&#x13c;" horiz-adv-x="248" 
d="M16 0l55 314l73 416h129l-74 -421l-54 -309h-129zM66 -263l65 200h-121l-46 -200h102z" />
    <glyph glyph-name="Lcaron" unicode="&#x13d;" horiz-adv-x="483" 
d="M282 700l-100 -568h267l-23 -132h-405l23 132l100 568h138zM489 700l-62 -185h-109l42 185h129z" />
    <glyph glyph-name="lcaron" unicode="&#x13e;" horiz-adv-x="348" 
d="M16 0l55 314l73 416h129l-74 -421l-54 -309h-129zM377 530l66 200h-122l-45 -200h101z" />
    <glyph glyph-name="Lslash" unicode="&#x141;" horiz-adv-x="513" 
d="M212 132h267l-23 -132h-405l23 132l15 82l-70 -41l24 139l70 41l61 347h138l-45 -256l145 85l-25 -140l-145 -85z" />
    <glyph glyph-name="lslash" unicode="&#x142;" horiz-adv-x="263" 
d="M292 490l-21 -124l-62 -38l-3 -19l-54 -309h-129l42 240l-60 -37l21 125l61 37l64 365h129l-49 -277z" />
    <glyph glyph-name="Nacute" unicode="&#x143;" horiz-adv-x="673" 
d="M347 763h127l131 137h-158zM21 0l123 700h104l225 -437l76 437h138l-123 -700h-104l-224 437l-77 -437h-138z" />
    <glyph glyph-name="nacute" unicode="&#x144;" 
d="M521 708l-131 -137h-127l100 137h158zM377 514q84 0 130 -56t29 -151l-54 -307h-129l51 291q9 51 -13.5 77t-67.5 26q-46 0 -80.5 -27t-48.5 -81l-50 -286h-129l88 500h129l-10 -54q59 68 155 68z" />
    <glyph glyph-name="Ncommaaccent" unicode="&#x145;" horiz-adv-x="673" 
d="M21 0l123 700h104l225 -437l76 437h138l-123 -700h-104l-224 437l-77 -437h-138zM282 -263l65 200h-121l-46 -200h102z" />
    <glyph glyph-name="ncommaaccent" unicode="&#x146;" 
d="M377 514q84 0 130 -56t29 -151l-54 -307h-129l51 291q9 51 -13.5 77t-67.5 26q-46 0 -80.5 -27t-48.5 -81l-50 -286h-129l88 500h129l-10 -54q59 68 155 68zM142 -263l46 200h121l-65 -200h-102z" />
    <glyph glyph-name="Ncaron" unicode="&#x147;" horiz-adv-x="673" 
d="M356 755l-81 145h123l32 -65l55 65h133l-131 -145h-131zM549 700h138l-123 -700h-104l-224 437l-77 -437h-138l123 700h104l225 -437z" />
    <glyph glyph-name="ncaron" unicode="&#x148;" 
d="M272 563l-81 145h123l32 -65l55 65h133l-131 -145h-131zM377 514q84 0 130 -56t29 -151l-54 -307h-129l51 291q9 51 -13.5 77t-67.5 26q-46 0 -80.5 -27t-48.5 -81l-50 -286h-129l88 500h129l-10 -54q59 68 155 68z" />
    <glyph glyph-name="Eng" unicode="&#x14a;" horiz-adv-x="673" 
d="M549 700h138l-123 -700q-38 -218 -268 -200l23 126q47 -2 73.5 17.5t35.5 67.5l7 38l-199 388l-77 -437h-138l123 700h104l225 -437z" />
    <glyph glyph-name="eng" unicode="&#x14b;" 
d="M377 514q84 0 130 -56t29 -151l-55 -317q-38 -219 -246 -204l22 124q79 -8 95 80l52 301q9 51 -13.5 77t-67.5 26q-46 0 -80.5 -27t-48.5 -81l-50 -286h-129l88 500h129l-10 -54q59 68 155 68z" />
    <glyph glyph-name="Omacron" unicode="&#x14c;" horiz-adv-x="793" 
d="M344 772l18 105h290l-18 -105h-290zM354 -14q-152 0 -241 110.5t-61 263.5q26 155 143.5 254.5t278.5 99.5q150 0 239.5 -111t62.5 -264q-27 -155 -144 -254t-278 -99zM370 121q98 0 174.5 64t94.5 164q17 100 -36 165.5t-150 65.5t-171.5 -64.5t-92.5 -165.5
q-18 -100 33.5 -164.5t147.5 -64.5z" />
    <glyph glyph-name="omacron" unicode="&#x14d;" horiz-adv-x="594" 
d="M210 572l18 105h290l-18 -105h-290zM264 -14q-124 0 -187 83.5t-41 196.5q21 107 104 177.5t198 70.5q116 0 178.5 -83.5t42.5 -193.5q-18 -106 -102.5 -178.5t-192.5 -72.5zM273 112q57 0 102.5 38t55.5 101q12 62 -20 99.5t-89 37.5q-56 0 -100.5 -37.5t-56.5 -100.5
q-11 -63 20.5 -100.5t87.5 -37.5z" />
    <glyph glyph-name="Ohungarumlaut" unicode="&#x150;" horiz-adv-x="793" 
d="M312 763h129l107 138h-135zM485 763h129l117 138h-135zM354 -14q-152 0 -241 110.5t-61 263.5q26 155 143.5 254.5t278.5 99.5q150 0 239.5 -111t62.5 -264q-27 -155 -144 -254t-278 -99zM370 121q98 0 174.5 64t94.5 164q17 100 -36 165.5t-150 65.5t-171.5 -64.5
t-92.5 -165.5q-18 -100 33.5 -164.5t147.5 -64.5z" />
    <glyph glyph-name="ohungarumlaut" unicode="&#x151;" horiz-adv-x="594" 
d="M178 563h129l107 138h-135zM351 563h129l117 138h-135zM264 -14q-124 0 -187 83.5t-41 196.5q21 107 104 177.5t198 70.5q116 0 178.5 -83.5t42.5 -193.5q-18 -106 -102.5 -178.5t-192.5 -72.5zM273 112q57 0 102.5 38t55.5 101q12 62 -20 99.5t-89 37.5
q-56 0 -100.5 -37.5t-56.5 -100.5q-11 -63 20.5 -100.5t87.5 -37.5z" />
    <glyph glyph-name="OE" unicode="&#x152;" horiz-adv-x="916" 
d="M935 568h-255l-27 -150h233l-23 -129h-232l-28 -157h260l-23 -132h-398q-51 -14 -102 -14q-149 0 -232.5 109t-55.5 264q26 152 143.5 253.5t265.5 101.5q59 0 104 -14h393zM466 136l75 429q-42 15 -97 15q-95 0 -166 -64t-89 -166q-18 -101 29 -165t142 -64q64 0 106 15
z" />
    <glyph glyph-name="oe" unicode="&#x153;" horiz-adv-x="981" 
d="M740 514q105 0 167 -76.5t43 -187.5q-6 -32 -14 -53h-379q10 -94 120 -94q77 0 123 51l92 -73q-84 -95 -219 -95q-147 0 -201 107q-86 -107 -217 -107q-122 0 -180.5 81.5t-40.5 191.5q18 106 99 180.5t200 74.5q62 0 109 -28.5t73 -77.5q85 106 225 106zM576 298h253
q-1 51 -30.5 75.5t-75.5 24.5q-49 0 -87.5 -26.5t-59.5 -73.5zM433 250q11 60 -21 99t-90 39q-59 0 -103.5 -38.5t-55.5 -99.5q-10 -61 21 -99.5t89 -38.5t104 39t56 99z" />
    <glyph glyph-name="Racute" unicode="&#x154;" horiz-adv-x="614" 
d="M552 900l-131 -137h-127l100 137h158zM616 458q-13 -70 -57.5 -122t-110.5 -75l106 -261h-140l-97 243h-115l-43 -243h-138l123 700h273q95 0 155.5 -73t43.5 -169zM479 468q8 44 -16 73.5t-69 29.5h-135l-36 -207h142q42 0 74 30t40 74z" />
    <glyph glyph-name="racute" unicode="&#x155;" horiz-adv-x="357" 
d="M427 700l-131 -137h-127l100 137h158zM218 420q54 92 168 90l-25 -144q-35 4 -68.5 -4.5t-64.5 -38.5t-41 -79l-43 -244h-129l88 500h129z" />
    <glyph glyph-name="Rcommaaccent" unicode="&#x156;" horiz-adv-x="614" 
d="M616 458q-13 -70 -57.5 -122t-110.5 -75l106 -261h-140l-97 243h-115l-43 -243h-138l123 700h273q95 0 155.5 -73t43.5 -169zM479 468q8 44 -16 73.5t-69 29.5h-135l-36 -207h142q42 0 74 30t40 74zM179 -263l46 200h121l-65 -200h-102z" />
    <glyph glyph-name="rcommaaccent" unicode="&#x157;" horiz-adv-x="357" 
d="M218 420q54 92 168 90l-25 -144q-35 4 -68.5 -4.5t-64.5 -38.5t-41 -79l-43 -244h-129l88 500h129zM-36 -263l46 200h121l-65 -200h-102z" />
    <glyph glyph-name="Rcaron" unicode="&#x158;" horiz-adv-x="614" 
d="M303 755l-81 145h123l32 -65l55 65h133l-131 -145h-131zM616 458q-13 -70 -57.5 -122t-110.5 -75l106 -261h-140l-97 243h-115l-43 -243h-138l123 700h273q95 0 155.5 -73t43.5 -169zM479 468q8 44 -16 73.5t-69 29.5h-135l-36 -207h142q42 0 74 30t40 74z" />
    <glyph glyph-name="rcaron" unicode="&#x159;" horiz-adv-x="357" 
d="M178 555l-81 145h123l32 -65l55 65h133l-131 -145h-131zM218 420q54 92 168 90l-25 -144q-35 4 -68.5 -4.5t-64.5 -38.5t-41 -79l-43 -244h-129l88 500h129z" />
    <glyph glyph-name="Sacute" unicode="&#x15a;" horiz-adv-x="586" 
d="M306 771h127l131 137h-158zM269 -14q-106 0 -173.5 46.5t-86.5 126.5l125 64q26 -104 146 -104q55 0 86.5 20t37.5 53q8 38 -21.5 59t-102.5 45q-98 33 -147.5 83.5t-33.5 142.5q17 95 89.5 143.5t165.5 48.5q86 0 147 -41t88 -115l-121 -64q-37 87 -125 87
q-42 0 -69.5 -18t-34.5 -49q-8 -37 21 -58.5t98 -46.5q18 -7 30 -11t30 -11.5t29.5 -14t26.5 -16t25 -19t20.5 -22t16 -26.5t9.5 -30.5t4 -36.5t-4 -42q-17 -94 -91.5 -144t-184.5 -50z" />
    <glyph glyph-name="sacute" unicode="&#x15b;" horiz-adv-x="470" 
d="M213 571h127l131 137h-158zM206 -14q-153 0 -203 123l116 58q20 -64 98 -64q65 0 73 39q3 21 -22 34t-62 24t-73 26.5t-57 51.5t-12 89q13 70 71.5 108.5t131.5 38.5q65 0 114 -28t72 -78l-116 -58q-18 50 -77 50q-58 0 -67 -43q-4 -23 20.5 -36t62 -23t74 -24.5
t57.5 -50t11 -91.5q-13 -73 -70.5 -109.5t-141.5 -36.5z" />
    <glyph glyph-name="Scedilla" unicode="&#x15e;" horiz-adv-x="586" 
d="M358 409q18 -7 30 -11t30 -11.5t29.5 -14t26.5 -16t25 -19t20.5 -22t16 -26.5t9.5 -30.5t4 -36.5t-4 -42q-15 -84 -76.5 -133t-154.5 -59l-6 -34q27 -8 44.5 -30t11.5 -56q-19 -101 -236 -84l16 91q106 -7 112 20q3 22 -59 25l12 70q-81 13 -132.5 57t-67.5 112l125 64
q26 -104 146 -104q55 0 86.5 20t37.5 53q8 38 -21.5 59t-102.5 45q-98 33 -147.5 83.5t-33.5 142.5q17 95 89.5 143.5t165.5 48.5q86 0 147 -41t88 -115l-121 -64q-37 87 -125 87q-42 0 -69.5 -18t-34.5 -49q-8 -37 21 -58.5t98 -46.5z" />
    <glyph glyph-name="scedilla" unicode="&#x15f;" horiz-adv-x="470" 
d="M193 357q-4 -23 20.5 -36t62 -23t74 -24.5t57.5 -50t11 -91.5q-11 -61 -54 -97t-108 -45l-6 -36q27 -8 44.5 -30t11.5 -56q-19 -101 -236 -84l16 91q106 -7 112 20q3 22 -59 25l12 71q-107 19 -148 118l116 58q20 -64 98 -64q65 0 73 39q3 21 -22 34t-62 24t-73 26.5
t-57 51.5t-12 89q13 70 71.5 108.5t131.5 38.5q65 0 114 -28t72 -78l-116 -58q-18 50 -77 50q-58 0 -67 -43z" />
    <glyph glyph-name="Scaron" unicode="&#x160;" horiz-adv-x="586" 
d="M315 763l-81 145h123l32 -65l55 65h133l-131 -145h-131zM358 409q18 -7 30 -11t30 -11.5t29.5 -14t26.5 -16t25 -19t20.5 -22t16 -26.5t9.5 -30.5t4 -36.5t-4 -42q-17 -94 -91.5 -144t-184.5 -50q-106 0 -173.5 46.5t-86.5 126.5l125 64q26 -104 146 -104q55 0 86.5 20
t37.5 53q8 38 -21.5 59t-102.5 45q-98 33 -147.5 83.5t-33.5 142.5q17 95 89.5 143.5t165.5 48.5q86 0 147 -41t88 -115l-121 -64q-37 87 -125 87q-42 0 -69.5 -18t-34.5 -49q-8 -37 21 -58.5t98 -46.5z" />
    <glyph glyph-name="scaron" unicode="&#x161;" horiz-adv-x="470" 
d="M222 563l-81 145h123l32 -65l55 65h133l-131 -145h-131zM260 400q-58 0 -67 -43q-4 -23 20.5 -36t62 -23t74 -24.5t57.5 -50t11 -91.5q-13 -73 -70.5 -109.5t-141.5 -36.5q-153 0 -203 123l116 58q20 -64 98 -64q65 0 73 39q3 21 -22 34t-62 24t-73 26.5t-57 51.5t-12 89
q13 70 71.5 108.5t131.5 38.5q65 0 114 -28t72 -78l-116 -58q-18 50 -77 50z" />
    <glyph glyph-name="uni0162" unicode="&#x162;" horiz-adv-x="540" 
d="M607 700l-23 -132h-189l-100 -568h-138l100 568h-188l23 132h515zM110 -263l46 200h121l-65 -200h-102z" />
    <glyph glyph-name="uni0163" unicode="&#x163;" horiz-adv-x="386" 
d="M255 376l-37 -208q-7 -39 17 -47t87 -4l-20 -117q-126 -15 -178.5 26t-34.5 142l37 208h-87l22 124h86l18 101l136 39l-25 -140h114l-23 -124h-112zM72 -263l46 200h121l-65 -200h-102z" />
    <glyph glyph-name="Tcaron" unicode="&#x164;" horiz-adv-x="540" 
d="M290 755l-81 145h123l32 -65l55 65h133l-131 -145h-131zM607 700l-23 -132h-189l-100 -568h-138l100 568h-188l23 132h515z" />
    <glyph glyph-name="tcaron" unicode="&#x165;" horiz-adv-x="406" 
d="M371 726h121l-62 -182h-101zM301 640l-25 -140h114l-23 -124h-112l-37 -208q-7 -39 17 -47t87 -4l-20 -117q-126 -15 -178.5 26t-34.5 142l37 208h-87l22 124h86l18 101z" />
    <glyph glyph-name="Tbar" unicode="&#x166;" horiz-adv-x="540" 
d="M584 568h-189l-29 -163h119l-22 -124h-119l-49 -281h-138l49 281h-118l22 124h118l29 163h-188l23 132h515z" />
    <glyph glyph-name="tbar" unicode="&#x167;" horiz-adv-x="386" 
d="M367 376h-112l-13 -73h80l-18 -104h-81l-5 -31q-7 -39 17 -47t87 -4l-20 -117q-126 -15 -178.5 26t-34.5 142l5 31h-57l18 104h58l13 73h-87l22 124h86l18 101l136 39l-25 -140h114z" />
    <glyph glyph-name="Umacron" unicode="&#x16a;" horiz-adv-x="646" 
d="M269 764l18 105h290l-18 -105h-290zM291 -14q-124 0 -191.5 68t-47.5 175l83 471h137l-81 -460q-9 -54 16.5 -86.5t92.5 -32.5t104.5 33t46.5 86l81 460h138l-83 -471q-21 -118 -101 -180.5t-195 -62.5z" />
    <glyph glyph-name="umacron" unicode="&#x16b;" 
d="M496 669l-18 -105h-290l18 105h290zM431 500h129l-88 -500h-129l10 54q-59 -68 -155 -68q-84 0 -130 56t-29 151l54 307h129l-51 -291q-9 -51 13.5 -77t67.5 -26q46 0 80.5 27t48.5 81z" />
    <glyph glyph-name="Uring" unicode="&#x16e;" horiz-adv-x="646" 
d="M407 709q-55 0 -86 35.5t-22 86.5t49 83t95 32t86 -36t22 -86q-8 -51 -48 -83t-96 -32zM418 790q40 0 47 37q3 17 -6 27.5t-27 10.5q-39 0 -46 -37q-3 -16 5.5 -27t26.5 -11zM291 -14q-124 0 -191.5 68t-47.5 175l83 471h137l-81 -460q-9 -54 16.5 -86.5t92.5 -32.5
t104.5 33t46.5 86l81 460h138l-83 -471q-21 -118 -101 -180.5t-195 -62.5z" />
    <glyph glyph-name="uring" unicode="&#x16f;" 
d="M331 539q-55 0 -86 35.5t-22 86.5t49 83t95 32t86 -36t22 -86q-8 -51 -48 -83t-96 -32zM310 658q-3 -16 5.5 -27t26.5 -11q40 0 47 37q3 17 -6 27.5t-27 10.5q-39 0 -46 -37zM431 500h129l-88 -500h-129l10 54q-59 -68 -155 -68q-84 0 -130 56t-29 151l54 307h129
l-51 -291q-9 -51 13.5 -77t67.5 -26q46 0 80.5 27t48.5 81z" />
    <glyph glyph-name="Uhungarumlaut" unicode="&#x170;" horiz-adv-x="646" 
d="M237 755h129l107 138h-135zM410 755h129l117 138h-135zM291 -14q-124 0 -191.5 68t-47.5 175l83 471h137l-81 -460q-9 -54 16.5 -86.5t92.5 -32.5t104.5 33t46.5 86l81 460h138l-83 -471q-21 -118 -101 -180.5t-195 -62.5z" />
    <glyph glyph-name="uhungarumlaut" unicode="&#x171;" 
d="M392 693l-107 -138h-129l101 138h135zM458 555h-129l111 138h135zM381 214l50 286h129l-88 -500h-129l10 54q-59 -68 -155 -68q-84 0 -130 56t-29 151l54 307h129l-51 -291q-9 -51 13.5 -77t67.5 -26q46 0 80.5 27t48.5 81z" />
    <glyph glyph-name="Uogonek" unicode="&#x172;" horiz-adv-x="646" 
d="M532 700h138l-83 -471q-23 -130 -119 -194q-59 -44 -87 -73.5t-33 -56.5q-6 -26 21 -27q11 -1 28 5l-15 -81q-42 -16 -76 -16q-51 0 -73.5 28t-13.5 68q10 56 70 104q-124 1 -190.5 69t-46.5 174l83 471h137l-81 -460q-9 -54 16.5 -86.5t92.5 -32.5t104.5 33t46.5 86z
" />
    <glyph glyph-name="uogonek" unicode="&#x173;" 
d="M431 500h129l-88 -500h-2q-28 -24 -48.5 -52.5t-22.5 -47.5q-2 -22 21 -22q15 0 29 5l-14 -81q-35 -16 -73 -16q-46 0 -72.5 23t-18.5 67q11 55 87 124h-15l10 54q-59 -68 -155 -68q-84 0 -130 56t-29 151l54 307h129l-51 -291q-9 -51 13.5 -77t67.5 -26q46 0 80.5 27
t48.5 81z" />
    <glyph glyph-name="Wcircumflex" unicode="&#x174;" horiz-adv-x="999" 
d="M599 820l-58 -65h-128l131 145h130l81 -145h-126zM914 700h149l-319 -700h-157l-51 462l-212 -462h-157l-73 700h137l45 -519l238 519h118l56 -519z" />
    <glyph glyph-name="wcircumflex" unicode="&#x175;" horiz-adv-x="778" 
d="M454 620l-58 -65h-128l131 145h130l81 -145h-126zM665 500h142l-247 -500h-123l-39 302l-138 -302h-130l-71 500h129l36 -307l140 307h125l39 -308z" />
    <glyph glyph-name="Ycircumflex" unicode="&#x176;" horiz-adv-x="601" 
d="M400 820l-58 -65h-128l131 145h130l81 -145h-126zM678 700l-298 -390l-55 -310h-137l55 312l-161 388h147l98 -258l187 258h164z" />
    <glyph glyph-name="ycircumflex" unicode="&#x177;" horiz-adv-x="525" 
d="M313 620l-58 -65h-128l131 145h130l81 -145h-126zM424 500h143l-270 -500q-61 -114 -133.5 -159.5t-166.5 -40.5l21 120q53 -1 84 19.5t58 73.5l3 5l-116 482h132l74 -337z" />
    <glyph glyph-name="Ydieresis" unicode="&#x178;" horiz-adv-x="601" 
d="M292 749q-28 0 -44 19.5t-11 47.5t28 48t51 20t44.5 -20t11.5 -48t-28.5 -47.5t-51.5 -19.5zM482 749q-28 0 -44 19.5t-11 47.5t28 48t51 20t44.5 -20t11.5 -48t-28.5 -47.5t-51.5 -19.5zM678 700l-298 -390l-55 -310h-137l55 312l-161 388h147l98 -258l187 258h164z" />
    <glyph glyph-name="Zacute" unicode="&#x179;" horiz-adv-x="535" 
d="M542 900l-131 -137h-127l100 137h158zM582 700l-19 -109l-371 -459h296l-23 -132h-473l20 110l371 458h-284l23 132h460z" />
    <glyph glyph-name="zacute" unicode="&#x17a;" horiz-adv-x="454" 
d="M465 700l-131 -137h-127l100 137h158zM65 379l22 121h375l-15 -86l-258 -293h216l-21 -121h-396l16 86l257 293h-196z" />
    <glyph glyph-name="Zdotaccent" unicode="&#x17b;" horiz-adv-x="535" 
d="M362 751q-32 0 -51 23t-13 55q5 31 31.5 54t58.5 23t51 -23t14 -54q-6 -32 -33 -55t-58 -23zM582 700l-19 -109l-371 -459h296l-23 -132h-473l20 110l371 458h-284l23 132h460z" />
    <glyph glyph-name="zdotaccent" unicode="&#x17c;" horiz-adv-x="454" 
d="M285 551q-32 0 -51 23t-13 55q5 31 31.5 54t58.5 23t51 -23t14 -54q-6 -32 -33 -55t-58 -23zM462 500l-15 -86l-258 -293h216l-21 -121h-396l16 86l257 293h-196l22 121h375z" />
    <glyph glyph-name="Zcaron" unicode="&#x17d;" horiz-adv-x="535" 
d="M293 755l-81 145h123l32 -65l55 65h133l-131 -145h-131zM582 700l-19 -109l-371 -459h296l-23 -132h-473l20 110l371 458h-284l23 132h460z" />
    <glyph glyph-name="zcaron" unicode="&#x17e;" horiz-adv-x="454" 
d="M216 555l-81 145h123l32 -65l55 65h133l-131 -145h-131zM65 379l22 121h375l-15 -86l-258 -293h216l-21 -121h-396l16 86l257 293h-196z" />
    <glyph glyph-name="florin" unicode="&#x192;" horiz-adv-x="441" 
d="M255 545q39 111 109 147.5t157 12.5l-22 -129q-29 18 -66 3t-52 -59l-37 -106h91l-22 -124h-112l-114 -331q-38 -111 -108 -147.5t-158 -12.5l22 128q29 -18 66 -3t52 59l106 307h-85l23 124h105z" />
    <glyph glyph-name="Scommaaccent" unicode="&#x218;" horiz-adv-x="586" 
d="M269 -14q-106 0 -173.5 46.5t-86.5 126.5l125 64q26 -104 146 -104q55 0 86.5 20t37.5 53q8 38 -21.5 59t-102.5 45q-98 33 -147.5 83.5t-33.5 142.5q17 95 89.5 143.5t165.5 48.5q86 0 147 -41t88 -115l-121 -64q-37 87 -125 87q-42 0 -69.5 -18t-34.5 -49
q-8 -37 21 -58.5t98 -46.5q18 -7 30 -11t30 -11.5t29.5 -14t26.5 -16t25 -19t20.5 -22t16 -26.5t9.5 -30.5t4 -36.5t-4 -42q-17 -94 -91.5 -144t-184.5 -50zM252 -263l65 200h-121l-46 -200h102z" />
    <glyph glyph-name="scommaaccent" unicode="&#x219;" horiz-adv-x="470" 
d="M206 -14q-153 0 -203 123l116 58q20 -64 98 -64q65 0 73 39q3 21 -22 34t-62 24t-73 26.5t-57 51.5t-12 89q13 70 71.5 108.5t131.5 38.5q65 0 114 -28t72 -78l-116 -58q-18 50 -77 50q-58 0 -67 -43q-4 -23 20.5 -36t62 -23t74 -24.5t57.5 -50t11 -91.5
q-13 -73 -70.5 -109.5t-141.5 -36.5zM194 -263l65 200h-121l-46 -200h102z" />
    <glyph glyph-name="uni021A" unicode="&#x21a;" horiz-adv-x="540" 
d="M607 700l-23 -132h-189l-100 -568h-138l100 568h-188l23 132h515zM110 -263l46 200h121l-65 -200h-102z" />
    <glyph glyph-name="uni021B" unicode="&#x21b;" horiz-adv-x="386" 
d="M255 376l-37 -208q-7 -39 17 -47t87 -4l-20 -117q-126 -15 -178.5 26t-34.5 142l37 208h-87l22 124h86l18 101l136 39l-25 -140h114l-23 -124h-112zM72 -263l46 200h121l-65 -200h-102z" />
    <glyph glyph-name="circumflex" unicode="&#x2c6;" horiz-adv-x="383" 
d="M416 555h-126l-30 65l-58 -65h-128l131 145h130z" />
    <glyph glyph-name="caron" unicode="&#x2c7;" horiz-adv-x="383" 
d="M309 700h133l-131 -145h-131l-81 145h123l32 -65z" />
    <glyph glyph-name="breve" unicode="&#x2d8;" horiz-adv-x="373" 
d="M245 547q-79 0 -119 39t-28 106h115q-9 -52 42 -52q52 0 61 52h115q-11 -70 -58.5 -107.5t-127.5 -37.5z" />
    <glyph glyph-name="dotaccent" unicode="&#x2d9;" horiz-adv-x="175" 
d="M150 551q-32 0 -51 23t-13 55q5 31 31.5 54t58.5 23t51 -23t14 -54q-6 -32 -33 -55t-58 -23z" />
    <glyph glyph-name="ring" unicode="&#x2da;" horiz-adv-x="293" 
d="M197 539q-55 0 -86 35.5t-22 86.5t49 83t95 32t86 -36t22 -86q-8 -51 -48 -83t-96 -32zM208 620q40 0 47 37q3 17 -6 27.5t-27 10.5q-39 0 -46 -37q-3 -16 5.5 -27t26.5 -11z" />
    <glyph glyph-name="ogonek" unicode="&#x2db;" horiz-adv-x="217" 
d="M35 -214q-43 0 -65.5 24t-15.5 66q10 57 89 124h110q-62 -54 -70 -94q-5 -28 20 -28q13 -1 29 5l-14 -81q-42 -16 -83 -16z" />
    <glyph glyph-name="tilde" unicode="&#x2dc;" horiz-adv-x="379" 
d="M83 560q6 56 27.5 92t50.5 48t61 7t61 -26q25 -20 39.5 -16t20.5 40h104q-6 -56 -27 -92t-50 -48t-61 -7t-61 26q-26 20 -40.5 16t-20.5 -40h-104z" />
    <glyph glyph-name="hungarumlaut" unicode="&#x2dd;" horiz-adv-x="434" 
d="M74 555h129l107 138h-135zM247 555h129l117 138h-135z" />
    <glyph glyph-name="gravecomb" unicode="&#x300;" horiz-adv-x="0" 
d="M36 563l-62 137h-150l90 -137h122z" />
    <glyph glyph-name="acutecomb" unicode="&#x301;" horiz-adv-x="0" 
d="M-199 563h127l131 137h-158z" />
    <glyph glyph-name="uni0302" unicode="&#x302;" horiz-adv-x="0" 
d="M33 555h-126l-30 65l-58 -65h-128l131 145h130z" />
    <glyph glyph-name="tildecomb" unicode="&#x303;" horiz-adv-x="0" 
d="M-305 560q6 56 27.5 92t50.5 48t61 7t61 -26q25 -20 39.5 -16t20.5 40h104q-6 -56 -27 -92t-50 -48t-61 -7t-61 26q-26 20 -40.5 16t-20.5 -40h-104z" />
    <glyph glyph-name="uni0304" unicode="&#x304;" horiz-adv-x="0" 
d="M-254 564l18 105h290l-18 -105h-290z" />
    <glyph glyph-name="uni0306" unicode="&#x306;" horiz-adv-x="0" 
d="M-128 547q-79 0 -119 39t-28 106h115q-9 -52 42 -52q52 0 61 52h115q-11 -70 -58.5 -107.5t-127.5 -37.5z" />
    <glyph glyph-name="uni0307" unicode="&#x307;" horiz-adv-x="0" 
d="M-44 551q-32 0 -51 23t-13 55q5 31 31.5 54t58.5 23t51 -23t14 -54q-6 -32 -33 -55t-58 -23z" />
    <glyph glyph-name="uni0308" unicode="&#x308;" horiz-adv-x="0" 
d="M-225 549q-28 0 -44 19.5t-11 47.5t28 48t51 20t44.5 -20t11.5 -48t-28.5 -47.5t-51.5 -19.5zM-35 549q-28 0 -44 19.5t-11 47.5t28 48t51 20t44.5 -20t11.5 -48t-28.5 -47.5t-51.5 -19.5z" />
    <glyph glyph-name="uni030A" unicode="&#x30a;" horiz-adv-x="0" 
d="M-93 539q-55 0 -86 35.5t-22 86.5t49 83t95 32t86 -36t22 -86q-8 -51 -48 -83t-96 -32zM-82 620q40 0 47 37q3 17 -6 27.5t-27 10.5q-39 0 -46 -37q-3 -16 5.5 -27t26.5 -11z" />
    <glyph glyph-name="uni030B" unicode="&#x30b;" horiz-adv-x="0" 
d="M-361 555h129l107 138h-135zM-188 555h129l117 138h-135z" />
    <glyph glyph-name="uni030C" unicode="&#x30c;" horiz-adv-x="0" 
d="M-74 700h133l-131 -145h-131l-81 145h123l32 -65z" />
    <glyph glyph-name="uni0312" unicode="&#x312;" horiz-adv-x="0" 
d="M6 975l-65 -200h121l46 200h-102z" />
    <glyph glyph-name="uni0326" unicode="&#x326;" horiz-adv-x="0" 
d="M-141 -263l65 200h-121l-46 -200h102z" />
    <glyph glyph-name="uni0327" unicode="&#x327;" horiz-adv-x="0" 
d="M-143 -46q27 -8 44.5 -30t11.5 -56q-19 -101 -236 -84l16 91q106 -7 112 20q3 22 -59 25l14 80h105z" />
    <glyph glyph-name="uni0328" unicode="&#x328;" horiz-adv-x="0" 
d="M-189 -214q-43 0 -65.5 24t-15.5 66q10 57 89 124h110q-62 -54 -70 -94q-5 -28 20 -28q13 -1 29 5l-14 -81q-42 -16 -83 -16z" />
    <glyph glyph-name="uni0394" unicode="&#x394;" horiz-adv-x="653" 
d="M491 700l115 -700h-648l362 700h171zM178 129h266l-60 418z" />
    <glyph glyph-name="uni03A9" unicode="&#x3a9;" horiz-adv-x="778" 
d="M771 356q-24 -138 -139 -224h86l-23 -132h-277l23 132q73 22 125 80.5t65 137.5q18 100 -35 165t-149 65q-97 0 -172 -64.5t-93 -165.5q-13 -79 17.5 -137.5t95.5 -80.5l-14 -81l-9 -51h-277l23 132h100q-96 99 -71 243q26 148 143 243.5t273 95.5q148 0 241 -106
t67 -252z" />
    <glyph glyph-name="pi" unicode="&#x3c0;" horiz-adv-x="665" 
d="M687 500l-22 -121h-79l-67 -379h-129l67 379h-199l-67 -379h-129l67 379h-84l22 121h620z" />
    <glyph glyph-name="uni0401" unicode="&#x401;" horiz-adv-x="530" 
d="M271 749q-28 0 -44 19.5t-11 47.5t28 48t51 20t44.5 -20t11.5 -48t-28.5 -47.5t-51.5 -19.5zM461 749q-28 0 -44 19.5t-11 47.5t28 48t51 20t44.5 -20t11.5 -48t-28.5 -47.5t-51.5 -19.5zM549 568h-290l-27 -150h266l-24 -129h-264l-28 -157h295l-23 -132h-433l123 700
h428z" />
    <glyph glyph-name="uni0402" unicode="&#x402;" horiz-adv-x="693" 
d="M494 466q90 0 134.5 -52.5t28.5 -142.5l-13 -77q-21 -115 -81.5 -163t-172.5 -41l23 128q44 -3 64.5 14.5t28.5 61.5l11 63q7 47 -11 66t-60 19q-53 0 -108 -25l-56 -317h-137l100 568h-176l23 132h512l-23 -132h-199l-22 -124q70 22 134 22z" />
    <glyph glyph-name="uni0403" unicode="&#x403;" horiz-adv-x="475" 
d="M538 899l-131 -137h-127l100 137h158zM542 700l-23 -132h-260l-100 -568h-138l123 700h398z" />
    <glyph glyph-name="uni0404" unicode="&#x404;" horiz-adv-x="729" 
d="M368 121q130 0 203 102l113 -73q-57 -76 -142.5 -120t-182.5 -44q-105 0 -182 51t-109.5 136.5t-15.5 186.5q25 154 142.5 254t271.5 100q100 0 172.5 -44t107.5 -122l-126 -66q-47 98 -167 98q-83 0 -148.5 -44.5t-96.5 -120.5h311l-24 -129h-310q5 -75 54 -120t129 -45
z" />
    <glyph glyph-name="uni0405" unicode="&#x405;" horiz-adv-x="586" 
d="M269 -14q-106 0 -173.5 46.5t-86.5 126.5l125 64q26 -104 146 -104q55 0 86.5 20t37.5 53q8 38 -21.5 59t-102.5 45q-98 33 -147.5 83.5t-33.5 142.5q17 95 89.5 143.5t165.5 48.5q86 0 147 -41t88 -115l-121 -64q-37 87 -125 87q-42 0 -69.5 -18t-34.5 -49
q-8 -37 21 -58.5t98 -46.5q18 -7 30 -11t30 -11.5t29.5 -14t26.5 -16t25 -19t20.5 -22t16 -26.5t9.5 -30.5t4 -36.5t-4 -42q-17 -94 -91.5 -144t-184.5 -50z" />
    <glyph glyph-name="uni0406" unicode="&#x406;" horiz-adv-x="268" 
d="M144 700h138l-123 -700h-138z" />
    <glyph glyph-name="uni0407" unicode="&#x407;" horiz-adv-x="268" 
d="M126 749q-28 0 -44 19.5t-11 47.5t28 48t51 20t44.5 -20t11.5 -48t-28.5 -47.5t-51.5 -19.5zM316 749q-28 0 -44 19.5t-11 47.5t28 48t51 20t44.5 -20t11.5 -48t-28.5 -47.5t-51.5 -19.5zM144 700h138l-123 -700h-138z" />
    <glyph glyph-name="uni0408" unicode="&#x408;" horiz-adv-x="566" 
d="M228 -14q-168 0 -218 137l126 69q11 -38 36 -54.5t68 -16.5q110 0 127 97l85 482h138l-85 -482q-21 -117 -94.5 -174.5t-182.5 -57.5z" />
    <glyph glyph-name="uni0409" unicode="&#x409;" horiz-adv-x="962" 
d="M733 438q95 0 154.5 -66.5t42.5 -161.5q-17 -96 -92 -153t-182 -57h-241l100 568h-187l-49 -278q-11 -65 -30.5 -115.5t-43 -82t-52 -53.5t-59 -30.5t-63 -12t-64.5 1.5l22 128q61 -7 97.5 27t54.5 133l73 414h461l-46 -262h104zM792 219q7 42 -15.5 66t-65.5 24h-105
l-31 -180h104q43 0 74.5 24t38.5 66z" />
    <glyph glyph-name="uni040A" unicode="&#x40a;" horiz-adv-x="958" 
d="M729 438q95 0 154.5 -66.5t42.5 -161.5q-17 -96 -92 -153t-182 -57h-241l54 309h-252l-54 -309h-138l123 700h138l-46 -262h252l46 262h138l-46 -262h103zM788 219q8 42 -15 66t-66 24h-104l-31 -180h103q43 0 74.5 24t38.5 66z" />
    <glyph glyph-name="uni040B" unicode="&#x40b;" horiz-adv-x="698" 
d="M487 466q93 0 139 -51.5t30 -143.5l-47 -271h-137l45 257q8 47 -12 66t-65 19q-57 0 -102 -24l-56 -318h-137l100 568h-176l23 132h512l-23 -132h-199l-22 -123q62 21 127 21z" />
    <glyph glyph-name="uni040C" unicode="&#x40c;" horiz-adv-x="614" 
d="M578 899l-131 -137h-127l100 137h158zM689 700l-337 -344l216 -356h-145l-205 338l-59 -338h-138l123 700h138l-53 -300l295 300h165z" />
    <glyph glyph-name="uni040E" unicode="&#x40e;" horiz-adv-x="600" 
d="M558 875l-19 -112h-290l19 112h290zM527 700h142l-289 -507q-63 -111 -137.5 -154.5t-172.5 -38.5l22 128q55 -5 92.5 16.5t67.5 69.5l-150 486h132l102 -339z" />
    <glyph glyph-name="uni040F" unicode="&#x40f;" horiz-adv-x="653" 
d="M529 700h138l-123 -700h-193l-24 -134h-137l23 134h-192l123 700h138l-100 -568h247z" />
    <glyph glyph-name="uni0410" unicode="&#x410;" horiz-adv-x="668" 
d="M472 0l-18 126h-280l-65 -126h-151l369 700h171l123 -700h-149zM241 255h194l-42 292z" />
    <glyph glyph-name="uni0411" unicode="&#x411;" horiz-adv-x="586" 
d="M366 435q96 0 152.5 -66t39.5 -161q-17 -97 -88.5 -152.5t-180.5 -55.5h-268l123 700h440l-23 -132h-302l-24 -133h131zM423 218q7 42 -16 65t-65 23h-129l-31 -177h129q41 0 72.5 23.5t39.5 65.5z" />
    <glyph glyph-name="uni0412" unicode="&#x412;" horiz-adv-x="605" 
d="M597 498q-13 -87 -89 -139q77 -54 63 -161q-13 -88 -80.5 -143t-180.5 -55h-289l123 700h265q92 0 147 -57t41 -145zM393 571h-134l-27 -154h135q35 0 60.5 22t31.5 55q6 32 -11.5 54.5t-54.5 22.5zM436 212q6 36 -13 59t-57 23h-155l-29 -165h153q39 0 66.5 23.5
t34.5 59.5z" />
    <glyph glyph-name="uni0413" unicode="&#x413;" horiz-adv-x="475" 
d="M542 700l-23 -132h-260l-100 -568h-138l123 700h398z" />
    <glyph glyph-name="uni0414" unicode="&#x414;" horiz-adv-x="705" 
d="M682 700l-100 -568h75l-47 -266h-138l24 134h-388l-23 -134h-138l47 266h68q72 78 100 237l58 331h462zM215 132h229l78 439h-187l-36 -204q-27 -154 -84 -235z" />
    <glyph glyph-name="uni0415" unicode="&#x415;" horiz-adv-x="530" 
d="M549 568h-290l-27 -150h266l-24 -129h-264l-28 -157h295l-23 -132h-433l123 700h428z" />
    <glyph glyph-name="uni0416" unicode="&#x416;" horiz-adv-x="904" 
d="M964 700l-298 -355l182 -345h-145l-169 322l-56 -322h-137l56 319l-270 -319h-159l310 364l-181 336h145l167 -314l55 314h137l-55 -313l258 313h160z" />
    <glyph glyph-name="uni0417" unicode="&#x417;" horiz-adv-x="560" 
d="M554 501q-16 -96 -101 -145q91 -58 70 -169q-17 -95 -91 -148t-193 -53q-96 0 -155.5 44.5t-83.5 120.5l126 65q13 -47 42.5 -73.5t90.5 -26.5q53 0 87 24.5t42 65.5t-17.5 64.5t-80.5 23.5h-87l22 123h65q52 0 85 23t40 62q7 38 -15.5 60.5t-71.5 22.5q-82 0 -134 -90
l-112 71q40 67 108 107.5t160 40.5q100 0 160 -61t44 -152z" />
    <glyph glyph-name="uni0418" unicode="&#x418;" horiz-adv-x="673" 
d="M21 0l123 700h138l-74 -418l374 418h105l-123 -700h-138l74 418l-374 -418h-105z" />
    <glyph glyph-name="uni0419" unicode="&#x419;" horiz-adv-x="673" 
d="M275 764l19 112h290l-19 -112h-290zM21 0l123 700h138l-74 -418l374 418h105l-123 -700h-138l74 418l-374 -418h-105z" />
    <glyph glyph-name="uni041A" unicode="&#x41a;" horiz-adv-x="614" 
d="M689 700l-337 -344l216 -356h-145l-205 338l-59 -338h-138l123 700h138l-53 -300l295 300h165z" />
    <glyph glyph-name="uni041B" unicode="&#x41b;" horiz-adv-x="676" 
d="M-33 -2l22 128q61 -7 97.5 27t54.5 133l73 414h476l-123 -700h-137l100 568h-202l-49 -278q-14 -78 -38.5 -135t-55 -88t-67.5 -49.5t-74.5 -20t-76.5 0.5z" />
    <glyph glyph-name="uni041C" unicode="&#x41c;" horiz-adv-x="815" 
d="M829 700l-123 -700h-137l80 455l-258 -326h-16l-135 330l-81 -459h-138l123 700h141l132 -335l260 335h152z" />
    <glyph glyph-name="uni041D" unicode="&#x41d;" horiz-adv-x="665" 
d="M542 700h137l-123 -700h-137l51 290h-260l-51 -290h-138l123 700h138l-49 -278h260z" />
    <glyph glyph-name="uni041E" unicode="&#x41e;" horiz-adv-x="793" 
d="M354 -14q-152 0 -241 110.5t-61 263.5q26 155 143.5 254.5t278.5 99.5q150 0 239.5 -111t62.5 -264q-27 -155 -144 -254t-278 -99zM370 121q98 0 174.5 64t94.5 164q17 100 -36 165.5t-150 65.5t-171.5 -64.5t-92.5 -165.5q-18 -100 33.5 -164.5t147.5 -64.5z" />
    <glyph glyph-name="uni041F" unicode="&#x41f;" horiz-adv-x="653" 
d="M667 700l-123 -700h-138l100 568h-247l-100 -568h-138l123 700h523z" />
    <glyph glyph-name="uni0420" unicode="&#x420;" horiz-adv-x="590" 
d="M395 700q106 0 164 -69.5t42 -172.5q-15 -101 -91 -164.5t-194 -63.5h-117l-40 -230h-138l123 700h251zM464 468q9 47 -14 75t-76 28h-115l-37 -212h108q55 0 90 30t44 79z" />
    <glyph glyph-name="uni0421" unicode="&#x421;" horiz-adv-x="729" 
d="M359 -14q-105 0 -182 51t-109.5 136.5t-15.5 186.5q25 154 142.5 254t271.5 100q100 0 172.5 -44t107.5 -122l-126 -66q-47 98 -167 98q-100 0 -173.5 -64t-90.5 -166q-18 -101 32 -165t147 -64q130 0 203 102l113 -73q-57 -76 -142.5 -120t-182.5 -44z" />
    <glyph glyph-name="uni0422" unicode="&#x422;" horiz-adv-x="540" 
d="M607 700l-23 -132h-189l-100 -568h-138l100 568h-188l23 132h515z" />
    <glyph glyph-name="uni0423" unicode="&#x423;" horiz-adv-x="600" 
d="M527 700h142l-289 -507q-63 -111 -137.5 -154.5t-172.5 -38.5l22 128q55 -5 92.5 16.5t67.5 69.5l-150 486h132l102 -339z" />
    <glyph glyph-name="uni0424" unicode="&#x424;" horiz-adv-x="820" 
d="M544 632q141 -18 215.5 -96t53.5 -195q-21 -120 -119 -192t-250 -84l-14 -80h-134l15 83q-141 18 -215.5 96t-53.5 195q21 120 119 192t250 84l14 80h134zM179 350q-25 -137 154 -158l56 317q-186 -21 -210 -159zM676 350q24 138 -153 158l-56 -316q184 21 209 158z" />
    <glyph glyph-name="uni0425" unicode="&#x425;" horiz-adv-x="610" 
d="M665 700l-264 -347l153 -353h-149l-99 229l-174 -229h-164l279 366l-144 334h148l91 -210l160 210h163z" />
    <glyph glyph-name="uni0426" unicode="&#x426;" horiz-adv-x="690" 
d="M567 132h75l-47 -266h-138l24 134h-460l123 700h138l-100 -568h247l100 568h138z" />
    <glyph glyph-name="uni0427" unicode="&#x427;" horiz-adv-x="633" 
d="M509 700h138l-123 -700h-138l43 245q-58 -16 -117 -16q-122 0 -183.5 59t-43.5 162l44 250h138l-41 -232q-10 -57 15 -82t89 -25q66 0 123 22z" />
    <glyph glyph-name="uni0428" unicode="&#x428;" horiz-adv-x="943" 
d="M819 700h138l-123 -700h-813l123 700h138l-100 -568h200l100 568h137l-100 -568h200z" />
    <glyph glyph-name="uni0429" unicode="&#x429;" horiz-adv-x="980" 
d="M857 132h75l-47 -266h-138l24 134h-750l123 700h138l-100 -568h200l100 568h137l-100 -568h200l100 568h138z" />
    <glyph glyph-name="uni042A" unicode="&#x42a;" horiz-adv-x="693" 
d="M124 0l99 568h-167l23 132h305l-40 -230h120q96 0 156 -73.5t43 -171.5q-18 -104 -93 -164.5t-187 -60.5h-259zM284 129h122q45 0 78.5 30t41.5 76t-15.5 76t-68.5 30h-121z" />
    <glyph glyph-name="uni042B" unicode="&#x42b;" horiz-adv-x="831" 
d="M21 0l123 700h138l-41 -230h121q95 0 155 -73.5t44 -171.5q-19 -104 -94 -164.5t-186 -60.5h-260zM585 0l123 700h137l-123 -700h-137zM181 129h122q46 0 79 30t41 76t-15.5 76t-67.5 30h-121z" />
    <glyph glyph-name="uni042C" unicode="&#x42c;" horiz-adv-x="590" 
d="M362 470q95 0 155 -73.5t44 -171.5q-19 -104 -94 -164.5t-186 -60.5h-260l123 700h138l-40 -230h120zM423 235q8 46 -15.5 76t-67.5 30h-121l-37 -212h121q46 0 79 30t41 76z" />
    <glyph glyph-name="uni042D" unicode="&#x42d;" horiz-adv-x="725" 
d="M406 714q159 0 243.5 -109t58.5 -264q-25 -154 -138.5 -254.5t-271.5 -100.5q-99 0 -174.5 44t-109.5 123l127 66q20 -47 64 -72.5t105 -25.5q83 0 147.5 45t94.5 120h-311l24 129h310q-5 76 -53 120.5t-129 44.5q-127 0 -202 -104l-111 72q54 77 141 121.5t185 44.5z
" />
    <glyph glyph-name="uni042E" unicode="&#x42e;" horiz-adv-x="1056" 
d="M737 714q150 0 239.5 -111t62.5 -264q-28 -154 -146.5 -253.5t-275.5 -99.5q-134 0 -219.5 88.5t-84.5 219.5h-102l-52 -294h-138l123 700h138l-48 -274h102q44 129 153.5 208.5t247.5 79.5zM901 349q18 100 -35 165.5t-150 65.5t-172 -64.5t-92 -165.5
q-18 -100 33 -164.5t147 -64.5q98 0 175 64t94 164z" />
    <glyph glyph-name="uni042F" unicode="&#x42f;" horiz-adv-x="624" 
d="M638 700l-123 -700h-138l43 243h-70l-200 -243h-168l219 259q-67 26 -96.5 87t-17.5 133q16 92 90 156.5t186 64.5h275zM309 364h132l36 207h-133q-45 0 -79.5 -29.5t-42.5 -73.5t17.5 -74t69.5 -30z" />
    <glyph glyph-name="uni0430" unicode="&#x430;" horiz-adv-x="627" 
d="M483 500h129l-88 -500h-129l8 46q-65 -60 -166 -60q-113 0 -168 83t-34 193q19 107 96.5 179.5t185.5 72.5q106 0 154 -81zM277 109q58 0 103 36.5t58 96.5l2 16q8 61 -25.5 97t-90.5 36q-59 0 -104 -37.5t-56 -102.5q-11 -63 21 -102.5t92 -39.5z" />
    <glyph glyph-name="uni0431" unicode="&#x431;" horiz-adv-x="567" 
d="M258 -14q-117 0 -181 76t-44 193q15 87 37 140t71.5 99.5t134.5 84.5q21 9 52.5 23t46 20.5t35.5 18t32.5 21t24 24.5t22.5 33l98 -61q-24 -61 -75.5 -94.5t-148.5 -68.5q-68 -25 -101.5 -49.5t-51.5 -57.5q64 54 154 54q80 0 137.5 -65.5t39.5 -164.5q-17 -102 -94 -164
t-189 -62zM269 104q54 0 95 33t50 84t-20.5 84.5t-84.5 33.5q-50 0 -93.5 -30.5t-52.5 -82.5q-10 -53 21 -87.5t85 -34.5z" />
    <glyph glyph-name="uni0432" unicode="&#x432;" horiz-adv-x="511" 
d="M486 352q-12 -70 -66 -100q63 -41 49 -117q-12 -64 -60 -99.5t-131 -35.5h-263l88 500h243q72 0 111.5 -43t28.5 -105zM315 394h-110l-15 -90h108q57 0 64 45q4 22 -8 33.5t-39 11.5zM346 157q4 21 -9 33t-39 12h-126l-17 -93h127q25 0 42.5 12.5t21.5 35.5z" />
    <glyph glyph-name="uni0433" unicode="&#x433;" horiz-adv-x="403" 
d="M445 500l-21 -124h-214l-66 -376h-129l66 376l22 124h342z" />
    <glyph glyph-name="uni0434" unicode="&#x434;" horiz-adv-x="598" 
d="M553 500l-67 -379h67l-46 -255h-126l24 134h-311l-23 -134h-127l46 255h62q53 63 74 177l35 202h392zM192 121h168l47 263h-140l-15 -86q-20 -111 -60 -177z" />
    <glyph glyph-name="uni0435" unicode="&#x435;" horiz-adv-x="583" 
d="M333 514q111 0 175 -76.5t43 -187.5q-2 -22 -14 -53h-378q4 -48 37 -71t83 -23q75 0 123 51l91 -73q-84 -95 -224 -95q-124 0 -188.5 79t-45.5 195q17 109 102 181.5t196 72.5zM177 298h254q-1 51 -30.5 75.5t-75.5 24.5q-50 0 -88.5 -26t-59.5 -74z" />
    <glyph glyph-name="uni0436" unicode="&#x436;" horiz-adv-x="746" 
d="M771 500l-220 -252l138 -248h-131l-126 230l-41 -230h-126l40 228l-198 -228h-139l230 265l-130 235h129l118 -216l38 216h126l-38 -219l187 219h143z" />
    <glyph glyph-name="uni0437" unicode="&#x437;" horiz-adv-x="451" 
d="M426 357q-14 -74 -73 -107q68 -44 54 -122q-12 -65 -67.5 -103.5t-152.5 -38.5q-157 0 -194 120l111 57q18 -63 97 -63q74 0 84 52q4 21 -9 33.5t-42 12.5h-72l20 110h53q57 0 67 46q4 22 -11 35t-44 13q-65 0 -102 -62l-98 61q79 113 212 113q86 0 132 -47.5t35 -109.5z
" />
    <glyph glyph-name="uni0438" unicode="&#x438;" 
d="M464 500h96l-88 -500h-126l49 278l-284 -278h-96l88 500h126l-49 -278z" />
    <glyph glyph-name="uni0439" unicode="&#x439;" 
d="M199 564l19 112h290l-19 -112h-290zM464 500h96l-88 -500h-126l49 278l-284 -278h-96l88 500h126l-49 -278z" />
    <glyph glyph-name="uni043A" unicode="&#x43a;" horiz-adv-x="517" 
d="M550 500l-241 -247l159 -253h-140l-143 235l-41 -235h-129l88 500h129l-37 -211l202 211h153z" />
    <glyph glyph-name="uni043B" unicode="&#x43b;" horiz-adv-x="546" 
d="M532 500l-88 -500h-129l66 376h-138l-29 -167q-22 -124 -83 -172.5t-164 -36.5l20 121q79 -16 99 95l50 284h396z" />
    <glyph glyph-name="uni043C" unicode="&#x43c;" horiz-adv-x="638" 
d="M623 500l-88 -500h-125l52 293l-164 -201h-15l-92 202l-52 -294h-124l88 500h126l88 -214l170 214h136z" />
    <glyph glyph-name="uni043D" unicode="&#x43d;" 
d="M431 500h129l-88 -500h-129l33 190h-199l-33 -190h-129l88 500h129l-33 -189h199z" />
    <glyph glyph-name="uni043E" unicode="&#x43e;" horiz-adv-x="594" 
d="M264 -14q-124 0 -187 83.5t-41 196.5q21 107 104 177.5t198 70.5q116 0 178.5 -83.5t42.5 -193.5q-18 -106 -102.5 -178.5t-192.5 -72.5zM273 112q57 0 102.5 38t55.5 101q12 62 -20 99.5t-89 37.5q-56 0 -100.5 -37.5t-56.5 -100.5q-11 -63 20.5 -100.5t87.5 -37.5z" />
    <glyph glyph-name="uni043F" unicode="&#x43f;" 
d="M560 500l-88 -500h-129l67 379h-199l-67 -379h-129l88 500h457z" />
    <glyph glyph-name="uni0440" unicode="&#x440;" horiz-adv-x="627" 
d="M389 514q106 0 163.5 -82.5t39.5 -191.5q-16 -106 -92 -180t-184 -74q-110 0 -160 84l-47 -270h-129l123 700h129l-9 -52q66 66 166 66zM463 249q11 63 -20.5 102.5t-91.5 39.5q-57 0 -101.5 -35t-59.5 -92l-4 -25q-7 -60 27 -95t91 -35q58 0 103 37.5t56 102.5z" />
    <glyph glyph-name="uni0441" unicode="&#x441;" horiz-adv-x="540" 
d="M263 -14q-116 0 -181.5 79.5t-46.5 194.5q17 110 101.5 182t197.5 72q77 0 132 -35.5t79 -94.5l-117 -62q-27 65 -105 65q-58 0 -103.5 -37.5t-55.5 -96.5q-10 -60 21 -99.5t89 -39.5q78 0 124 67l104 -67q-38 -62 -101.5 -95t-137.5 -33z" />
    <glyph glyph-name="uni0442" unicode="&#x442;" horiz-adv-x="463" 
d="M497 500l-22 -124h-156l-66 -376h-129l66 376h-157l21 124h443z" />
    <glyph glyph-name="uni0443" unicode="&#x443;" horiz-adv-x="525" 
d="M424 500h143l-270 -500q-61 -114 -133.5 -159.5t-166.5 -40.5l21 120q53 -1 84 19.5t58 73.5l3 5l-116 482h132l74 -337z" />
    <glyph glyph-name="uni0444" unicode="&#x444;" horiz-adv-x="686" 
d="M451 506q107 -19 162 -93.5t38 -171.5q-17 -100 -94 -167.5t-196 -82.5l-34 -191h-126l34 194q-107 19 -162.5 93.5t-38.5 171.5q17 100 94.5 168t196.5 82l34 191h126zM525 250q9 51 -15.5 86.5t-79.5 48.5l-48 -270q61 13 98 49t45 86zM160 250q-8 -50 16.5 -86
t79.5 -49l48 270q-60 -13 -97.5 -48.5t-46.5 -86.5z" />
    <glyph glyph-name="uni0445" unicode="&#x445;" horiz-adv-x="525" 
d="M556 500l-220 -249l140 -251h-140l-86 154l-136 -154h-153l230 260l-134 240h140l80 -143l126 143h153z" />
    <glyph glyph-name="uni0446" unicode="&#x446;" horiz-adv-x="605" 
d="M476 121h84l-45 -255h-126l24 134h-398l88 500h129l-67 -379h182l67 379h129z" />
    <glyph glyph-name="uni0447" unicode="&#x447;" horiz-adv-x="541" 
d="M398 500h129l-88 -500h-129l28 157q-64 -16 -117 -16q-91 0 -139.5 49t-33.5 131l31 179h129l-29 -164q-6 -36 13.5 -55.5t63.5 -19.5q46 0 104 20z" />
    <glyph glyph-name="uni0448" unicode="&#x448;" horiz-adv-x="833" 
d="M689 500h129l-88 -500h-715l88 500h129l-67 -379h164l67 379h129l-67 -379h164z" />
    <glyph glyph-name="uni0449" unicode="&#x449;" horiz-adv-x="848" 
d="M803 500l-67 -379h67l-46 -255h-126l24 134h-640l88 500h129l-67 -379h156l67 379h129l-67 -379h157l67 379h129z" />
    <glyph glyph-name="uni044A" unicode="&#x44a;" horiz-adv-x="574" 
d="M379 340q79 0 124.5 -51.5t32.5 -127.5q-14 -77 -70 -119t-147 -42h-227l66 376h-135l21 124h265l-28 -160h98zM411 170q4 25 -10.5 41t-41.5 16h-98l-20 -113h98q27 0 47.5 15.5t24.5 40.5z" />
    <glyph glyph-name="uni044B" unicode="&#x44b;" horiz-adv-x="717" 
d="M301 340q79 0 124.5 -51.5t32.5 -127.5q-14 -77 -70 -119t-147 -42h-226l88 500h129l-28 -160h97zM573 500h129l-88 -500h-129zM334 170q4 25 -10.5 41t-41.5 16h-98l-20 -113h98q27 0 47.5 15.5t24.5 40.5z" />
    <glyph glyph-name="uni044C" unicode="&#x44c;" horiz-adv-x="497" 
d="M301 340q79 0 124.5 -51.5t32.5 -127.5q-14 -77 -70 -119t-147 -42h-226l88 500h129l-28 -160h97zM334 170q4 25 -10.5 41t-41.5 16h-98l-20 -113h98q27 0 47.5 15.5t24.5 40.5z" />
    <glyph glyph-name="uni044D" unicode="&#x44d;" horiz-adv-x="540" 
d="M281 514q113 0 178.5 -81t45.5 -193q-20 -113 -102 -183.5t-199 -70.5q-73 0 -130 35.5t-80 94.5l114 60q26 -66 111 -66q43 0 80.5 22t60.5 60h-169l21 116h168q-8 38 -37.5 60t-74.5 22q-83 0 -129 -68l-101 64q39 59 104 93.5t139 34.5z" />
    <glyph glyph-name="uni044E" unicode="&#x44e;" horiz-adv-x="811" 
d="M557 514q115 0 177 -83.5t42 -193.5q-18 -106 -102 -178.5t-192 -72.5q-101 0 -162 57.5t-68 146.5h-75l-33 -190h-129l88 500h129l-33 -189h70q32 90 109 146.5t179 56.5zM650 251q11 62 -21.5 99.5t-89.5 37.5t-102 -37.5t-57 -100.5q-10 -63 22 -100.5t88 -37.5
q57 0 103 38t57 101z" />
    <glyph glyph-name="uni044F" unicode="&#x44f;" horiz-adv-x="519" 
d="M504 500l-88 -500h-126l27 156h-45l-139 -156h-152l159 174q-45 23 -67.5 68.5t-13.5 94.5q12 70 68 116.5t143 46.5h234zM184 324q-4 -25 11 -42t44 -17h98l21 120h-98q-29 0 -50 -17.5t-26 -43.5z" />
    <glyph glyph-name="uni0451" unicode="&#x451;" horiz-adv-x="583" 
d="M260 553q-28 0 -44 19.5t-11 47.5t28 48t51 20t44.5 -20t11.5 -48t-28.5 -47.5t-51.5 -19.5zM450 553q-28 0 -44 19.5t-11 47.5t28 48t51 20t44.5 -20t11.5 -48t-28.5 -47.5t-51.5 -19.5zM333 514q111 0 175 -76.5t43 -187.5q-2 -22 -14 -53h-378q4 -48 37 -71t83 -23
q75 0 123 51l91 -73q-84 -95 -224 -95q-124 0 -188.5 79t-45.5 195q17 109 102 181.5t196 72.5zM177 298h254q-1 51 -30.5 75.5t-75.5 24.5q-50 0 -88.5 -26t-59.5 -74z" />
    <glyph glyph-name="uni0452" unicode="&#x452;" horiz-adv-x="581" 
d="M384 514q83 0 129 -56t30 -151l-56 -317q-21 -115 -81.5 -162.5t-172.5 -41.5l23 124q44 -3 69 16t33 64l53 301q9 51 -13.5 77t-68.5 26q-49 0 -85 -30.5t-46 -93.5v3l-48 -273h-129l97 554h-62l15 84h62l11 62h129l-11 -62h142l-15 -84h-142l-19 -109q58 69 156 69z
" />
    <glyph glyph-name="uni0453" unicode="&#x453;" horiz-adv-x="403" 
d="M448 700l-131 -137h-127l100 137h158zM103 500h342l-21 -124h-214l-66 -376h-129l66 376z" />
    <glyph glyph-name="uni0454" unicode="&#x454;" horiz-adv-x="540" 
d="M268 110q87 0 132 68l102 -64q-39 -59 -104 -93.5t-139 -34.5q-113 0 -178.5 81t-45.5 193t103.5 183t196.5 71q73 0 130 -35.5t80 -94.5l-113 -59q-27 65 -109 65q-44 0 -81.5 -22.5t-60.5 -59.5h167l-21 -116h-167q9 -37 38 -59.5t70 -22.5z" />
    <glyph glyph-name="uni0455" unicode="&#x455;" horiz-adv-x="470" 
d="M206 -14q-153 0 -203 123l116 58q20 -64 98 -64q65 0 73 39q3 21 -22 34t-62 24t-73 26.5t-57 51.5t-12 89q13 70 71.5 108.5t131.5 38.5q65 0 114 -28t72 -78l-116 -58q-18 50 -77 50q-58 0 -67 -43q-4 -23 20.5 -36t62 -23t74 -24.5t57.5 -50t11 -91.5
q-13 -73 -70.5 -109.5t-141.5 -36.5z" />
    <glyph glyph-name="uni0456" unicode="&#x456;" horiz-adv-x="247" 
d="M179 560q-33 0 -52 23.5t-14 55.5q5 33 32 56.5t60 23.5t52.5 -24t14.5 -56q-6 -33 -33 -56t-60 -23zM15 0l88 500h129l-88 -500h-129z" />
    <glyph glyph-name="uni0457" unicode="&#x457;" horiz-adv-x="247" 
d="M80 549q-28 0 -44 19.5t-11 47.5t28 48t51 20t44.5 -20t11.5 -48t-28.5 -47.5t-51.5 -19.5zM270 549q-28 0 -44 19.5t-11 47.5t28 48t51 20t44.5 -20t11.5 -48t-28.5 -47.5t-51.5 -19.5zM15 0l88 500h129l-88 -500h-129z" />
    <glyph glyph-name="uni0458" unicode="&#x458;" horiz-adv-x="264" 
d="M222 719q33 0 52.5 -24t14.5 -56q-5 -33 -32 -56t-61 -23q-33 0 -52 23.5t-14 55.5q5 33 32 56.5t60 23.5zM30 -10l90 510h129l-90 -510q-20 -117 -80.5 -164t-172.5 -40l22 124q88 -6 102 80z" />
    <glyph glyph-name="uni0459" unicode="&#x459;" horiz-adv-x="772" 
d="M584 328q74 0 118 -49t30 -124q-13 -75 -67.5 -115t-138.5 -40h-221l66 376h-128l-29 -167q-22 -124 -83 -172.5t-164 -36.5l20 121q79 -15 99 95l50 284h386l-30 -172h92zM608 164q4 24 -9 37t-35 13h-92l-18 -100h93q22 0 39 13t22 37z" />
    <glyph glyph-name="uni045A" unicode="&#x45a;" horiz-adv-x="798" 
d="M610 328q74 0 118 -49t30 -124q-13 -75 -67.5 -115t-138.5 -40h-221l36 207h-187l-36 -207h-129l88 500h129l-30 -172h187l30 172h129l-30 -172h92zM634 164q4 24 -8.5 37t-34.5 13h-93l-18 -100h93q22 0 39.5 13t21.5 37z" />
    <glyph glyph-name="uni045B" unicode="&#x45b;" horiz-adv-x="581" 
d="M384 514q83 0 129 -56t30 -151l-54 -307h-129l51 291q9 51 -13.5 77t-68.5 26q-49 0 -85 -30.5t-46 -93.5v3l-48 -273h-129l97 554h-62l15 84h62l11 62h129l-11 -62h142l-15 -84h-142l-19 -109q58 69 156 69z" />
    <glyph glyph-name="uni045C" unicode="&#x45c;" horiz-adv-x="517" 
d="M503 700l-131 -137h-127l100 137h158zM550 500l-241 -247l159 -253h-140l-143 235l-41 -235h-129l88 500h129l-37 -211l202 211h153z" />
    <glyph glyph-name="uni045E" unicode="&#x45e;" horiz-adv-x="525" 
d="M468 676l-19 -112h-290l19 112h290zM424 500h143l-270 -500q-61 -114 -133.5 -159.5t-166.5 -40.5l21 120q53 -1 84 19.5t58 73.5l3 5l-116 482h132l74 -337z" />
    <glyph glyph-name="uni045F" unicode="&#x45f;" 
d="M431 500h129l-88 -500h-165l-24 -134h-126l24 134h-166l88 500h129l-67 -379h199z" />
    <glyph glyph-name="uni0490" unicode="&#x490;" horiz-adv-x="475" 
d="M426 820h138l-45 -252h-260l-100 -568h-138l123 700h261z" />
    <glyph glyph-name="uni0491" unicode="&#x491;" horiz-adv-x="403" 
d="M337 601h126l-39 -225h-214l-66 -376h-129l66 376l22 124h216z" />
    <glyph glyph-name="Wgrave" unicode="&#x1e80;" horiz-adv-x="999" 
d="M667 763l-62 137h-150l90 -137h122zM167 0l-73 700h137l45 -519l238 519h118l56 -519l226 519h149l-319 -700h-157l-51 462l-212 -462h-157z" />
    <glyph glyph-name="wgrave" unicode="&#x1e81;" horiz-adv-x="778" 
d="M522 563h-122l-90 137h150zM665 500h142l-247 -500h-123l-39 302l-138 -302h-130l-71 500h129l36 -307l140 307h125l39 -308z" />
    <glyph glyph-name="Wacute" unicode="&#x1e82;" horiz-adv-x="999" 
d="M510 763h127l131 137h-158zM167 0l-73 700h137l45 -519l238 519h118l56 -519l226 519h149l-319 -700h-157l-51 462l-212 -462h-157z" />
    <glyph glyph-name="wacute" unicode="&#x1e83;" horiz-adv-x="778" 
d="M623 700l-131 -137h-127l100 137h158zM665 500h142l-247 -500h-123l-39 302l-138 -302h-130l-71 500h129l36 -307l140 307h125l39 -308z" />
    <glyph glyph-name="Wdieresis" unicode="&#x1e84;" horiz-adv-x="999" 
d="M491 749q-28 0 -44 19.5t-11 47.5t28 48t51 20t44.5 -20t11.5 -48t-28.5 -47.5t-51.5 -19.5zM681 749q-28 0 -44 19.5t-11 47.5t28 48t51 20t44.5 -20t11.5 -48t-28.5 -47.5t-51.5 -19.5zM167 0l-73 700h137l45 -519l238 519h118l56 -519l226 519h149l-319 -700h-157
l-51 462l-212 -462h-157z" />
    <glyph glyph-name="wdieresis" unicode="&#x1e85;" horiz-adv-x="778" 
d="M346 549q-28 0 -44 19.5t-11 47.5t28 48t51 20t44.5 -20t11.5 -48t-28.5 -47.5t-51.5 -19.5zM536 549q-28 0 -44 19.5t-11 47.5t28 48t51 20t44.5 -20t11.5 -48t-28.5 -47.5t-51.5 -19.5zM665 500h142l-247 -500h-123l-39 302l-138 -302h-130l-71 500h129l36 -307
l140 307h125l39 -308z" />
    <glyph glyph-name="Ygrave" unicode="&#x1ef2;" horiz-adv-x="601" 
d="M468 763h-122l-90 137h150zM678 700l-298 -390l-55 -310h-137l55 312l-161 388h147l98 -258l187 258h164z" />
    <glyph glyph-name="ygrave" unicode="&#x1ef3;" horiz-adv-x="525" 
d="M381 563h-122l-90 137h150zM424 500h143l-270 -500q-61 -114 -133.5 -159.5t-166.5 -40.5l21 120q53 -1 84 19.5t58 73.5l3 5l-116 482h132l74 -337z" />
    <glyph glyph-name="endash" unicode="&#x2013;" horiz-adv-x="624" 
d="M63 240l22 124h493l-21 -124h-494z" />
    <glyph glyph-name="emdash" unicode="&#x2014;" horiz-adv-x="724" 
d="M63 240l22 124h593l-21 -124h-594z" />
    <glyph glyph-name="quoteleft" unicode="&#x2018;" horiz-adv-x="278" 
d="M79 422l124 278h105l-89 -278h-140z" />
    <glyph glyph-name="quoteright" unicode="&#x2019;" horiz-adv-x="278" 
d="M308 701l-124 -278h-105l89 278h140z" />
    <glyph glyph-name="quotesinglbase" unicode="&#x201a;" horiz-adv-x="278" 
d="M209 138l-124 -278h-105l89 278h140z" />
    <glyph glyph-name="quotedblleft" unicode="&#x201c;" horiz-adv-x="463" 
d="M79 422l124 278h105l-89 -278h-140zM264 422l124 278h105l-89 -278h-140z" />
    <glyph glyph-name="quotedblright" unicode="&#x201d;" horiz-adv-x="463" 
d="M308 701l-124 -278h-105l89 278h140zM493 701l-124 -278h-105l89 278h140z" />
    <glyph glyph-name="quotedblbase" unicode="&#x201e;" horiz-adv-x="463" 
d="M209 138l-124 -278h-105l89 278h140zM394 138l-124 -278h-105l89 278h140z" />
    <glyph glyph-name="dagger" unicode="&#x2020;" horiz-adv-x="480" 
d="M490 565l-21 -124h-131l-77 -441h-129l77 441h-130l21 124h131l24 135h129l-24 -135h130z" />
    <glyph glyph-name="daggerdbl" unicode="&#x2021;" horiz-adv-x="480" 
d="M469 441h-131l-31 -182h129l-21 -124h-130l-24 -135h-129l24 135h-131l21 124h132l31 182h-130l21 124h131l24 135h129l-24 -135h130z" />
    <glyph glyph-name="bullet" unicode="&#x2022;" horiz-adv-x="360" 
d="M174 213q-57 0 -90 42.5t-22 100.5q10 57 56 94.5t106 37.5q56 0 88.5 -41.5t22.5 -98.5q-11 -58 -56 -96.5t-105 -38.5z" />
    <glyph glyph-name="ellipsis" unicode="&#x2026;" horiz-adv-x="723" 
d="M87 -13q-35 0 -55 25.5t-14 61.5t34 59.5t65 23.5q35 0 56 -26t14 -61q-6 -35 -34 -59t-66 -24zM315 -13q-35 0 -55 25.5t-14 61.5t34 59.5t65 23.5q35 0 56 -26t14 -61q-6 -35 -34 -59t-66 -24zM542 -13q-35 0 -55 25.5t-14 61.5t34 59.5t65 23.5q35 0 56 -26t14 -61
q-6 -35 -34 -59t-66 -24z" />
    <glyph glyph-name="perthousand" unicode="&#x2030;" horiz-adv-x="1139" 
d="M242 384q-73 0 -113 49t-31 115q10 68 62.5 117t131.5 49q75 0 115 -54t26 -123q-14 -65 -65 -109t-126 -44zM89 107l545 508l59 -37l-545 -509zM255 485q27 0 47.5 18.5t25.5 45.5t-9 45t-41 18t-47.5 -18t-25.5 -45t9 -45.5t41 -18.5zM510 -12q-74 0 -113.5 51
t-28.5 117q10 67 62.5 114.5t130.5 47.5q74 0 114 -53t27 -120q-13 -66 -64.5 -111.5t-127.5 -45.5zM884 -12q-74 0 -113.5 51t-29.5 117q11 68 63 115t131 47q74 0 114 -53t27 -120q-13 -66 -64.5 -111.5t-127.5 -45.5zM523 89q28 0 48.5 19t25.5 45q5 28 -9 46t-42 18
q-27 0 -47 -18.5t-25 -45.5t8.5 -45.5t40.5 -18.5zM897 89q27 0 48 19t26 45q5 27 -9.5 45.5t-41.5 18.5t-47.5 -18.5t-25.5 -45.5t9 -45.5t41 -18.5z" />
    <glyph glyph-name="guilsinglleft" unicode="&#x2039;" horiz-adv-x="356" 
d="M337 497l-144 -192l75 -183h-118l-77 187l141 188h123z" />
    <glyph glyph-name="guilsinglright" unicode="&#x203a;" horiz-adv-x="357" 
d="M227 496l77 -187l-141 -188h-123l144 192l-75 183h118z" />
    <glyph glyph-name="fraction" unicode="&#x2044;" horiz-adv-x="190" 
d="M-99 0h-95l518 700h95z" />
    <glyph glyph-name="Euro" unicode="&#x20ac;" horiz-adv-x="616" 
d="M336 121q78 0 131 81l108 -66q-87 -150 -258 -150q-109 0 -169 73.5t-60 197.5h-70l14 78h61q1 4 2 12t2 12l3 15h-62l14 77h68q40 124 122 193.5t194 69.5q74 0 128 -39t78 -106l-120 -63q-29 74 -105 74q-104 0 -155 -129h205l-14 -77h-214q-4 -16 -5 -24
q-2 -10 -2 -15h215l-14 -78h-207q2 -136 110 -136z" />
    <glyph glyph-name="uni20BD" unicode="&#x20bd;" horiz-adv-x="602" 
d="M428 700q93 0 152 -72.5t42 -168.5q-17 -98 -90.5 -157t-183.5 -59h-124l-10 -55h223l-16 -88h-222l-18 -100h-137l18 100h-76l16 88h75l10 55h-75l21 121h75l59 336h261zM486 468q8 44 -15 73.5t-65 29.5h-125l-36 -207h124q42 0 75.5 30t41.5 74z" />
    <glyph glyph-name="uni2116" unicode="&#x2116;" horiz-adv-x="1040" 
d="M864 383q-71 0 -112 50.5t-28 119.5q11 69 66 114.5t129 45.5q71 0 111.5 -50t28.5 -120q-12 -69 -65.5 -114.5t-129.5 -45.5zM21 0l123 700h104l225 -437l76 437h138l-123 -700h-104l-224 437l-77 -437h-138zM881 488q27 0 46 17t23 43q5 26 -8.5 43t-39.5 17t-45 -17
t-24 -43t8 -43t40 -17zM677 208l21 121h312l-21 -121h-312z" />
    <glyph glyph-name="trademark" unicode="&#x2122;" horiz-adv-x="474" 
d="M273 644h-55l-25 -144h-60l25 144h-56l10 56h171zM520 700l-35 -200h-58l19 108l-61 -72h-5l-34 72l-19 -108h-58l35 200h58l32 -77l60 77h66z" />
    <glyph glyph-name="estimated" unicode="&#x212e;" horiz-adv-x="790" 
d="M476 710q161 0 247.5 -104.5t59.5 -255.5q-3 -15 -18 -15h-560q-15 0 -18 -15l-33 -192q-3 -11 3 -19q69 -89 218 -89q143 0 250 97q9 9 19 9h35q10 0 12 -6t-6 -13q-130 -117 -316 -117q-173 0 -262.5 108t-62.5 262q27 152 146.5 251t285.5 99zM673 574q1 11 -4 19
q-67 87 -198 87q-129 0 -229 -89q-9 -9 -10 -19l-34 -192q-3 -15 12 -15h410q15 0 18 15z" />
    <glyph glyph-name="oneeighth" unicode="&#x215b;" horiz-adv-x="806" 
d="M591 700h95l-518 -700h-95zM169 585l-85 -23l-10 95l128 43h94l-71 -400h-107zM779 290q-9 -54 -59 -83q49 -37 40 -102q-9 -56 -54 -87.5t-118 -31.5q-69 0 -106.5 35.5t-27.5 91.5q11 66 77 99q-40 33 -31 87q10 55 53 85t106 30q59 0 94.5 -34.5t25.5 -89.5zM590 285
q-4 -19 7.5 -29t34.5 -10q46 0 54 39q3 18 -8 28t-33 10q-49 0 -55 -38zM662 124q4 21 -8 33t-36 12q-53 0 -61 -45q-4 -21 7.5 -33.5t36.5 -12.5q53 0 61 46z" />
    <glyph glyph-name="threeeighths" unicode="&#x215c;" horiz-adv-x="887" 
d="M349 414q-11 -64 -56 -96t-117 -32q-112 0 -144 89l94 50q16 -45 62 -45q48 0 54 41q4 19 -8 29.5t-36 10.5h-19l-29 57l81 85h-142l17 97h275l-14 -79l-85 -88q38 -15 56 -46.5t11 -72.5zM672 700h95l-518 -700h-95zM860 290q-9 -54 -59 -83q49 -37 40 -102
q-9 -56 -54 -87.5t-118 -31.5q-69 0 -106.5 35.5t-27.5 91.5q11 66 77 99q-40 33 -31 87q10 55 53 85t106 30q59 0 94.5 -34.5t25.5 -89.5zM671 285q-4 -19 7.5 -29t34.5 -10q46 0 54 39q3 18 -8 28t-33 10q-49 0 -55 -38zM743 124q4 21 -8 33t-36 12q-53 0 -61 -45
q-4 -21 7.5 -33.5t36.5 -12.5q53 0 61 46z" />
    <glyph glyph-name="fiveeighths" unicode="&#x215d;" horiz-adv-x="874" 
d="M342 411q-11 -63 -55 -94t-111 -31q-108 0 -140 89l92 48q15 -45 61 -45q49 0 56 41q3 19 -7.5 31t-33.5 12h-132l59 238h242l-17 -97h-151l-13 -54h32q59 0 94 -36.5t24 -101.5zM659 700h95l-518 -700h-95zM847 290q-9 -54 -59 -83q49 -37 40 -102q-9 -56 -54 -87.5
t-118 -31.5q-69 0 -106.5 35.5t-27.5 91.5q11 66 77 99q-40 33 -31 87q10 55 53 85t106 30q59 0 94.5 -34.5t25.5 -89.5zM658 285q-4 -19 7.5 -29t34.5 -10q46 0 54 39q3 18 -8 28t-33 10q-49 0 -55 -38zM730 124q4 21 -8 33t-36 12q-53 0 -61 -45q-4 -21 7.5 -33.5
t36.5 -12.5q53 0 61 46z" />
    <glyph glyph-name="seveneighths" unicode="&#x215e;" horiz-adv-x="834" 
d="M165 300h-114l171 303h-157l17 97h276l-14 -82zM619 700h95l-518 -700h-95zM807 290q-9 -54 -59 -83q49 -37 40 -102q-9 -56 -54 -87.5t-118 -31.5q-69 0 -106.5 35.5t-27.5 91.5q11 66 77 99q-40 33 -31 87q10 55 53 85t106 30q59 0 94.5 -34.5t25.5 -89.5zM618 285
q-4 -19 7.5 -29t34.5 -10q46 0 54 39q3 18 -8 28t-33 10q-49 0 -55 -38zM690 124q4 21 -8 33t-36 12q-53 0 -61 -45q-4 -21 7.5 -33.5t36.5 -12.5q53 0 61 46z" />
    <glyph glyph-name="arrowleft" unicode="&#x2190;" horiz-adv-x="798" 
d="M781 412l-22 -124h-480l196 -238h-165l-247 300l353 300h181l-280 -238h464z" />
    <glyph glyph-name="arrowup" unicode="&#x2191;" horiz-adv-x="690" 
d="M671 400l-28 -163l-194 236l-83 -473h-129l81 456l-278 -235l31 179l353 300z" />
    <glyph glyph-name="arrowright" unicode="&#x2192;" horiz-adv-x="798" 
d="M524 650l247 -300l-352 -300h-181l279 238h-465l21 124h483l-197 238h165z" />
    <glyph glyph-name="arrowdown" unicode="&#x2193;" horiz-adv-x="690" 
d="M408 244l277 236l-31 -180l-353 -300l-247 300l29 163l194 -235l83 472h129z" />
    <glyph glyph-name="arrowboth" unicode="&#x2194;" horiz-adv-x="1085" 
d="M926 355l132 -5l-321 -272h-176l245 210h-531l173 -210h-161l-224 272l320 273h178l-248 -211h532l-173 211h162l224 -273l-132 6v-1z" />
    <glyph glyph-name="arrowupdn" unicode="&#x2195;" horiz-adv-x="635" 
d="M619 414l-171 208l-94 -529l245 207l-31 -175l-320 -273l-224 273l28 161l171 -208l93 531l-244 -209l31 175l320 273l224 -273z" />
    <glyph glyph-name="uni2196" unicode="&#x2196;" horiz-adv-x="643" 
d="M633 493h-342l286 -349l-96 -81l-286 348l-61 -342l-99 120l75 424h424z" />
    <glyph glyph-name="uni2197" unicode="&#x2197;" horiz-adv-x="644" 
d="M239 613h424l-75 -424l-143 -121l58 327l-399 -338l-80 95l401 341h-329z" />
    <glyph glyph-name="uni2198" unicode="&#x2198;" horiz-adv-x="643" 
d="M542 617l100 -120l-75 -424h-424l-100 120h343l-287 349l96 81l287 -347z" />
    <glyph glyph-name="uni2199" unicode="&#x2199;" horiz-adv-x="644" 
d="M653 535l-402 -342h329l-142 -120h-424l75 424l142 120l-58 -328l400 340z" />
    <glyph glyph-name="partialdiff" unicode="&#x2202;" horiz-adv-x="584" 
d="M322 714q118 0 189.5 -106.5t43.5 -266.5q-30 -175 -119.5 -265t-213.5 -90q-99 0 -151 66t-36 157q18 102 88.5 163.5t171.5 61.5q83 0 138 -40q6 92 -32 144.5t-117 53.5q-57 2 -121 -32l21 118q63 36 138 36zM240 108q60 0 104.5 47t67.5 129q-43 36 -112 36
q-51 0 -89 -30.5t-47 -85.5q-8 -44 13 -70t63 -26z" />
    <glyph glyph-name="emptyset" unicode="&#x2205;" horiz-adv-x="805" 
d="M835 720l-116 -119q87 -110 62 -260q-27 -150 -148 -251.5t-272 -101.5q-103 0 -182 57l-63 -65h-111l116 120q-89 112 -62 260q26 149 148 250.5t273 101.5q103 0 181 -57l63 65h111zM148 350q-20 -107 37 -184l412 423q-57 35 -129 35q-113 0 -206.5 -79.5
t-113.5 -194.5zM692 350q19 107 -37 184l-411 -423q56 -35 128 -35q113 0 206.5 80t113.5 194z" />
    <glyph glyph-name="product" unicode="&#x220f;" horiz-adv-x="640" 
d="M-14 -200l158 900h510l-158 -900h-129l137 776h-252l-137 -776h-129z" />
    <glyph glyph-name="summation" unicode="&#x2211;" horiz-adv-x="563" 
d="M-44 -200l21 121l276 352l-141 330l17 97h460l-21 -124h-309l135 -317l-262 -335h336l-22 -124h-490z" />
    <glyph glyph-name="minus" unicode="&#x2212;" horiz-adv-x="555" 
d="M59 290l22 121h450l-22 -121h-450z" />
    <glyph glyph-name="radical" unicode="&#x221a;" horiz-adv-x="676" 
d="M225 0l-87 199h-102l22 124h167l70 -173l333 650h140l-418 -800h-125z" />
    <glyph glyph-name="infinity" unicode="&#x221e;" horiz-adv-x="808" 
d="M620 525q77 0 121.5 -52t31.5 -130q-14 -78 -70.5 -123t-135.5 -45q-86 0 -159 87q-99 -87 -184 -87q-78 0 -123 52t-31 130t71 123t137 45q86 0 158 -87q96 87 184 87zM246 291q43 0 100 59q-35 59 -79 59q-25 0 -44 -17t-24 -42t8.5 -42t38.5 -17zM644 350q5 25 -8 42
t-39 17q-43 0 -99 -59q35 -59 79 -59q25 0 43.5 17t23.5 42z" />
    <glyph glyph-name="integral" unicode="&#x222b;" horiz-adv-x="441" 
d="M-80 -204l22 129q29 -18 66 -3t52 59l193 561q72 212 268 160l-23 -128q-31 17 -67.5 2.5t-51.5 -58.5l-193 -562q-74 -212 -266 -160z" />
    <glyph glyph-name="approxequal" unicode="&#x2248;" horiz-adv-x="569" 
d="M311 379q-44 23 -74.5 27.5t-47.5 -3t-39 -26.5l-78 28q37 100 103 128t145 -14q59 -31 94.5 -27t56.5 51l95 -51q-36 -95 -106 -125t-149 12zM134 157l-96 51q37 95 107 125t148 -12q45 -23 75.5 -27t47 3t38.5 26l77 -28q-37 -100 -102.5 -128t-144.5 14
q-59 31 -94.5 27t-55.5 -51z" />
    <glyph glyph-name="notequal" unicode="&#x2260;" horiz-adv-x="525" 
d="M505 393h-157l-53 -86h195l-22 -121h-249l-81 -131h-82l81 131h-103l22 121h157l53 86h-195l21 121h250l81 131h82l-81 -131h102z" />
    <glyph glyph-name="lessequal" unicode="&#x2264;" horiz-adv-x="528" 
d="M554 653l-25 -141l-305 -89l273 -90l-22 -127l-408 166l20 114zM11 55l21 121h438l-22 -121h-437z" />
    <glyph glyph-name="greaterequal" unicode="&#x2265;" horiz-adv-x="528" 
d="M116 653l408 -167l-20 -114l-467 -166l25 139l305 90l-273 89zM11 55l21 121h438l-22 -121h-437z" />
    <glyph glyph-name="lozenge" unicode="&#x25ca;" horiz-adv-x="555" 
d="M185 0l-124 350l247 350h98l125 -350l-248 -350h-98zM258 170l135 191l-60 169l-135 -191z" />
    <glyph glyph-name="i.loclTRK" horiz-adv-x="247" 
d="M177 551q-32 0 -51 23t-13 55q5 31 31.5 54t58.5 23t51 -23t14 -54q-6 -32 -33 -55t-58 -23zM15 0l88 500h129l-88 -500h-129z" />
    <glyph glyph-name="f_f_j" horiz-adv-x="834" 
d="M819 500l-89 -510q-20 -115 -81.5 -163t-172.5 -41l22 124q45 -3 70 16t33 64l67 386h-147l-66 -376h-129l66 376h-148l-66 -376h-129l66 376h-71l21 124h72l1 5q38 224 272 209l-22 -124q-105 8 -121 -85l-1 -5h148l3 15q19 108 85.5 158.5t186.5 50.5q54 0 115 -14
l-21 -118q-44 8 -98 8q-124 0 -139 -85l-3 -15h276z" />
    <glyph glyph-name="f_j" horiz-adv-x="557" 
d="M542 500l-90 -510q-20 -115 -81 -163t-172 -41l22 124q88 -6 102 80l68 386h-147l-66 -376h-129l66 376h-71l21 124h72l1 5q19 108 85.5 158.5t186.5 50.5q53 0 114 -14l-20 -118q-44 8 -99 8q-123 0 -138 -85l-1 -5h276z" />
    <glyph glyph-name="uni0414.loclBGR" horiz-adv-x="730" 
d="M613 132h79l-47 -266h-138l24 134h-420l-24 -134h-138l48 266h79l283 568h171zM223 132h250l-52 412z" />
    <glyph glyph-name="uni041B.loclBGR" horiz-adv-x="632" 
d="M-42 0l352 700h171l105 -700h-146l-66 540l-262 -540h-154z" />
    <glyph glyph-name="uni0424.loclBGR" horiz-adv-x="860" 
d="M576 707q144 -21 218.5 -121t48.5 -245q-27 -151 -131.5 -243t-262.5 -107l-16 -91h-130l16 93q-144 21 -218.5 121.5t-48.5 245.5q27 151 131.5 243t262.5 106l16 91h130zM189 350q-17 -98 21 -157t132 -74l82 463q-199 -30 -235 -232zM706 350q34 202 -152 232
l-82 -463q98 14 157.5 73.5t76.5 157.5z" />
    <glyph glyph-name="uni0414.ss01" horiz-adv-x="705" 
d="M682 700l-100 -568h75l-24 -132h-661l22 132h68q72 78 100 237l58 331h462zM215 132h229l78 439h-187l-36 -204q-27 -154 -84 -235z" />
    <glyph glyph-name="uni0426.ss01" horiz-adv-x="690" 
d="M567 132h75l-23 -132h-598l123 700h138l-100 -568h247l100 568h138z" />
    <glyph glyph-name="uni0429.ss01" horiz-adv-x="980" 
d="M857 132h75l-23 -132h-888l123 700h138l-100 -568h200l100 568h137l-100 -568h200l100 568h138z" />
    <glyph glyph-name="uni0414.loclBGR.ss01" horiz-adv-x="730" 
d="M613 132h79l-23 -132h-696l24 132h79l283 568h171zM223 132h250l-52 412z" />
    <glyph glyph-name="uni0432.loclBGR" horiz-adv-x="567" 
d="M532 529q-12 -71 -88 -129q49 -27 72 -77t11 -118q-19 -107 -88 -163t-182 -56q-105 0 -162.5 69t-38.5 178l42 239q20 116 87.5 179t171.5 63q86 0 137 -52.5t38 -132.5zM344 593q-43 0 -75.5 -33.5t-42.5 -90.5l-10 -60l50 10q30 6 60 6q70 50 78 100q6 30 -10.5 49
t-49.5 19zM398 214q10 59 -30.5 82t-122.5 6l-50 -10l-11 -63q-9 -55 14.5 -86.5t73.5 -31.5q52 0 85 27t41 76z" />
    <glyph glyph-name="uni0433.loclBGR" horiz-adv-x="468" 
d="M204 -14q-90 0 -145 49.5t-40 127.5q9 50 40.5 81t71 42.5t78 18.5t67 18t31.5 33q4 20 -11 31.5t-40 11.5q-56 0 -88 -53l-102 62q63 106 200 106q82 0 134 -51t39 -126q-9 -48 -40.5 -78.5t-71 -41.5t-78 -18t-67 -17.5t-31.5 -30.5q-4 -23 12.5 -35.5t48.5 -12.5
q73 0 109 67l101 -67q-31 -56 -87.5 -86.5t-130.5 -30.5z" />
    <glyph glyph-name="uni0434.loclBGR" horiz-adv-x="628" 
d="M487 500h126l-84 -476q-21 -122 -99 -180t-190 -58q-83 0 -142.5 31t-86.5 91l115 60q31 -67 123 -67q63 0 103.5 31.5t50.5 91.5l8 44q-66 -66 -166 -66q-115 0 -171 79t-38 188q17 102 93.5 173.5t182.5 71.5q115 0 162 -86zM281 123q59 0 104.5 36t57.5 94l2 10
q9 59 -25.5 94.5t-93.5 35.5t-105.5 -37t-56.5 -97q-10 -59 23 -97.5t94 -38.5z" />
    <glyph glyph-name="uni0436.loclBGR" horiz-adv-x="746" 
d="M-32 0l230 265l-130 235h129l118 -214l74 414h126l-75 -418l188 218h143l-220 -252l138 -248h-131l-126 229l-41 -229h-126l40 227l-198 -227h-139z" />
    <glyph glyph-name="uni0438.loclBGR" 
d="M431 500h129l-88 -500h-129l10 54q-59 -68 -155 -68q-84 0 -130 56t-29 151l54 307h129l-51 -291q-9 -51 13.5 -77t67.5 -26q46 0 80.5 27t48.5 81z" />
    <glyph glyph-name="uni0439.loclBGR" 
d="M497 676l-19 -112h-290l19 112h290zM431 500h129l-88 -500h-129l10 54q-59 -68 -155 -68q-84 0 -130 56t-29 151l54 307h129l-51 -291q-9 -51 13.5 -77t67.5 -26q46 0 80.5 27t48.5 81z" />
    <glyph glyph-name="uni043A.loclBGR" horiz-adv-x="517" 
d="M550 500l-241 -247l159 -253h-140l-143 235l-41 -235h-129l123 700h129l-72 -411l202 211h153z" />
    <glyph glyph-name="uni043B.loclBGR" horiz-adv-x="500" 
d="M454 0h-133l-50 341l-170 -341h-143l270 500h132z" />
    <glyph glyph-name="uni043F.loclBGR" 
d="M377 514q84 0 130 -56t29 -151l-54 -307h-129l51 291q9 51 -13.5 77t-67.5 26q-46 0 -80.5 -27t-48.5 -81l-50 -286h-129l88 500h129l-10 -54q59 68 155 68z" />
    <glyph glyph-name="uni0442.loclBGR" horiz-adv-x="850" 
d="M654 514q85 0 129.5 -57t28.5 -149l-55 -308h-129l52 299q8 45 -9.5 70t-57.5 25q-84 0 -110 -95l-52 -299h-129l52 299q8 45 -9.5 70t-56.5 25q-44 0 -74.5 -28t-39.5 -82l-50 -284h-129l88 500h129l-9 -50q58 64 145 64q92 0 127 -75q61 75 159 75z" />
    <glyph glyph-name="uni0446.loclBGR" horiz-adv-x="614" 
d="M525 121h44l-46 -255h-126l25 144q-37 15 -50 49q-69 -73 -169 -73q-90 0 -135.5 56t-29.5 151l54 307h129l-51 -290q-9 -52 13.5 -78t68.5 -26q49 0 85 30.5t46 93.5v-1l48 271h129l-61 -347q-5 -32 26 -32z" />
    <glyph glyph-name="uni0448.loclBGR" horiz-adv-x="850" 
d="M706 500h129l-88 -500h-129l9 50q-58 -64 -145 -64q-92 0 -127 75q-61 -75 -159 -75q-85 0 -129.5 57t-28.5 149l55 308h129l-52 -299q-8 -45 9.5 -70t57.5 -25q84 0 110 95l52 299h129l-52 -299q-8 -45 9.5 -70t56.5 -25q44 0 74.5 28t39.5 82z" />
    <glyph glyph-name="uni0449.loclBGR" horiz-adv-x="889" 
d="M800 121h44l-46 -255h-126l25 144q-35 14 -48 45q-63 -69 -160 -69t-132 73q-62 -73 -161 -73q-85 0 -129.5 57t-28.5 149l54 308h129l-52 -298q-8 -45 10 -70.5t58 -25.5q43 0 72.5 28.5t39.5 82.5v-1l50 284h129l-52 -298q-8 -46 9 -71t57 -25q42 0 71.5 26t40.5 76
l52 292h129l-61 -347q-5 -32 26 -32z" />
    <glyph glyph-name="uni044C.loclBGR" horiz-adv-x="491" 
d="M286 361q90 0 136.5 -54t31.5 -139q-14 -82 -76.5 -132t-155.5 -50q-95 0 -147 58t-38 143l55 313h126l-24 -139h92zM330 178q5 30 -11.5 49.5t-53.5 19.5h-91l-11 -60q-6 -36 13.5 -57.5t58.5 -21.5q37 0 63.5 21t31.5 49z" />
    <glyph glyph-name="uni044A.loclBGR" horiz-adv-x="579" 
d="M374 361q90 0 136.5 -54t31.5 -140q-14 -82 -76.5 -131.5t-155.5 -49.5q-95 0 -147 58t-38 143l34 192h-136l21 121h262l-24 -139h92zM418 177q5 31 -11.5 50.5t-53.5 19.5h-91l-11 -60q-6 -36 13.5 -57.5t58.5 -21.5q37 0 63.5 20.5t31.5 48.5z" />
    <glyph glyph-name="uni044E.loclBGR" horiz-adv-x="811" 
d="M557 514q115 0 177 -83.5t42 -193.5q-18 -106 -102 -178.5t-192 -72.5q-101 0 -162 57.5t-68 146.5h-75l-33 -190h-129l123 700h129l-68 -389h70q32 90 109 146.5t179 56.5zM650 251q11 62 -21.5 99.5t-89.5 37.5t-102 -37.5t-57 -100.5q-10 -63 22 -100.5t88 -37.5
q57 0 103 38t57 101z" />
    <glyph glyph-name="zero.sinf" horiz-adv-x="409" 
d="M134 -174q-80 0 -122 61t-26 159q18 98 75 153t140 55q79 0 122 -61.5t26 -158.5q-17 -98 -74 -153t-141 -55zM149 -67q34 0 57.5 28t32.5 79q9 52 -4.5 79.5t-48.5 27.5q-34 0 -57.5 -28t-32.5 -79t5 -79t48 -28z" />
    <glyph glyph-name="one.sinf" horiz-adv-x="266" 
d="M121 240h94l-71 -400h-107l51 285l-85 -23l-10 95z" />
    <glyph glyph-name="two.sinf" horiz-adv-x="352" 
d="M-46 -160l12 70l178 153q43 37 46 58q3 16 -6 25.5t-27 9.5q-39 0 -70 -53l-84 53q26 45 69.5 71.5t98.5 26.5q64 0 101 -38t25 -101q-6 -31 -27 -57t-61 -59l-73 -62h135l-17 -97h-300z" />
    <glyph glyph-name="three.sinf" horiz-adv-x="344" 
d="M300 240l-14 -79l-85 -88q38 -15 56 -46.5t11 -72.5q-11 -64 -56 -96t-117 -32q-112 0 -144 89l94 50q16 -45 62 -45q48 0 54 41q4 19 -8 29.5t-36 10.5h-19l-29 57l81 85h-142l17 97h275z" />
    <glyph glyph-name="four.sinf" horiz-adv-x="357" 
d="M296 2l-16 -98h-41l-11 -64h-102l11 64h-186l16 98l167 238h118l-162 -238h65l12 69h102l-12 -69h39z" />
    <glyph glyph-name="five.sinf" horiz-adv-x="334" 
d="M275 143h-151l-13 -54h32q59 0 94 -36.5t24 -101.5q-11 -63 -55 -94t-111 -31q-108 0 -140 89l92 48q15 -45 61 -45q49 0 56 41q3 19 -7.5 31t-33.5 12h-132l59 238h242z" />
    <glyph glyph-name="six.sinf" horiz-adv-x="342" 
d="M164 110q59 -7 90 -48.5t21 -98.5q-11 -63 -58.5 -100t-118.5 -37q-67 0 -104 43t-26 106q8 43 31 72l154 193h117zM177 -31q4 25 -8.5 38t-38.5 13q-52 0 -63 -51q-5 -25 7.5 -39t37.5 -14q54 0 65 53z" />
    <glyph glyph-name="seven.sinf" horiz-adv-x="296" 
d="M1 240h276l-14 -82l-179 -318h-114l171 303h-157z" />
    <glyph glyph-name="eight.sinf" horiz-adv-x="350" 
d="M294 130q-9 -54 -59 -83q49 -37 40 -102q-9 -56 -54 -87.5t-118 -31.5q-69 0 -106.5 35.5t-27.5 91.5q11 66 77 99q-40 33 -31 87q10 55 53 85t106 30q59 0 94.5 -34.5t25.5 -89.5zM105 125q-4 -19 7.5 -29t34.5 -10q46 0 54 39q3 18 -8 28t-33 10q-49 0 -55 -38z
M177 -36q4 21 -8 33t-36 12q-53 0 -61 -45q-4 -21 7.5 -33.5t36.5 -12.5q53 0 61 46z" />
    <glyph glyph-name="nine.sinf" horiz-adv-x="342" 
d="M170 254q66 0 103.5 -43t26.5 -106q-9 -50 -40 -82l-145 -183h-116l105 130q-58 7 -89.5 48.5t-21.5 98.5q11 63 58.5 100t118.5 37zM91 111q-4 -25 8.5 -38t38.5 -13q52 0 63 51q5 25 -7.5 39t-37.5 14q-54 0 -65 -53z" />
    <glyph glyph-name="zero.tf" horiz-adv-x="578" 
d="M249 -14q-129 0 -189.5 104.5t-31.5 268.5q29 165 117 260t220 95q129 0 189 -104.5t31 -268.5q-29 -165 -116.5 -260t-219.5 -95zM266 121q70 0 116 58.5t66 170.5q20 111 -5.5 170.5t-95.5 59.5t-116 -59t-66 -171t5.5 -170.5t95.5 -58.5z" />
    <glyph glyph-name="one.tf" horiz-adv-x="578" 
d="M348 132h190l-23 -132h-530l23 132h203l73 417l-138 -37l-13 123l195 65h120z" />
    <glyph glyph-name="two.tf" horiz-adv-x="578" 
d="M-10 0l18 103l295 231q57 44 88.5 78t37.5 70q7 41 -14 69.5t-72 28.5q-83 0 -144 -94l-109 71q46 77 118 117t156 40q102 0 161.5 -68t42.5 -165q-11 -66 -52.5 -117t-123.5 -115l-152 -116h277l-23 -133h-504z" />
    <glyph glyph-name="three.tf" horiz-adv-x="578" 
d="M595 700l-19 -114l-167 -166q71 -25 108 -82t24 -135q-19 -108 -98.5 -162.5t-194.5 -54.5q-96 0 -159 41.5t-85 122.5l126 66q27 -95 129 -95q62 0 99 26t45 73q8 46 -20 72.5t-90 26.5h-27l-41 82l170 170h-294l22 129h472z" />
    <glyph glyph-name="four.tf" horiz-adv-x="578" 
d="M561 247l-22 -128h-77l-21 -119h-139l21 119h-337l22 128l306 453h155l-307 -453h184l28 161h139l-28 -161h76z" />
    <glyph glyph-name="five.tf" horiz-adv-x="578" 
d="M573 571h-299l-32 -126h89q105 0 167 -65t43 -173t-98 -164.5t-189 -56.5q-200 0 -247 164l126 66q25 -95 133 -95q60 0 95.5 25.5t43.5 69.5q8 43 -18.5 69t-86.5 26h-226l96 389h425z" />
    <glyph glyph-name="six.tf" horiz-adv-x="578" 
d="M333 480q120 -5 177.5 -79t41.5 -175q-18 -102 -97 -171t-207 -69q-129 0 -190.5 76.5t-42.5 182.5q16 81 71 141l281 314h162zM416 233q10 55 -21.5 86.5t-90.5 31.5q-61 0 -102 -31t-51 -87q-10 -55 21 -86t91 -31q61 0 102 31t51 86z" />
    <glyph glyph-name="seven.tf" horiz-adv-x="578" 
d="M104 700h520l-20 -117l-360 -583h-153l350 568h-360z" />
    <glyph glyph-name="eight.tf" horiz-adv-x="578" 
d="M581 505q-17 -93 -107 -144q45 -30 65 -74.5t10 -96.5q-17 -97 -96 -150.5t-206 -53.5q-124 0 -189 59t-48 156q20 110 134 166q-72 55 -56 146q17 97 95 149t185 52q105 0 167.5 -56t45.5 -153zM224 502q-6 -38 19 -60.5t75 -22.5q51 0 84.5 22.5t39.5 60.5
q7 38 -18.5 60t-75.5 22q-52 0 -84.5 -22t-39.5 -60zM415 213q8 46 -21.5 71t-93.5 25t-103 -25t-47 -71t22 -71.5t93 -25.5q64 0 103 25.5t47 71.5z" />
    <glyph glyph-name="nine.tf" horiz-adv-x="578" 
d="M365 714q129 0 190.5 -76.5t42.5 -181.5q-14 -78 -69 -139l-283 -317h-162l196 220q-120 4 -177.5 78t-41.5 176q17 102 96.5 171t207.5 69zM197 467q-10 -55 21 -86t91 -31q61 0 102 30.5t51 86.5q10 55 -21 86t-91 31q-61 0 -102 -31t-51 -86z" />
    <glyph glyph-name="zero.dnom" horiz-adv-x="409" 
d="M162 -14q-80 0 -122 61t-26 159q18 98 75 153t140 55q79 0 122 -61.5t26 -158.5q-17 -98 -74 -153t-141 -55zM177 93q34 0 57.5 28t32.5 79q9 52 -4.5 79.5t-48.5 27.5q-34 0 -57.5 -28t-32.5 -79t5 -79t48 -28z" />
    <glyph glyph-name="one.dnom" horiz-adv-x="267" 
d="M149 400h94l-71 -400h-107l51 285l-85 -23l-10 95z" />
    <glyph glyph-name="two.dnom" horiz-adv-x="356" 
d="M-18 0l12 70l178 153q43 37 46 58q3 16 -6 25.5t-27 9.5q-39 0 -70 -53l-84 53q26 45 69.5 71.5t98.5 26.5q64 0 101 -38t25 -101q-6 -31 -27 -57t-61 -59l-73 -62h135l-17 -97h-300z" />
    <glyph glyph-name="three.dnom" horiz-adv-x="348" 
d="M328 400l-14 -79l-85 -88q38 -15 56 -46.5t11 -72.5q-11 -64 -56 -96t-117 -32q-112 0 -144 89l94 50q16 -45 62 -45q48 0 54 41q4 19 -8 29.5t-36 10.5h-19l-29 57l81 85h-142l17 97h275z" />
    <glyph glyph-name="four.dnom" horiz-adv-x="356" 
d="M324 162l-16 -98h-41l-11 -64h-102l11 64h-186l16 98l167 238h118l-162 -238h65l12 69h102l-12 -69h39z" />
    <glyph glyph-name="five.dnom" horiz-adv-x="335" 
d="M303 303h-151l-13 -54h32q59 0 94 -36.5t24 -101.5q-11 -63 -55 -94t-111 -31q-108 0 -140 89l92 48q15 -45 61 -45q49 0 56 41q3 19 -7.5 31t-33.5 12h-132l59 238h242z" />
    <glyph glyph-name="six.dnom" horiz-adv-x="341" 
d="M192 270q59 -7 90 -48.5t21 -98.5q-11 -63 -58.5 -100t-118.5 -37q-67 0 -104 43t-26 106q8 43 31 72l154 193h117zM205 129q4 25 -8.5 38t-38.5 13q-52 0 -63 -51q-5 -25 7.5 -39t37.5 -14q54 0 65 53z" />
    <glyph glyph-name="seven.dnom" horiz-adv-x="295" 
d="M29 400h276l-14 -82l-179 -318h-114l171 303h-157z" />
    <glyph glyph-name="eight.dnom" horiz-adv-x="349" 
d="M322 290q-9 -54 -59 -83q49 -37 40 -102q-9 -56 -54 -87.5t-118 -31.5q-69 0 -106.5 35.5t-27.5 91.5q11 66 77 99q-40 33 -31 87q10 55 53 85t106 30q59 0 94.5 -34.5t25.5 -89.5zM133 285q-4 -19 7.5 -29t34.5 -10q46 0 54 39q3 18 -8 28t-33 10q-49 0 -55 -38z
M205 124q4 21 -8 33t-36 12q-53 0 -61 -45q-4 -21 7.5 -33.5t36.5 -12.5q53 0 61 46z" />
    <glyph glyph-name="nine.dnom" horiz-adv-x="341" 
d="M198 414q66 0 103.5 -43t26.5 -106q-9 -50 -40 -82l-145 -183h-116l105 130q-58 7 -89.5 48.5t-21.5 98.5q11 63 58.5 100t118.5 37zM119 271q-4 -25 8.5 -38t38.5 -13q52 0 63 51q5 25 -7.5 39t-37.5 14q-54 0 -65 -53z" />
    <glyph glyph-name="zero.numr" horiz-adv-x="409" 
d="M215 286q-80 0 -122 61t-26 159q18 98 75 153t140 55q79 0 122 -61.5t26 -158.5q-17 -98 -74 -153t-141 -55zM230 393q34 0 57.5 28t32.5 79q9 52 -4.5 79.5t-48.5 27.5q-34 0 -57.5 -28t-32.5 -79t5 -79t48 -28z" />
    <glyph glyph-name="one.numr" horiz-adv-x="267" 
d="M202 700h94l-71 -400h-107l51 285l-85 -23l-10 95z" />
    <glyph glyph-name="two.numr" horiz-adv-x="356" 
d="M35 300l12 70l178 153q43 37 46 58q3 16 -6 25.5t-27 9.5q-39 0 -70 -53l-84 53q26 45 69.5 71.5t98.5 26.5q64 0 101 -38t25 -101q-6 -31 -27 -57t-61 -59l-73 -62h135l-17 -97h-300z" />
    <glyph glyph-name="three.numr" horiz-adv-x="348" 
d="M381 700l-14 -79l-85 -88q38 -15 56 -46.5t11 -72.5q-11 -64 -56 -96t-117 -32q-112 0 -144 89l94 50q16 -45 62 -45q48 0 54 41q4 19 -8 29.5t-36 10.5h-19l-29 57l81 85h-142l17 97h275z" />
    <glyph glyph-name="four.numr" horiz-adv-x="356" 
d="M377 462l-16 -98h-41l-11 -64h-102l11 64h-186l16 98l167 238h118l-162 -238h65l12 69h102l-12 -69h39z" />
    <glyph glyph-name="five.numr" horiz-adv-x="335" 
d="M356 603h-151l-13 -54h32q59 0 94 -36.5t24 -101.5q-11 -63 -55 -94t-111 -31q-108 0 -140 89l92 48q15 -45 61 -45q49 0 56 41q3 19 -7.5 31t-33.5 12h-132l59 238h242z" />
    <glyph glyph-name="six.numr" horiz-adv-x="341" 
d="M245 570q59 -7 90 -48.5t21 -98.5q-11 -63 -58.5 -100t-118.5 -37q-67 0 -104 43t-26 106q8 43 31 72l154 193h117zM258 429q4 25 -8.5 38t-38.5 13q-52 0 -63 -51q-5 -25 7.5 -39t37.5 -14q54 0 65 53z" />
    <glyph glyph-name="seven.numr" horiz-adv-x="295" 
d="M82 700h276l-14 -82l-179 -318h-114l171 303h-157z" />
    <glyph glyph-name="eight.numr" horiz-adv-x="350" 
d="M375 590q-9 -54 -59 -83q49 -37 40 -102q-9 -56 -54 -87.5t-118 -31.5q-69 0 -106.5 35.5t-27.5 91.5q11 66 77 99q-40 33 -31 87q10 55 53 85t106 30q59 0 94.5 -34.5t25.5 -89.5zM186 585q-4 -19 7.5 -29t34.5 -10q46 0 54 39q3 18 -8 28t-33 10q-49 0 -55 -38z
M258 424q4 21 -8 33t-36 12q-53 0 -61 -45q-4 -21 7.5 -33.5t36.5 -12.5q53 0 61 46z" />
    <glyph glyph-name="nine.numr" horiz-adv-x="341" 
d="M251 714q66 0 103.5 -43t26.5 -106q-9 -50 -40 -82l-145 -183h-116l105 130q-58 7 -89.5 48.5t-21.5 98.5q11 63 58.5 100t118.5 37zM172 571q-4 -25 8.5 -38t38.5 -13q52 0 63 51q5 25 -7.5 39t-37.5 14q-54 0 -65 -53z" />
    <glyph glyph-name="zero.sups" horiz-adv-x="409" 
d="M243 446q-80 0 -122 61t-26 159q18 98 75 153t140 55q79 0 122 -61.5t26 -158.5q-17 -98 -74 -153t-141 -55zM258 553q34 0 57.5 28t32.5 79q9 52 -4.5 79.5t-48.5 27.5q-34 0 -57.5 -28t-32.5 -79t5 -79t48 -28z" />
    <glyph glyph-name="one.sups" horiz-adv-x="268" 
d="M230 860h94l-71 -400h-107l51 285l-85 -23l-10 95z" />
    <glyph glyph-name="two.sups" horiz-adv-x="356" 
d="M63 460l12 70l178 153q43 37 46 58q3 16 -6 25.5t-27 9.5q-39 0 -70 -53l-84 53q26 45 69.5 71.5t98.5 26.5q64 0 101 -38t25 -101q-6 -31 -27 -57t-61 -59l-73 -62h135l-17 -97h-300z" />
    <glyph glyph-name="three.sups" horiz-adv-x="349" 
d="M410 860l-14 -79l-85 -88q38 -15 56 -46.5t11 -72.5q-11 -64 -56 -96t-117 -32q-112 0 -144 89l94 50q16 -45 62 -45q48 0 54 41q4 19 -8 29.5t-36 10.5h-19l-29 57l81 85h-142l17 97h275z" />
    <glyph glyph-name="four.sups" horiz-adv-x="356" 
d="M405 622l-16 -98h-41l-11 -64h-102l11 64h-186l16 98l167 238h118l-162 -238h65l12 69h102l-12 -69h39z" />
    <glyph glyph-name="five.sups" horiz-adv-x="334" 
d="M384 763h-151l-13 -54h32q59 0 94 -36.5t24 -101.5q-11 -63 -55 -94t-111 -31q-108 0 -140 89l92 48q15 -45 61 -45q49 0 56 41q3 19 -7.5 31t-33.5 12h-132l59 238h242z" />
    <glyph glyph-name="six.sups" horiz-adv-x="341" 
d="M273 730q59 -7 90 -48.5t21 -98.5q-11 -63 -58.5 -100t-118.5 -37q-67 0 -104 43t-26 106q8 43 31 72l154 193h117zM286 589q4 25 -8.5 38t-38.5 13q-52 0 -63 -51q-5 -25 7.5 -39t37.5 -14q54 0 65 53z" />
    <glyph glyph-name="seven.sups" horiz-adv-x="296" 
d="M111 860h276l-14 -82l-179 -318h-114l171 303h-157z" />
    <glyph glyph-name="eight.sups" horiz-adv-x="349" 
d="M403 750q-9 -54 -59 -83q49 -37 40 -102q-9 -56 -54 -87.5t-118 -31.5q-69 0 -106.5 35.5t-27.5 91.5q11 66 77 99q-40 33 -31 87q10 55 53 85t106 30q59 0 94.5 -34.5t25.5 -89.5zM214 745q-4 -19 7.5 -29t34.5 -10q46 0 54 39q3 18 -8 28t-33 10q-49 0 -55 -38z
M286 584q4 21 -8 33t-36 12q-53 0 -61 -45q-4 -21 7.5 -33.5t36.5 -12.5q53 0 61 46z" />
    <glyph glyph-name="nine.sups" horiz-adv-x="341" 
d="M279 874q66 0 103.5 -43t26.5 -106q-9 -50 -40 -82l-145 -183h-116l105 130q-58 7 -89.5 48.5t-21.5 98.5q11 63 58.5 100t118.5 37zM200 731q-4 -25 8.5 -38t38.5 -13q52 0 63 51q5 25 -7.5 39t-37.5 14q-54 0 -65 -53z" />
    <glyph glyph-name="cent.tf" horiz-adv-x="578" 
d="M308 214q78 0 124 67l104 -67q-38 -62 -101.5 -95t-137.5 -33q-32 0 -66 8l-46 -94h-60l56 113q-64 33 -94.5 99.5t-17.5 147.5q17 110 101.5 182t197.5 72q31 0 58 -6l46 92h60l-54 -109q71 -34 101 -107l-117 -62q-13 33 -43 50l-127 -257q5 -1 16 -1zM198 353
q-14 -81 43 -120l125 254h-9q-58 0 -103.5 -37.5t-55.5 -96.5z" />
    <glyph glyph-name="dollar.tf" horiz-adv-x="578" 
d="M365 407q17 -7 27.5 -11.5t27.5 -12t27.5 -14.5t25 -16.5t23.5 -19t19 -22t15 -27t9 -30.5t4 -35.5t-4 -41.5q-17 -87 -84 -136t-165 -54l-15 -87h-67l16 88q-86 8 -141.5 50t-75.5 109l125 64q26 -81 115 -92l31 178q-45 18 -75 35t-59 43.5t-39.5 64t-2.5 85.5
q17 93 88 140.5t162 48.5l15 86h67l-16 -92q126 -25 171 -138l-121 -63q-25 54 -74 69zM242 514q-8 -49 60 -81l27 149q-36 -3 -59 -20.5t-28 -47.5zM399 192q10 48 -58 79l-27 -151q74 15 85 72z" />
    <glyph glyph-name="Euro.tf" horiz-adv-x="578" 
d="M309 121q74 0 124 85l107 -68q-39 -72 -102.5 -112t-144.5 -40q-97 0 -150.5 73.5t-51.5 197.5h-68l14 78h60q0 4 1.5 12t2.5 12l3 15h-61l14 77h66q38 125 111.5 194t179.5 69q70 0 121.5 -39.5t74.5 -108.5l-120 -62q-21 76 -92 76q-90 0 -135 -129h174l-14 -77h-180
q-4 -16 -5 -24l-3 -15h182l-14 -78h-176q-5 -136 82 -136z" />
    <glyph glyph-name="florin.tf" horiz-adv-x="578" 
d="M352 545q95 211 283 160l-22 -129q-43 16 -79.5 2t-55.5 -58l-47 -106h121l-23 -124h-154l-148 -331q-94 -211 -284 -160l23 128q42 -16 79 -1.5t56 57.5l137 307h-119l23 124h151z" />
    <glyph glyph-name="uni20BD.tf" horiz-adv-x="578" 
d="M398 700q93 0 152 -72.5t42 -168.5q-17 -97 -91.5 -156.5t-182.5 -59.5h-96l-10 -55h195l-16 -88h-194l-18 -100h-138l18 100h-75l15 88h75l10 55h-75l21 121h75l59 336h234zM456 468q8 44 -15 73.5t-65 29.5h-97l-36 -207h96q42 0 75.5 30t41.5 74z" />
    <glyph glyph-name="sterling.tf" horiz-adv-x="578" 
d="M245 274l-25 -141h327l-23 -133h-538l23 133h74l24 141h-60l22 121h60l17 98q20 110 85.5 165.5t162.5 55.5q73 0 126.5 -39t76.5 -107l-123 -64q-27 76 -95 76q-36 0 -62 -22.5t-34 -64.5l-17 -98h212l-22 -121h-211z" />
    <glyph glyph-name="yen.tf" horiz-adv-x="578" 
d="M655 700l-249 -338h133l-14 -80h-162l-8 -45h162l-14 -81h-162l-27 -156h-138l28 156h-161l14 81h161l8 45h-161l14 80h134l-132 338h149l87 -252l175 252h163z" />
    <glyph glyph-name="brevecy" horiz-adv-x="360" 
d="M91 564l19 112h290l-19 -112h-290z" />
    </font>
</defs>
</svg>
