<?xml version="1.0" standalone="no"?>
<!DOCTYPE svg PUBLIC "-//W3C//DTD SVG 1.1//EN" "http://www.w3.org/Graphics/SVG/1.1/DTD/svg11.dtd" >
<svg xmlns="http://www.w3.org/2000/svg" xmlns:xlink="http://www.w3.org/1999/xlink" version="1.1">
<metadata>
Created by FontForge 20170731 at Fri Jul  8 21:54:18 2016
 By Aleksey,,,
Copyright (c) 2015 by Radomir Tinkov. All rights reserved.
</metadata>
<defs>
<font id="Gilroy-LightItalic" horiz-adv-x="570" >
  <font-face 
    font-family="Gilroy-LightItalic"
    font-weight="400"
    font-style="italic"
    font-stretch="normal"
    units-per-em="1000"
    panose-1="0 0 4 0 0 0 0 0 0 0"
    ascent="776"
    descent="-224"
    x-height="500"
    cap-height="700"
    bbox="-296 -240 1039 960"
    underline-thickness="50"
    underline-position="-150"
    slope="-10"
    unicode-range="U+0020-FB02"
  />
<missing-glyph horiz-adv-x="500" 
d="M410 800v-1000h-317v1000h317zM333 733h-165v-33h65v-37h-66v-33h166v33h-66v37h66v33zM267 604h-100v-104h166v34h-66v70zM233 570v-36h-33v36h33zM333 473h-166v-33h66v-37h-66v-33h100v70h66v33zM333 413h-33v-66h-133v-34h166v100zM333 291h-100v-56h34v23h33v-47
h-100v80h-33v-113h166v113zM333 118h-166v-113h166v113zM300 85v-47h-100v47h100zM333 -18h-166v-33h70l-70 -47v-33h166v33h-102l70 47h32v33z" />
    <glyph glyph-name="fi" unicode="fi" horiz-adv-x="510" 
d="M386 663q-78 0 -119 -32t-54 -104l-5 -27h270l-88 -500h-51l79 451h-218l-80 -451h-51l80 451h-87l9 49h86l5 27q32 184 233 184q44 0 94 -11l-7 -46q-48 9 -96 9z" />
    <glyph glyph-name="fl" unicode="fl" horiz-adv-x="510" 
d="M395 711q55 0 118 -11l-123 -700h-51l116 661q-29 4 -69 4q-77 0 -118.5 -33t-54.5 -105l-5 -27h119l-8 -49h-119l-80 -451h-51l80 451h-87l9 49h86l5 27q32 184 233 184z" />
    <glyph glyph-name="f_f" unicode="ff" horiz-adv-x="583" 
d="M433 537q17 96 76.5 143.5t156.5 40.5l-9 -48q-147 12 -173 -136l-6 -37h149l-9 -49h-149l-79 -451h-51l79 451h-218l-80 -451h-51l80 451h-87l9 49h86l5 27q17 96 76.5 143.5t156.5 40.5l-9 -48q-147 12 -173 -136l-5 -27h219z" />
    <glyph glyph-name="f_f_i" unicode="ffi" horiz-adv-x="780" 
d="M657 673q-77 0 -118.5 -32t-54.5 -104l-6 -37h269l-88 -500h-50l79 451h-219l-79 -451h-51l79 451h-218l-80 -451h-51l80 451h-87l9 49h86l5 27q17 96 76.5 143.5t156.5 40.5l-9 -48q-147 12 -173 -136l-5 -27h219l6 37q32 184 233 184q45 0 95 -11l-8 -46q-48 9 -96 9z
" />
    <glyph glyph-name="f_f_l" unicode="ffl" horiz-adv-x="780" 
d="M666 721q55 0 118 -11l-125 -710h-50l118 671q-31 4 -69 4q-77 0 -119 -33t-55 -105l-6 -37h119l-9 -49h-119l-79 -451h-51l79 451h-218l-80 -451h-51l80 451h-87l9 49h86l5 27q17 96 76.5 143.5t156.5 40.5l-9 -48q-147 12 -173 -136l-5 -27h219l6 37q32 184 233 184z
" />
    <glyph glyph-name=".notdef" horiz-adv-x="500" 
d="M410 800v-1000h-317v1000h317zM333 733h-165v-33h65v-37h-66v-33h166v33h-66v37h66v33zM267 604h-100v-104h166v34h-66v70zM233 570v-36h-33v36h33zM333 473h-166v-33h66v-37h-66v-33h100v70h66v33zM333 413h-33v-66h-133v-34h166v100zM333 291h-100v-56h34v23h33v-47
h-100v80h-33v-113h166v113zM333 118h-166v-113h166v113zM300 85v-47h-100v47h100zM333 -18h-166v-33h70l-70 -47v-33h166v33h-102l70 47h32v33z" />
    <glyph glyph-name=".null" horiz-adv-x="0" 
 />
    <glyph glyph-name="nonmarkingreturn" horiz-adv-x="333" 
 />
    <glyph glyph-name="space" unicode=" " horiz-adv-x="267" 
 />
    <glyph glyph-name="exclam" unicode="!" horiz-adv-x="220" 
d="M78 180l46 320l35 200h60l-35 -200l-66 -320h-40zM64 -10q-19 0 -29.5 13.5t-6.5 32.5q3 20 17.5 32t34.5 12q19 0 30 -13.5t7 -32.5q-4 -20 -18 -32t-35 -12z" />
    <glyph glyph-name="quotedbl" unicode="&#x22;" horiz-adv-x="293" 
d="M106 513l26 187h54l-40 -187h-40zM240 513l26 187h53l-39 -187h-40z" />
    <glyph glyph-name="numbersign" unicode="#" horiz-adv-x="603" 
d="M588 417h-118l-46 -134h120l-16 -46h-120l-64 -187h-50l64 187h-154l-64 -187h-50l64 187h-119l15 46h120l46 134h-121l16 46h121l64 187h50l-64 -187h154l64 187h50l-64 -187h118zM374 283l46 134h-154l-46 -134h154z" />
    <glyph glyph-name="dollar" unicode="$" horiz-adv-x="558" 
d="M503 560q-34 83 -116 97l-51 -287q15 -6 25.5 -10.5t25.5 -11.5t25 -13.5t23.5 -15.5t21.5 -17.5t18.5 -20.5t14.5 -24t9.5 -27.5t3 -31t-3.5 -35.5q-15 -80 -78 -124.5t-152 -49.5l-16 -89h-47l16 90q-78 7 -129.5 44.5t-69.5 100.5l48 24q13 -52 54 -83t106 -35l52 294
q-40 16 -66 30.5t-53.5 39t-38 59t-1.5 78.5q15 80 80.5 124.5t144.5 44.5l16 89h47l-16 -93q115 -18 154 -123zM177 537q-11 -57 20.5 -89t94.5 -59l48 271q-59 -2 -105.5 -36t-57.5 -87zM446 169q12 55 -20.5 87.5t-98.5 60.5l-49 -276q68 5 112.5 39t55.5 89z" />
    <glyph glyph-name="percent" unicode="%" horiz-adv-x="716" 
d="M246 413q-64 0 -101 44.5t-26 107.5t61.5 104.5t117.5 41.5q65 0 101.5 -44.5t25.5 -107.5t-61 -104.5t-118 -41.5zM254 459q45 0 79.5 29.5t42.5 73.5t-16.5 73.5t-69.5 29.5t-79.5 -29.5t-42.5 -73.5t16.5 -73.5t69.5 -29.5zM71 90l569 535l35 -20l-570 -535zM454 -11
q-64 0 -101 44.5t-26 107.5t61.5 104.5t117.5 41.5q65 0 101.5 -44.5t25.5 -107.5t-61.5 -104.5t-117.5 -41.5zM462 35q45 0 79.5 29.5t42.5 73.5t-16.5 73.5t-69.5 29.5t-79.5 -29.5t-42.5 -73.5q-7 -44 17 -73.5t69 -29.5z" />
    <glyph glyph-name="ampersand" unicode="&#x26;" horiz-adv-x="660" 
d="M588 271q-27 -83 -79 -151l83 -106l-46 -23l-72 91q-95 -93 -224 -93q-102 0 -157.5 57.5t-38.5 148.5q23 129 177 198q-44 69 -32 143q13 78 73.5 126.5t143.5 48.5q70 0 119.5 -35.5t70.5 -96.5l-46 -25q-16 49 -54 77.5t-91 28.5q-61 0 -106.5 -35t-55.5 -93
q-13 -71 50 -150l175 -223q44 61 69 139zM254 40q108 0 190 80l-182 231q0 1 -1 1q-134 -54 -154 -162q-13 -69 28.5 -109.5t118.5 -40.5z" />
    <glyph glyph-name="quotesingle" unicode="'" horiz-adv-x="157" 
d="M106 513l26 187h54l-40 -187h-40z" />
    <glyph glyph-name="parenleft" unicode="(" horiz-adv-x="251" 
d="M109 -100q-71 220 -30 455q41 234 189 445h50q-149 -219 -189 -450t30 -450h-50z" />
    <glyph glyph-name="parenright" unicode=")" horiz-adv-x="251" 
d="M177 800q71 -220 30 -455q-41 -234 -189 -445h-50q149 219 189 450t-30 450h50z" />
    <glyph glyph-name="asterisk" unicode="*" horiz-adv-x="387" 
d="M387 611l-7 -43l-95 2l39 -79l-41 -23l-34 84l-63 -84l-38 23l67 79l-95 -2l7 43l95 -2l-40 79l42 23l34 -83l63 83l37 -23l-66 -79z" />
    <glyph glyph-name="plus" unicode="+" horiz-adv-x="533" 
d="M492 374l-9 -48h-178l-32 -179h-49l32 179h-179l8 48h179l32 179h49l-32 -179h179z" />
    <glyph glyph-name="comma" unicode="," horiz-adv-x="223" 
d="M130 68l-91 -208h-46l74 208h63z" />
    <glyph glyph-name="hyphen" unicode="-" horiz-adv-x="533" 
d="M93 285l8 48h360l-8 -48h-360z" />
    <glyph glyph-name="period" unicode="." horiz-adv-x="213" 
d="M61 -10q-19 0 -29.5 13.5t-7.5 32.5t17.5 31.5t34.5 12.5q19 0 30.5 -13.5t7.5 -32.5q-4 -20 -18 -32t-35 -12z" />
    <glyph glyph-name="slash" unicode="/" horiz-adv-x="527" 
d="M24 -100h-43l557 900h42z" />
    <glyph glyph-name="zero" unicode="0" horiz-adv-x="632" 
d="M270 -11q-120 0 -173.5 101.5t-24.5 265.5q29 165 113.5 260t211.5 95q120 0 173.5 -101.5t24.5 -265.5q-29 -165 -113.5 -260t-211.5 -95zM279 40q98 0 167.5 81.5t95.5 228.5q25 147 -15.5 228.5t-138.5 81.5t-167.5 -81.5t-95.5 -228.5q-25 -147 15.5 -228.5
t138.5 -81.5z" />
    <glyph glyph-name="one" unicode="1" horiz-adv-x="332" 
d="M279 700h45l-123 -700h-53l113 640l-171 -50l-5 47z" />
    <glyph glyph-name="two" unicode="2" horiz-adv-x="527" 
d="M-1 0l9 48l303 264q133 116 148 198q12 70 -25 110t-103 40q-113 0 -184 -107l-42 28q42 64 103 97t130 33q85 0 138 -57.5t36 -150.5q-11 -59 -53.5 -113t-114.5 -116l-258 -223h362l-9 -51h-440z" />
    <glyph glyph-name="three" unicode="3" horiz-adv-x="539" 
d="M538 700l-9 -50l-208 -241q83 -10 130.5 -67t32.5 -145q-17 -97 -93.5 -152.5t-175.5 -55.5q-76 0 -129.5 34.5t-69.5 98.5l45 25q28 -107 161 -107q80 0 137.5 44t70.5 118t-29.5 118t-121.5 44h-15l-18 36l218 250h-338l8 50h404z" />
    <glyph glyph-name="four" unicode="4" horiz-adv-x="567" 
d="M539 197l-9 -50h-90l-26 -147h-53l26 147h-377l9 50l354 503h60l-353 -503h315l39 220h54l-39 -220h90z" />
    <glyph glyph-name="five" unicode="5" horiz-adv-x="544" 
d="M546 650h-322l-57 -235h131q93 0 153 -60.5t43 -157.5q-17 -98 -92.5 -153t-176.5 -55q-77 0 -131.5 37t-69.5 104l47 25q10 -56 53 -85.5t108 -29.5q80 0 138 44t71 118t-29.5 118t-122.5 44h-187l82 336h370z" />
    <glyph glyph-name="six" unicode="6" horiz-adv-x="537" 
d="M303 450q101 0 156.5 -67t37.5 -169t-93.5 -163.5t-181.5 -61.5q-100 0 -156 67t-37 168q17 92 78 150l280 326h65l-223 -259q35 9 74 9zM444 219q14 80 -26 129.5t-124 49.5q-83 0 -140.5 -49.5t-71.5 -129.5q-14 -79 26 -129t123 -50t140.5 50t72.5 129z" />
    <glyph glyph-name="seven" unicode="7" horiz-adv-x="490" 
d="M102 700h424l-9 -50l-383 -650h-58l383 650h-365z" />
    <glyph glyph-name="eight" unicode="8" horiz-adv-x="551" 
d="M532 518q-19 -110 -130 -158q52 -25 78 -72t16 -106q-17 -93 -90 -143t-177 -50q-98 0 -155.5 55.5t-40.5 147.5q10 61 51.5 105t103.5 66q-42 25 -62.5 67.5t-11.5 96.5q16 89 84.5 136.5t157.5 47.5q84 0 138 -52.5t38 -140.5zM299 385q69 0 118.5 37t61.5 100
q11 65 -26.5 101.5t-104.5 36.5q-68 0 -118.5 -36.5t-62.5 -101.5q-11 -63 27 -100t105 -37zM442 187q12 68 -30.5 107t-121.5 39q-81 0 -136.5 -39t-67.5 -107q-13 -69 29 -108t123 -39q82 0 137 39t67 108z" />
    <glyph glyph-name="nine" unicode="9" horiz-adv-x="539" 
d="M351 711q100 0 156 -67.5t38 -169.5q-15 -85 -73 -143l-285 -331h-64l222 259q-36 -9 -76 -9q-101 0 -156.5 67.5t-37.5 169.5t94 163t182 61zM492 481q14 79 -26.5 129t-123.5 50q-84 0 -142 -50t-72 -129q-14 -80 26.5 -129.5t123.5 -49.5t141.5 49.5t72.5 129.5z" />
    <glyph glyph-name="colon" unicode=":" horiz-adv-x="213" 
d="M135 410q-19 0 -29.5 13.5t-7.5 32.5t17.5 31.5t34.5 12.5q19 0 30.5 -13.5t7.5 -32.5q-4 -20 -18 -32t-35 -12zM61 -10q-19 0 -29.5 13.5t-7.5 32.5t17.5 31.5t34.5 12.5q19 0 30.5 -13.5t7.5 -32.5q-4 -20 -18 -32t-35 -12z" />
    <glyph glyph-name="semicolon" unicode=";" horiz-adv-x="230" 
d="M152 410q-19 0 -29.5 13.5t-7.5 32.5t17.5 31.5t34.5 12.5q19 0 30.5 -13.5t7.5 -32.5q-4 -20 -18 -32t-35 -12zM130 68l-91 -208h-46l74 208h63z" />
    <glyph glyph-name="less" unicode="&#x3c;" horiz-adv-x="527" 
d="M517 554l-11 -59l-367 -148l315 -148l-9 -53l-368 178l4 26l5 26z" />
    <glyph glyph-name="equal" unicode="=" horiz-adv-x="537" 
d="M95 426l8 48h410l-8 -48h-410zM59 226l9 48h410l-9 -48h-410z" />
    <glyph glyph-name="greater" unicode="&#x3e;" horiz-adv-x="527" 
d="M117 554l368 -178l-4 -26l-5 -26l-431 -178l11 59l367 148l-315 148z" />
    <glyph glyph-name="question" unicode="?" horiz-adv-x="529" 
d="M207 180q9 49 36 91t60.5 71.5t67 57.5t59 61.5t32.5 69.5q10 62 -24.5 95.5t-104.5 33.5q-56 0 -104 -28t-73 -79l-45 26q33 64 96 98t135 34q84 0 136 -50t37 -134q-7 -42 -33.5 -79t-60 -65.5l-67 -57t-60 -66t-33.5 -79.5h-54zM201 -10q-19 0 -29.5 13.5t-7.5 32.5
t17.5 31.5t34.5 12.5q19 0 30.5 -13.5t7.5 -32.5q-4 -20 -18 -32t-35 -12z" />
    <glyph glyph-name="at" unicode="@" horiz-adv-x="808" 
d="M475 612q103 0 176 -53t100.5 -131.5t12.5 -162.5q-19 -106 -67.5 -155t-107.5 -49q-40 0 -64.5 23.5t-25.5 65.5q-52 -60 -131 -60q-67 0 -106.5 48t-27.5 115q12 68 65.5 112.5t124.5 44.5q74 0 107 -63l10 56h48l-39 -223q-15 -91 50 -91q47 0 84 45.5t53 135.5
q24 135 -52.5 226t-213.5 91q-143 0 -257 -95.5t-139 -238.5q-26 -146 58 -243t237 -97q101 0 176 28l-2 -26q-79 -27 -179 -27q-162 0 -253.5 106t-63.5 263q26 150 148.5 252.5t278.5 102.5zM379 136q48 0 87 32t48 82t-18.5 82t-76.5 32t-88.5 -32t-48.5 -82t19 -82
t78 -32z" />
    <glyph glyph-name="A" unicode="A" horiz-adv-x="629" 
d="M516 0l-36 178h-351l-100 -178h-58l395 700h56l148 -700h-54zM157 228h312l-83 407z" />
    <glyph glyph-name="B" unicode="B" horiz-adv-x="623" 
d="M596 512q-8 -49 -39 -89t-77 -62q49 -21 73.5 -68t15.5 -106q-12 -78 -75 -132.5t-151 -54.5h-300l123 700h265q80 0 128.5 -55.5t36.5 -132.5zM389 382q54 0 99 39.5t55 94.5q10 56 -23 95t-91 39h-219l-47 -268h226zM516 191q10 59 -23 100t-90 41h-249l-49 -282h243
q62 0 110 41t58 100z" />
    <glyph glyph-name="C" unicode="C" horiz-adv-x="751" 
d="M365 -11q-157 0 -242 108t-58 260t145 253t268 101q100 0 173.5 -45.5t109.5 -123.5l-47 -25q-67 143 -237 143q-134 0 -235.5 -89.5t-124.5 -220.5q-22 -131 49 -220.5t204 -89.5q85 0 159.5 39.5t122.5 109.5l45 -28q-56 -79 -144 -125.5t-188 -46.5z" />
    <glyph glyph-name="D" unicode="D" horiz-adv-x="728" 
d="M429 700q139 0 217 -106t52 -252q-26 -147 -135.5 -244.5t-256.5 -97.5h-263l123 700h263zM646 350q21 126 -41.5 213t-183.5 87h-211l-105 -600h210q122 0 215.5 86.5t115.5 213.5z" />
    <glyph glyph-name="E" unicode="E" horiz-adv-x="533" 
d="M556 650h-346l-48 -272h321l-9 -50h-320l-49 -278h350l-9 -50h-403l123 700h398z" />
    <glyph glyph-name="F" unicode="F" horiz-adv-x="518" 
d="M545 650h-335l-49 -280h323l-9 -50h-323l-56 -320h-53l123 700h388z" />
    <glyph glyph-name="G" unicode="G" horiz-adv-x="800" 
d="M767 326l-5 -26q-24 -133 -129.5 -222t-253.5 -89q-164 0 -252 109t-61 264q26 149 144 249t271 100q101 0 173 -45.5t111 -123.5l-47 -25q-72 143 -239 143q-135 0 -237 -88t-124 -218q-22 -132 50.5 -223t212.5 -91q121 0 208.5 67.5t114.5 168.5h-297l9 50h351z" />
    <glyph glyph-name="H" unicode="H" horiz-adv-x="687" 
d="M626 700h53l-123 -700h-53l59 335h-407l-59 -335h-53l123 700h53l-55 -315h407z" />
    <glyph glyph-name="I" unicode="I" horiz-adv-x="227" 
d="M166 700h53l-123 -700h-53z" />
    <glyph glyph-name="J" unicode="J" horiz-adv-x="553" 
d="M214 -11q-75 0 -126 30.5t-69 89.5l47 26q27 -95 151 -95q76 0 129.5 39.5t66.5 112.5l89 508h53l-89 -509q-18 -100 -88 -151t-164 -51z" />
    <glyph glyph-name="K" unicode="K" horiz-adv-x="571" 
d="M632 700l-415 -345l300 -355h-64l-296 349l-61 -349h-53l123 700h53l-57 -326l398 326h72z" />
    <glyph glyph-name="L" unicode="L" horiz-adv-x="493" 
d="M105 50h330l-9 -50h-383l123 700h53z" />
    <glyph glyph-name="M" unicode="M" horiz-adv-x="807" 
d="M799 700l-123 -700h-53l108 617l-331 -425h-9l-185 434l-110 -626h-53l123 700h63l178 -417l324 417h68z" />
    <glyph glyph-name="N" unicode="N" horiz-adv-x="687" 
d="M43 0l123 700h42l312 -602l106 602h53l-123 -700h-43l-311 602l-106 -602h-53z" />
    <glyph glyph-name="O" unicode="O" horiz-adv-x="819" 
d="M365 -11q-150 0 -238 109t-62 260q26 150 147 251.5t275 101.5q150 0 238.5 -110.5t62.5 -261.5q-27 -150 -147.5 -250t-275.5 -100zM374 40q132 0 234.5 88.5t125.5 218.5t-50.5 221.5t-205.5 91.5t-234.5 -90t-124.5 -220q-23 -130 50.5 -220t204.5 -90z" />
    <glyph glyph-name="P" unicode="P" horiz-adv-x="586" 
d="M399 700q98 0 149.5 -62t35.5 -155t-88.5 -154.5t-181.5 -61.5h-171l-47 -267h-53l123 700h233zM532 490q12 71 -26 115.5t-111 44.5h-185l-58 -333h168q84 0 142 49t70 124z" />
    <glyph glyph-name="Q" unicode="Q" horiz-adv-x="824" 
d="M788 339q-29 -155 -154 -255l63 -75l-38 -33l-66 79q-105 -66 -228 -66q-150 0 -238 109t-62 260q26 150 147 251.5t275 101.5q150 0 238.5 -110.5t62.5 -261.5zM561 93l-130 155l38 33l133 -158q107 87 132 224q23 130 -50.5 221.5t-205.5 91.5t-234.5 -90t-124.5 -220
q-23 -130 50.5 -220t204.5 -90q99 0 187 53z" />
    <glyph glyph-name="R" unicode="R" horiz-adv-x="613" 
d="M442 700q83 0 134.5 -64.5t35.5 -149.5q-12 -71 -63.5 -123.5t-123.5 -69.5l121 -293h-55l-118 287h-3h-224l-50 -287h-53l123 700h276zM561 493q12 65 -26 111t-101 46h-224l-55 -313h224q64 0 117 45.5t65 110.5z" />
    <glyph glyph-name="S" unicode="S" horiz-adv-x="573" 
d="M260 -11q-95 0 -157.5 43.5t-79.5 121.5l47 24q12 -64 61 -101t131 -37q81 0 133.5 34.5t64.5 93.5q7 35 -2.5 61t-38.5 45.5t-51.5 30t-66.5 26.5q-34 12 -57 21.5t-52.5 28t-46 39t-25 52.5t-1.5 70q16 81 82.5 125t149.5 44q85 0 138 -40.5t73 -105.5l-47 -24
q-37 119 -167 119q-64 0 -113.5 -33t-61.5 -90q-7 -35 2.5 -61t38 -45.5t51.5 -30t66 -26.5q36 -13 57.5 -22t52.5 -28t46.5 -39t24 -52.5t1.5 -70.5q-17 -84 -86 -128.5t-167 -44.5z" />
    <glyph glyph-name="T" unicode="T" horiz-adv-x="540" 
d="M596 700l-9 -50h-220l-114 -650h-54l114 650h-219l8 50h494z" />
    <glyph glyph-name="U" unicode="U" horiz-adv-x="667" 
d="M296 -11q-117 0 -179 68.5t-43 176.5l82 466h53l-82 -466q-15 -87 28.5 -140.5t139.5 -53.5q98 0 161 54.5t78 139.5l82 466h53l-82 -466q-20 -113 -99 -179t-192 -66z" />
    <glyph glyph-name="V" unicode="V" horiz-adv-x="605" 
d="M230 0l-138 700h54l121 -633l344 633h59l-384 -700h-56z" />
    <glyph glyph-name="W" unicode="W" horiz-adv-x="993" 
d="M192 0l-80 700h53l71 -631l306 631h63l85 -631l293 631h56l-326 -700h-64l-85 631l-308 -631h-64z" />
    <glyph glyph-name="X" unicode="X" horiz-adv-x="573" 
d="M616 700l-281 -343l171 -357h-55l-151 315l-258 -315h-63l298 363l-162 337h55l141 -295l242 295h63z" />
    <glyph glyph-name="Y" unicode="Y" 
d="M636 700l-311 -373l-58 -327h-53l58 329l-180 371h55l156 -324l270 324h63z" />
    <glyph glyph-name="Z" unicode="Z" horiz-adv-x="523" 
d="M559 700l-8 -50l-482 -600h386l-9 -50h-447l9 50l482 600h-366l8 50h427z" />
    <glyph glyph-name="bracketleft" unicode="[" horiz-adv-x="277" 
d="M345 751h-143l-141 -802h143l-9 -49h-194l159 900h194z" />
    <glyph glyph-name="backslash" unicode="\" horiz-adv-x="527" 
d="M382 -100l-242 900h40l241 -900h-39z" />
    <glyph glyph-name="bracketright" unicode="]" horiz-adv-x="277" 
d="M310 800l-159 -900h-193l9 49h143l141 802h-142l8 49h193z" />
    <glyph glyph-name="asciicircum" unicode="^" horiz-adv-x="502" 
d="M354 700l124 -300h-55l-99 243l-185 -243h-63l228 300h50z" />
    <glyph glyph-name="underscore" unicode="_" horiz-adv-x="507" 
d="M-28 -133l9 48h426l-8 -48h-427z" />
    <glyph glyph-name="grave" unicode="`" horiz-adv-x="181" 
d="M217 570l-58 127h-60l70 -127h48z" />
    <glyph glyph-name="a" unicode="a" horiz-adv-x="646" 
d="M563 500h50l-88 -500h-50l18 102q-84 -113 -231 -113q-106 0 -171 81t-46 191q21 117 103.5 183.5t185.5 66.5q71 0 127 -36.5t80 -100.5zM274 37q90 0 159 58t84 148q17 97 -37.5 158.5t-142.5 61.5q-86 0 -155 -55.5t-86 -150.5q-16 -90 36 -155t142 -65z" />
    <glyph glyph-name="b" unicode="b" horiz-adv-x="645" 
d="M385 511q105 0 170 -78.5t46 -188.5q-20 -111 -104 -183t-197 -72q-69 0 -121 37t-74 99l-22 -125h-50l123 700h50l-54 -306q40 55 100.5 86t132.5 31zM550 250q16 89 -36 151t-141 62t-159 -60t-86 -150q-16 -89 36 -152.5t141 -63.5q90 0 159.5 61.5t85.5 151.5z" />
    <glyph glyph-name="c" unicode="c" horiz-adv-x="562" 
d="M260 -11q-110 0 -172.5 79t-42.5 190q19 111 105.5 182t198.5 71q72 0 126.5 -34.5t74.5 -92.5l-43 -23q-17 48 -59 75t-104 27q-91 0 -161.5 -60t-86.5 -150q-16 -91 33 -153.5t140 -62.5q60 0 112.5 28.5t83.5 76.5l40 -27q-38 -59 -102.5 -92.5t-142.5 -33.5z" />
    <glyph glyph-name="d" unicode="d" horiz-adv-x="646" 
d="M598 700h50l-123 -700h-50l18 102q-84 -113 -231 -113q-106 0 -171 81t-46 191q21 117 103.5 183.5t185.5 66.5q71 0 127 -36t80 -100zM274 37q90 0 158.5 58t84.5 148q17 97 -37.5 158.5t-142.5 61.5q-86 0 -155 -55.5t-86 -150.5q-16 -90 36 -155t142 -65z" />
    <glyph glyph-name="e" unicode="e" horiz-adv-x="588" 
d="M342 511q112 0 169.5 -78t36.5 -185q-3 -17 -6 -24h-451q-6 -85 42.5 -136t134.5 -51q124 0 190 92l39 -26q-36 -54 -100 -84t-136 -30q-114 0 -175 76.5t-41 191.5q20 111 103 182.5t194 71.5zM99 273h401q9 90 -36 140t-126 50q-86 0 -151 -52t-88 -138z" />
    <glyph glyph-name="f" unicode="f" horiz-adv-x="314" 
d="M162 527q17 97 76.5 144t156.5 40l-9 -48q-147 12 -173 -136l-5 -27h149l-8 -49h-149l-80 -451h-51l80 451h-87l9 49h86z" />
    <glyph glyph-name="g" unicode="g" horiz-adv-x="650" 
d="M566 500h51l-84 -476q-20 -112 -97 -173.5t-190 -61.5q-81 0 -138 32.5t-80 87.5l45 23q16 -42 59.5 -68.5t115.5 -26.5q97 0 157.5 49t76.5 138l14 78q-40 -54 -98 -83.5t-126 -29.5q-114 0 -177.5 79t-45.5 193q17 112 101 181t186 69q71 0 127.5 -36t80.5 -100z
M280 37q84 0 150.5 53t87.5 138l6 32q9 90 -46.5 146.5t-138.5 56.5q-85 0 -155.5 -57t-84.5 -149q-14 -93 37.5 -156.5t143.5 -63.5z" />
    <glyph glyph-name="h" unicode="h" horiz-adv-x="564" 
d="M348 511q89 0 133.5 -54.5t29.5 -145.5l-55 -311h-51l55 311q12 70 -19 111t-102 41q-77 0 -134.5 -51t-74.5 -148v1l-47 -265h-50l123 700h50l-50 -287q71 98 192 98z" />
    <glyph glyph-name="i" unicode="i" horiz-adv-x="204" 
d="M167 621q-17 0 -26 11.5t-6 28.5q2 16 15 27.5t31 11.5q16 0 26 -11.5t7 -27.5q-3 -17 -16 -28.5t-31 -11.5zM33 0l88 500h50l-88 -500h-50z" />
    <glyph glyph-name="j" unicode="j" horiz-adv-x="223" 
d="M200 700q16 0 26 -11.5t7 -27.5q-3 -17 -16 -28.5t-31 -11.5q-17 0 -26 11.5t-6 28.5q2 16 15 27.5t31 11.5zM42 -57l98 557h50l-98 -557q-29 -171 -193 -154l8 48q114 -12 135 106z" />
    <glyph glyph-name="k" unicode="k" horiz-adv-x="483" 
d="M495 500l-313 -241l234 -259h-62l-227 251l-44 -251h-50l123 700h50l-75 -424l293 224h71z" />
    <glyph glyph-name="l" unicode="l" horiz-adv-x="205" 
d="M34 0l53 306l75 424h50l-74 -424l-54 -306h-50z" />
    <glyph glyph-name="m" unicode="m" horiz-adv-x="857" 
d="M657 511q77 0 120.5 -51.5t27.5 -142.5l-56 -317h-50l55 317q12 70 -17 108t-90 38q-63 0 -111 -41t-67 -124l-53 -298h-50l55 317q13 70 -15 108t-87 38q-66 0 -118 -46t-68 -136l-50 -281h-50l88 500h50l-14 -77q68 88 174 88q53 0 90.5 -26t49.5 -76q35 51 84.5 76.5
t101.5 25.5z" />
    <glyph glyph-name="n" unicode="n" horiz-adv-x="564" 
d="M348 511q89 0 133.5 -54.5t29.5 -145.5l-55 -311h-51l55 311q12 70 -19 111t-102 41q-77 0 -134.5 -51t-74.5 -148v1l-47 -265h-50l88 500h50l-15 -87q71 98 192 98z" />
    <glyph glyph-name="o" unicode="o" horiz-adv-x="612" 
d="M264 -11q-106 0 -173 74t-47 192q21 117 111 186.5t198 69.5q105 0 170 -74.5t45 -190.5q-21 -119 -109 -188t-195 -69zM269 37q87 0 159.5 58.5t89.5 156.5q17 95 -35.5 153t-138.5 58q-87 -1 -159.5 -59t-89.5 -154t35.5 -154.5t138.5 -58.5z" />
    <glyph glyph-name="p" unicode="p" horiz-adv-x="646" 
d="M384 511q106 0 171 -81t46 -191q-21 -117 -103.5 -183.5t-185.5 -66.5q-71 0 -127 36.5t-80 100.5l-57 -326h-50l123 700h50l-18 -102q86 113 231 113zM550 243q16 90 -36 155t-142 65t-158.5 -58t-84.5 -148q-17 -97 37.5 -158.5t142.5 -61.5q86 0 155 55.5t86 150.5z
" />
    <glyph glyph-name="q" unicode="q" horiz-adv-x="646" 
d="M563 500h50l-123 -700h-50l53 302q-84 -113 -231 -113q-106 0 -171 81t-46 191q21 117 103.5 183.5t185.5 66.5q71 0 127 -36.5t80 -100.5zM274 37q90 0 159 58t84 147q17 98 -37.5 159.5t-142.5 61.5q-86 0 -155 -55.5t-86 -150.5q-16 -90 36 -155t142 -65z" />
    <glyph glyph-name="r" unicode="r" horiz-adv-x="318" 
d="M156 415q68 97 184 92l-9 -48q-71 0 -127 -45.5t-72 -135.5l-49 -278h-50l88 500h50z" />
    <glyph glyph-name="s" unicode="s" horiz-adv-x="472" 
d="M204 -11q-142 0 -178 114l45 23q11 -41 46.5 -65t90.5 -24t93.5 23.5t46.5 65.5q7 37 -20.5 60.5t-70 36.5t-84.5 27.5t-67.5 47t-16.5 83.5q10 57 60.5 93.5t121.5 36.5q59 0 102 -26.5t62 -73.5l-44 -23q-12 37 -46 56t-76 19q-46 0 -83.5 -22.5t-45.5 -66.5
q-7 -36 20.5 -59t69.5 -35.5t84 -28t67.5 -48.5t16.5 -85q-10 -60 -62.5 -94.5t-131.5 -34.5z" />
    <glyph glyph-name="t" unicode="t" horiz-adv-x="377" 
d="M220 451l-58 -325q-10 -61 20.5 -75t114.5 -6l-7 -45q-101 -16 -147 14t-31 112l57 325h-110l9 49h110l22 125l53 15l-25 -140h150l-9 -49h-149z" />
    <glyph glyph-name="u" unicode="u" horiz-adv-x="564" 
d="M481 500h50l-88 -500h-50l15 87q-71 -98 -192 -98q-89 0 -133.5 54.5t-29.5 145.5l55 311h51l-55 -311q-12 -70 19 -111t102 -41q77 0 134.5 51t74.5 148v-1z" />
    <glyph glyph-name="v" unicode="v" horiz-adv-x="477" 
d="M451 500h57l-283 -500h-61l-107 500h52l92 -446z" />
    <glyph glyph-name="w" unicode="w" horiz-adv-x="770" 
d="M726 500h55l-246 -500h-55l-64 426l-214 -426h-55l-70 500h50l57 -436l217 436h52l-1 -2l64 -434z" />
    <glyph glyph-name="x" unicode="x" horiz-adv-x="507" 
d="M515 500l-230 -245l154 -255h-56l-133 218l-205 -218h-66l246 261l-146 239h57l123 -203l191 203h65z" />
    <glyph glyph-name="y" unicode="y" horiz-adv-x="510" 
d="M484 500h57l-312 -546q-44 -78 -102.5 -118.5t-122.5 -35.5l8 47q93 -9 167 117l17 28l-139 508h51l121 -450z" />
    <glyph glyph-name="z" unicode="z" horiz-adv-x="463" 
d="M461 500l-6 -33l-371 -418h307l-8 -49h-380l6 33l370 418h-287l9 49h360z" />
    <glyph glyph-name="braceleft" unicode="{" horiz-adv-x="349" 
d="M266 -108q-82 -7 -118 31t-22 117l32 187q11 58 -11 79t-80 21l9 48q57 0 86.5 21t39.5 79l33 187q28 164 193 148l-9 -49q-59 7 -91 -16t-42 -83l-33 -187q-10 -58 -35 -88t-67 -40q76 -20 58 -120l-33 -187q-11 -60 13 -83t85 -17z" />
    <glyph glyph-name="bar" unicode="|" horiz-adv-x="224" 
d="M8 -200l162 920h50l-162 -920h-50z" />
    <glyph glyph-name="braceright" unicode="}" horiz-adv-x="350" 
d="M119 810q82 7 118 -31t22 -117l-32 -187q-11 -58 11 -79t80 -21l-9 -48q-57 0 -86.5 -21t-39.5 -79l-33 -187q-28 -164 -193 -148l9 49q59 -7 91 16t42 83l33 187q10 58 35 88t67 40q-76 20 -58 120l33 187q11 60 -13 83t-85 17z" />
    <glyph glyph-name="asciitilde" unicode="~" horiz-adv-x="587" 
d="M117 289l-43 22q15 35 38 59.5t54.5 38t73.5 4.5t86 -42q122 -89 180 40l42 -22q-15 -35 -38 -59.5t-54 -38t-72.5 -4.5t-86.5 42q-124 90 -180 -40z" />
    <glyph glyph-name="exclamdown" unicode="&#xa1;" horiz-adv-x="220" 
d="M156 510q19 0 29.5 -13.5t6.5 -32.5q-3 -20 -17.5 -32t-34.5 -12q-19 0 -30 13.5t-7 32.5q4 20 18 32t35 12zM142 320l-46 -320l-35 -200h-60l35 200l66 320h40z" />
    <glyph glyph-name="cent" unicode="&#xa2;" horiz-adv-x="563" 
d="M525 461q-24 66 -90 90l-203 -407q24 -7 55 -7q60 0 112.5 28.5t83.5 76.5l40 -27q-38 -59 -102.5 -92.5t-142.5 -33.5q-38 0 -69 10l-49 -99h-43l56 113q-63 32 -93.5 98.5t-16.5 146.5q19 111 105.5 182t198.5 71q25 0 53 -5l47 94h43l-53 -105q84 -33 111 -111z
M196 158l201 402q-16 3 -35 3q-91 0 -161.5 -60t-86.5 -150q-11 -64 11 -116.5t71 -78.5z" />
    <glyph glyph-name="sterling" unicode="&#xa3;" horiz-adv-x="590" 
d="M407 660q-64 0 -108.5 -39t-56.5 -111l-30 -170h241l-9 -47h-240l-43 -242h377l-9 -51h-530l9 51h100l43 242h-80l8 47h80l30 170q17 97 76.5 149t146.5 52q64 0 110.5 -34.5t66.5 -95.5l-44 -24q-37 103 -138 103z" />
    <glyph glyph-name="currency" unicode="&#xa4;" horiz-adv-x="553" 
d="M564 557l-84 -72q40 -60 27 -138q-13 -77 -73 -135l57 -70l-31 -25l-57 69q-66 -47 -146 -47q-74 0 -125 48l-83 -70l-24 26l84 71q-40 61 -27 139t73 136l-57 69l30 25l57 -69q67 47 146 47q75 0 126 -49l83 71zM456 350q12 68 -26.5 115.5t-106.5 47.5t-123.5 -47.5
t-66.5 -115.5q-13 -68 26 -115.5t107 -47.5t123 47.5t67 115.5z" />
    <glyph glyph-name="yen" unicode="&#xa5;" 
d="M636 700l-297 -356h175l-8 -45h-186l-14 -77h186l-7 -44h-186l-32 -178h-53l31 178h-184l8 44h184l13 77h-183l7 45h174l-172 356h55l156 -324l270 324h63z" />
    <glyph glyph-name="brokenbar" unicode="&#xa6;" horiz-adv-x="224" 
d="M105 350l65 370h50l-65 -370h-50zM8 -200l65 370h50l-65 -370h-50z" />
    <glyph glyph-name="section" unicode="&#xa7;" horiz-adv-x="511" 
d="M337 426q71 -34 106.5 -72.5t24.5 -101.5q-13 -73 -89 -117q41 -46 30 -109q-11 -62 -63.5 -100t-132.5 -38q-73 0 -121 34t-68 96l46 25q26 -106 149 -106q55 0 93.5 24t46.5 70q8 48 -30 79.5t-113 64.5q-71 32 -107.5 71t-25.5 101q13 73 94 119q-39 45 -28 106
q11 62 62.5 100.5t126.5 38.5q60 0 104 -30.5t63 -86.5l-44 -23q-33 92 -129 92q-50 0 -87.5 -25.5t-45.5 -69.5q-3 -21 4 -39.5t16 -30t34.5 -27.5t37.5 -22zM418 257q8 44 -20.5 71t-88.5 55q-66 29 -99 53q-66 -35 -76 -93q-7 -44 21.5 -72t87.5 -53q68 -29 102 -53
q63 35 73 92z" />
    <glyph glyph-name="dieresis" unicode="&#xa8;" horiz-adv-x="293" 
d="M115 577q-15 0 -24 10.5t-6 25.5q2 16 15 26.5t28 10.5t23.5 -10.5t6.5 -26.5q-3 -15 -15.5 -25.5t-27.5 -10.5zM295 577q-15 0 -24 10.5t-6 25.5q2 16 15 26.5t28 10.5t23.5 -10.5t6.5 -26.5q-3 -15 -15.5 -25.5t-27.5 -10.5z" />
    <glyph glyph-name="copyright" unicode="&#xa9;" horiz-adv-x="818" 
d="M363 -11q-149 0 -237 108t-61 258q26 150 149.5 253t275.5 103q148 0 236 -108t62 -258q-27 -150 -150 -253t-275 -103zM367 13q140 0 254.5 98.5t139.5 238.5t-55.5 238.5t-219.5 98.5q-140 0 -255 -98.5t-139 -238.5q-25 -140 55.5 -238.5t219.5 -98.5zM396 158
q-80 0 -127 58.5t-33 138.5q14 81 76.5 134t146.5 53q51 0 91.5 -25.5t60.5 -68.5l-43 -21q-36 68 -117 68q-63 0 -109 -42.5t-56 -102.5q-11 -59 21.5 -102t93.5 -43q40 0 76.5 19t59.5 53l40 -26q-31 -43 -79 -68t-102 -25z" />
    <glyph glyph-name="guillemotleft" unicode="&#xab;" horiz-adv-x="473" 
d="M294 482l-141 -177l75 -169h-61l-77 173l138 173h66zM434 482l-140 -177l75 -169h-62l-76 173l137 173h66z" />
    <glyph glyph-name="logicalnot" unicode="&#xac;" horiz-adv-x="520" 
d="M480 382l-30 -173h-51l22 124h-343l8 49h394z" />
    <glyph glyph-name="registered" unicode="&#xae;" horiz-adv-x="818" 
d="M490 711q148 0 236 -108t62 -258q-27 -150 -150 -253t-275 -103q-149 0 -237 108t-61 258q26 150 149.5 253t275.5 103zM761 350q25 140 -55.5 238.5t-219.5 98.5q-140 0 -255 -98.5t-139 -238.5q-25 -140 55.5 -238.5t219.5 -98.5q140 0 254.5 98.5t139.5 238.5z
M465 535q64 0 93 -35.5t21 -83.5q-14 -85 -96 -105l60 -146h-50l-55 139h-13h-66l-24 -139h-48l65 370h113zM531 419q6 32 -12 51t-59 19h-68l-24 -139h68q84 0 95 69z" />
    <glyph glyph-name="macron" unicode="&#xaf;" horiz-adv-x="293" 
d="M79 587l8 44h253l-7 -44h-254z" />
    <glyph glyph-name="degree" unicode="&#xb0;" horiz-adv-x="386" 
d="M240 517q-62 0 -98 44.5t-25 105.5t60.5 102t114.5 41q63 0 98.5 -44.5t24.5 -105.5q-10 -62 -57.5 -102.5t-117.5 -40.5zM249 563q43 0 76.5 29t40.5 71q8 43 -15.5 72t-66.5 29q-44 0 -77 -29t-41 -72q-7 -43 15.5 -71.5t67.5 -28.5z" />
    <glyph glyph-name="plusminus" unicode="&#xb1;" horiz-adv-x="534" 
d="M325 438h178l-8 -49h-179l-30 -169h-49l30 169h-179l9 49h178l30 169h50zM36 93l8 49h407l-8 -49h-407z" />
    <glyph glyph-name="acute" unicode="&#xb4;" horiz-adv-x="179" 
d="M76 570h50l112 127h-62z" />
    <glyph glyph-name="uni00B5" unicode="&#xb5;" horiz-adv-x="607" 
d="M472 90q-4 -19 5.5 -30t28.5 -11h32l-8 -49h-38q-35 0 -55.5 22t-16.5 59q-72 -92 -188 -92q-100 0 -138 74l-46 -263h-50l123 700h50l-55 -311h1q-12 -70 19 -111t102 -41q73 0 129.5 46.5t76.5 135.5l49 281h51z" />
    <glyph glyph-name="paragraph" unicode="&#xb6;" 
d="M606 700l-9 -47h-59l-150 -853h-50l150 853h-131l-150 -853h-49l90 513q-80 1 -126.5 59.5t-32.5 138.5t80 134.5t147 54.5h290z" />
    <glyph glyph-name="periodcentered" unicode="&#xb7;" horiz-adv-x="214" 
d="M116 300q-19 0 -29.5 13.5t-7.5 32.5t17.5 31.5t34.5 12.5q19 0 30.5 -13.5t7.5 -32.5q-4 -20 -18 -32t-35 -12z" />
    <glyph glyph-name="cedilla" unicode="&#xb8;" horiz-adv-x="235" 
d="M70 -56q38 -5 60.5 -26.5t17.5 -52.5q-17 -92 -209 -76l8 41q71 -7 111 3.5t45 35.5q4 22 -18.5 33t-65.5 10l16 88h45z" />
    <glyph glyph-name="guillemotright" unicode="&#xbb;" horiz-adv-x="474" 
d="M187 482l76 -173l-137 -173h-66l140 177l-75 169h62zM327 482l77 -173l-138 -173h-66l141 177l-75 169h61z" />
    <glyph glyph-name="onequarter" unicode="&#xbc;" horiz-adv-x="829" 
d="M196 643l-106 -32l-5 44l130 45h39l-71 -400h-48zM614 700h51l-525 -700h-51zM783 125l-8 -45h-54l-14 -80h-48l14 80h-213l7 45l199 275h55l-198 -275h158l18 104h48l-18 -104h54z" />
    <glyph glyph-name="onehalf" unicode="&#xbd;" horiz-adv-x="815" 
d="M196 643l-106 -32l-5 44l130 45h39l-71 -400h-48zM614 700h51l-525 -700h-51zM782 290q-9 -60 -83 -119l-153 -125h199l-7 -46h-276l7 39l202 166q55 44 63 87q5 32 -13.5 53t-55.5 21q-65 0 -103 -68l-39 24q22 41 61.5 65.5t86.5 24.5q57 0 88 -35t23 -87z" />
    <glyph glyph-name="threequarters" unicode="&#xbe;" horiz-adv-x="933" 
d="M336 411q-10 -56 -53.5 -89.5t-109.5 -33.5q-95 0 -124 81l42 21q18 -56 89 -56q46 0 74 22.5t34 58.5q7 36 -14 59t-65 23h-3l-18 35l115 122h-192l8 46h251l-8 -46l-114 -120q48 -9 72 -43t16 -80zM718 700h51l-525 -700h-51zM887 125l-8 -45h-54l-14 -80h-48l14 80
h-213l7 45l199 275h55l-198 -275h158l18 104h48l-18 -104h54z" />
    <glyph glyph-name="questiondown" unicode="&#xbf;" horiz-adv-x="529" 
d="M328 510q19 0 29.5 -13.5t7.5 -32.5t-17.5 -31.5t-34.5 -12.5q-19 0 -30.5 13.5t-7.5 32.5q4 20 18 32t35 12zM322 320q-9 -49 -36 -91t-60.5 -71.5t-67 -57.5t-59 -61.5t-32.5 -69.5q-10 -62 24.5 -95.5t104.5 -33.5q56 0 104 28t73 79l45 -26q-33 -64 -96 -98t-135 -34
q-84 0 -136 50t-37 134q7 42 33.5 79t60 65.5l67 57t60 66t33.5 79.5h54z" />
    <glyph glyph-name="Agrave" unicode="&#xc0;" horiz-adv-x="629" 
d="M442 770h-48l-70 127h60zM516 0l-36 178h-351l-100 -178h-58l395 700h56l148 -700h-54zM157 228h312l-83 407z" />
    <glyph glyph-name="Aacute" unicode="&#xc1;" horiz-adv-x="629" 
d="M527 897l-112 -127h-50l100 127h62zM516 0l-36 178h-351l-100 -178h-58l395 700h56l148 -700h-54zM157 228h312l-83 407z" />
    <glyph glyph-name="Acircumflex" unicode="&#xc2;" horiz-adv-x="629" 
d="M425 865l-97 -95h-60l130 127h59l87 -127h-55zM516 0l-36 178h-351l-100 -178h-58l395 700h56l148 -700h-54zM157 228h312l-83 407z" />
    <glyph glyph-name="Atilde" unicode="&#xc3;" horiz-adv-x="629" 
d="M412 811q-76 77 -95 -28h-44q9 55 34 83t56 24.5t61 -33.5q76 -77 95 28h44q-14 -82 -60.5 -101.5t-90.5 27.5zM516 0l-36 178h-351l-100 -178h-58l395 700h56l148 -700h-54zM157 228h312l-83 407z" />
    <glyph glyph-name="Adieresis" unicode="&#xc4;" horiz-adv-x="629" 
d="M317 777q-15 0 -24 10.5t-6 25.5q2 16 15 26.5t28 10.5t23.5 -10.5t6.5 -26.5q-3 -15 -15.5 -25.5t-27.5 -10.5zM497 777q-15 0 -24 10.5t-6 25.5q2 16 15 26.5t28 10.5t23.5 -10.5t6.5 -26.5q-3 -15 -15.5 -25.5t-27.5 -10.5zM516 0l-36 178h-351l-100 -178h-58l395 700
h56l148 -700h-54zM157 228h312l-83 407z" />
    <glyph glyph-name="Aring" unicode="&#xc5;" horiz-adv-x="629" 
d="M516 0l-36 178h-351l-100 -178h-58l382 676q-29 10 -42 35.5t-8 57.5q7 42 40 68.5t77 26.5q46 0 70 -28.5t18 -70.5q-5 -32 -27 -56t-54 -34l143 -675h-54zM346 767q-5 -25 8.5 -41t40.5 -16t46.5 16t24.5 41q4 26 -10 41.5t-41 15.5q-26 0 -45.5 -15.5t-23.5 -41.5z
M157 228h312l-83 407z" />
    <glyph glyph-name="AE" unicode="&#xc6;" horiz-adv-x="873" 
d="M895 650h-322l-48 -272h304l-9 -50h-303l-49 -278h326l-9 -50h-380l32 183h-270l-144 -183h-64l552 700h392zM206 233h240l69 393z" />
    <glyph glyph-name="Ccedilla" unicode="&#xc7;" horiz-adv-x="751" 
d="M477 660q-134 0 -235.5 -89.5t-124.5 -220.5q-22 -131 49 -220.5t204 -89.5q85 0 159.5 39.5t122.5 109.5l45 -28q-53 -74 -134.5 -120t-175.5 -51l-8 -46q38 -5 60.5 -26.5t17.5 -52.5q-17 -92 -209 -76l8 41q71 -7 111 3.5t45 35.5q4 22 -18.5 33t-65.5 10l14 78
q-147 8 -225 114t-52 253q27 152 145 253t268 101q100 0 173.5 -45.5t109.5 -123.5l-47 -25q-67 143 -237 143z" />
    <glyph glyph-name="Egrave" unicode="&#xc8;" horiz-adv-x="533" 
d="M411 770h-48l-70 127h60zM556 650h-346l-48 -272h321l-9 -50h-320l-49 -278h350l-9 -50h-403l123 700h398z" />
    <glyph glyph-name="Eacute" unicode="&#xc9;" horiz-adv-x="533" 
d="M496 897l-112 -127h-50l100 127h62zM556 650h-346l-48 -272h321l-9 -50h-320l-49 -278h350l-9 -50h-403l123 700h398z" />
    <glyph glyph-name="Ecircumflex" unicode="&#xca;" horiz-adv-x="533" 
d="M394 865l-97 -95h-60l130 127h59l87 -127h-55zM556 650h-346l-48 -272h321l-9 -50h-320l-49 -278h350l-9 -50h-403l123 700h398z" />
    <glyph glyph-name="Edieresis" unicode="&#xcb;" horiz-adv-x="533" 
d="M286 777q-15 0 -24 10.5t-6 25.5q2 16 15 26.5t28 10.5t23.5 -10.5t6.5 -26.5q-3 -15 -15.5 -25.5t-27.5 -10.5zM466 777q-15 0 -24 10.5t-6 25.5q2 16 15 26.5t28 10.5t23.5 -10.5t6.5 -26.5q-3 -15 -15.5 -25.5t-27.5 -10.5zM556 650h-346l-48 -272h321l-9 -50h-320
l-49 -278h350l-9 -50h-403l123 700h398z" />
    <glyph glyph-name="Igrave" unicode="&#xcc;" horiz-adv-x="227" 
d="M240 770l-58 127h-60l70 -127h48zM166 700h53l-123 -700h-53z" />
    <glyph glyph-name="Iacute" unicode="&#xcd;" horiz-adv-x="227" 
d="M163 770h50l112 127h-62zM166 700h53l-123 -700h-53z" />
    <glyph glyph-name="Icircumflex" unicode="&#xce;" horiz-adv-x="227" 
d="M342 770h-55l-64 95l-97 -95h-60l130 127h59zM43 0l123 700h53l-123 -700h-53z" />
    <glyph glyph-name="Idieresis" unicode="&#xcf;" horiz-adv-x="227" 
d="M115 777q-15 0 -24 10.5t-6 25.5q2 16 15 26.5t28 10.5t23.5 -10.5t6.5 -26.5q-3 -15 -15.5 -25.5t-27.5 -10.5zM295 777q-15 0 -24 10.5t-6 25.5q2 16 15 26.5t28 10.5t23.5 -10.5t6.5 -26.5q-3 -15 -15.5 -25.5t-27.5 -10.5zM166 700h53l-123 -700h-53z" />
    <glyph glyph-name="Eth" unicode="&#xd0;" horiz-adv-x="748" 
d="M449 700q139 0 217 -106t52 -252q-26 -147 -135.5 -244.5t-256.5 -97.5h-263l57 326h-67l8 48h68l57 326h263zM666 350q21 126 -41.5 213t-183.5 87h-211l-48 -276h239l-8 -48h-240l-48 -276h210q122 0 215.5 86.5t115.5 213.5z" />
    <glyph glyph-name="Ntilde" unicode="&#xd1;" horiz-adv-x="687" 
d="M301 783q9 55 34 83t56 24.5t61 -33.5q76 -77 95 28h44q-14 -82 -60.5 -101.5t-90.5 27.5q-76 77 -95 -28h-44zM43 0l123 700h42l312 -602l106 602h53l-123 -700h-43l-311 602l-106 -602h-53z" />
    <glyph glyph-name="Ograve" unicode="&#xd2;" horiz-adv-x="819" 
d="M536 770l-58 127h-60l70 -127h48zM365 -11q-150 0 -238 109t-62 260q26 150 147 251.5t275 101.5q150 0 238.5 -110.5t62.5 -261.5q-27 -150 -147.5 -250t-275.5 -100zM374 40q132 0 234.5 88.5t125.5 218.5t-50.5 221.5t-205.5 91.5t-234.5 -90t-124.5 -220
q-23 -130 50.5 -220t204.5 -90z" />
    <glyph glyph-name="Oacute" unicode="&#xd3;" horiz-adv-x="819" 
d="M459 770h50l112 127h-62zM365 -11q-150 0 -238 109t-62 260q26 150 147 251.5t275 101.5q150 0 238.5 -110.5t62.5 -261.5q-27 -150 -147.5 -250t-275.5 -100zM374 40q132 0 234.5 88.5t125.5 218.5t-50.5 221.5t-205.5 91.5t-234.5 -90t-124.5 -220q-23 -130 50.5 -220
t204.5 -90z" />
    <glyph glyph-name="Ocircumflex" unicode="&#xd4;" horiz-adv-x="819" 
d="M519 865l-97 -95h-60l130 127h59l87 -127h-55zM487 711q150 0 238.5 -110.5t62.5 -261.5q-27 -150 -147.5 -250t-275.5 -100q-150 0 -238 109t-62 260q26 150 147 251.5t275 101.5zM734 347q23 130 -50.5 221.5t-205.5 91.5t-234.5 -90t-124.5 -220q-23 -130 50.5 -220
t204.5 -90q132 0 234.5 88.5t125.5 218.5z" />
    <glyph glyph-name="Otilde" unicode="&#xd5;" horiz-adv-x="819" 
d="M367 783q9 55 34 83t56 24.5t61 -33.5q76 -77 95 28h44q-14 -82 -60.5 -101.5t-90.5 27.5q-76 77 -95 -28h-44zM365 -11q-150 0 -238 109t-62 260q26 150 147 251.5t275 101.5q150 0 238.5 -110.5t62.5 -261.5q-27 -150 -147.5 -250t-275.5 -100zM374 40
q132 0 234.5 88.5t125.5 218.5t-50.5 221.5t-205.5 91.5t-234.5 -90t-124.5 -220q-23 -130 50.5 -220t204.5 -90z" />
    <glyph glyph-name="Odieresis" unicode="&#xd6;" horiz-adv-x="819" 
d="M411 777q-15 0 -24 10.5t-6 25.5q2 16 15 26.5t28 10.5t23.5 -10.5t6.5 -26.5q-3 -15 -15.5 -25.5t-27.5 -10.5zM591 777q-15 0 -24 10.5t-6 25.5q2 16 15 26.5t28 10.5t23.5 -10.5t6.5 -26.5q-3 -15 -15.5 -25.5t-27.5 -10.5zM365 -11q-150 0 -238 109t-62 260
q26 150 147 251.5t275 101.5q150 0 238.5 -110.5t62.5 -261.5q-27 -150 -147.5 -250t-275.5 -100zM374 40q132 0 234.5 88.5t125.5 218.5t-50.5 221.5t-205.5 91.5t-234.5 -90t-124.5 -220q-23 -130 50.5 -220t204.5 -90z" />
    <glyph glyph-name="multiply" unicode="&#xd7;" horiz-adv-x="469" 
d="M455 494l-170 -146l119 -142l-37 -32l-119 143l-166 -143l-33 32l170 146l-119 142l37 32l119 -142l166 142z" />
    <glyph glyph-name="Oslash" unicode="&#xd8;" horiz-adv-x="829" 
d="M729 608q96 -111 69 -269q-27 -150 -147.5 -250t-275.5 -100q-119 0 -204 74l-64 -63l-35 22l71 69q-95 110 -68 267q26 150 147 251.5t275 101.5q118 0 203 -74l64 63l35 -23zM129 350q-24 -130 52 -222l481 472q-69 60 -174 60q-132 0 -234.5 -90t-124.5 -220zM744 347
q23 132 -53 224l-482 -471q71 -60 175 -60q132 0 234.5 88.5t125.5 218.5z" />
    <glyph glyph-name="Ugrave" unicode="&#xd9;" horiz-adv-x="667" 
d="M458 770l-58 127h-60l70 -127h48zM296 -11q-117 0 -179 68.5t-43 176.5l82 466h53l-82 -466q-15 -87 28.5 -140.5t139.5 -53.5q98 0 161 54.5t78 139.5l82 466h53l-82 -466q-20 -113 -99 -179t-192 -66z" />
    <glyph glyph-name="Uacute" unicode="&#xda;" horiz-adv-x="667" 
d="M381 770h50l112 127h-62zM296 -11q-117 0 -179 68.5t-43 176.5l82 466h53l-82 -466q-15 -87 28.5 -140.5t139.5 -53.5q98 0 161 54.5t78 139.5l82 466h53l-82 -466q-20 -113 -99 -179t-192 -66z" />
    <glyph glyph-name="Ucircumflex" unicode="&#xdb;" horiz-adv-x="667" 
d="M441 865l-97 -95h-60l130 127h59l87 -127h-55zM616 700h53l-82 -466q-20 -113 -99 -179t-192 -66q-117 0 -179 68.5t-43 176.5l82 466h53l-82 -466q-15 -87 28.5 -140.5t139.5 -53.5q98 0 161 54.5t78 139.5z" />
    <glyph glyph-name="Udieresis" unicode="&#xdc;" horiz-adv-x="667" 
d="M333 777q-15 0 -24 10.5t-6 25.5q2 16 15 26.5t28 10.5t23.5 -10.5t6.5 -26.5q-3 -15 -15.5 -25.5t-27.5 -10.5zM513 777q-15 0 -24 10.5t-6 25.5q2 16 15 26.5t28 10.5t23.5 -10.5t6.5 -26.5q-3 -15 -15.5 -25.5t-27.5 -10.5zM296 -11q-117 0 -179 68.5t-43 176.5
l82 466h53l-82 -466q-15 -87 28.5 -140.5t139.5 -53.5q98 0 161 54.5t78 139.5l82 466h53l-82 -466q-20 -113 -99 -179t-192 -66z" />
    <glyph glyph-name="Yacute" unicode="&#xdd;" 
d="M495 897l-112 -127h-50l100 127h62zM636 700l-311 -373l-58 -327h-53l58 329l-180 371h55l156 -324l270 324h63z" />
    <glyph glyph-name="Thorn" unicode="&#xde;" horiz-adv-x="587" 
d="M377 567q98 0 149 -62t35 -155q-15 -93 -88 -155t-182 -62h-172l-23 -133h-53l123 700h53l-23 -133h181zM509 357q13 71 -25 115.5t-112 44.5h-185l-59 -334h169q84 0 142 49t70 125z" />
    <glyph glyph-name="germandbls" unicode="&#xdf;" horiz-adv-x="516" 
d="M245 -4l8 46q71 -5 116.5 21t53.5 78q5 33 -11.5 69.5t-39 62.5t-40 59t-12.5 61q3 20 21 42t38.5 38.5t39.5 41.5t23 51q8 44 -21 70.5t-82 26.5q-58 0 -105 -36.5t-60 -111.5l-91 -515h-50l91 518q17 96 77 144.5t144 48.5q77 0 118.5 -43.5t29.5 -106.5
q-7 -36 -36 -70t-56 -60.5t-30 -43.5q-2 -17 9 -38.5t28.5 -43.5t34 -47t26 -57t4.5 -65q-12 -71 -70.5 -109t-157.5 -31z" />
    <glyph glyph-name="agrave" unicode="&#xe0;" horiz-adv-x="646" 
d="M397 570h-48l-70 127h60zM563 500h50l-88 -500h-50l18 102q-84 -113 -231 -113q-106 0 -171 81t-46 191q21 117 103.5 183.5t185.5 66.5q71 0 127 -36.5t80 -100.5zM274 37q90 0 159 58t84 148q17 97 -37.5 158.5t-142.5 61.5q-86 0 -155 -55.5t-86 -150.5
q-16 -90 36 -155t142 -65z" />
    <glyph glyph-name="aacute" unicode="&#xe1;" horiz-adv-x="646" 
d="M482 697l-112 -127h-50l100 127h62zM563 500h50l-88 -500h-50l18 102q-84 -113 -231 -113q-106 0 -171 81t-46 191q21 117 103.5 183.5t185.5 66.5q71 0 127 -36.5t80 -100.5zM274 37q90 0 159 58t84 148q17 97 -37.5 158.5t-142.5 61.5q-86 0 -155 -55.5t-86 -150.5
q-16 -90 36 -155t142 -65z" />
    <glyph glyph-name="acircumflex" unicode="&#xe2;" horiz-adv-x="646" 
d="M380 665l-97 -95h-60l130 127h59l87 -127h-55zM563 500h50l-88 -500h-50l18 102q-84 -113 -231 -113q-106 0 -171 81t-46 191q21 117 103.5 183.5t185.5 66.5q71 0 127 -36.5t80 -100.5zM274 37q90 0 159 58t84 148q17 97 -37.5 158.5t-142.5 61.5q-86 0 -155 -55.5
t-86 -150.5q-16 -90 36 -155t142 -65z" />
    <glyph glyph-name="atilde" unicode="&#xe3;" horiz-adv-x="646" 
d="M367 611q-76 77 -95 -28h-44q9 55 34 83t56 24.5t61 -33.5q76 -77 95 28h44q-14 -82 -60.5 -101.5t-90.5 27.5zM563 500h50l-88 -500h-50l18 102q-84 -113 -231 -113q-106 0 -171 81t-46 191q21 117 103.5 183.5t185.5 66.5q71 0 127 -36.5t80 -100.5zM274 37
q90 0 159 58t84 148q17 97 -37.5 158.5t-142.5 61.5q-86 0 -155 -55.5t-86 -150.5q-16 -90 36 -155t142 -65z" />
    <glyph glyph-name="adieresis" unicode="&#xe4;" horiz-adv-x="646" 
d="M272 577q-15 0 -24 10.5t-6 25.5q2 16 15 26.5t28 10.5t23.5 -10.5t6.5 -26.5q-3 -15 -15.5 -25.5t-27.5 -10.5zM452 577q-15 0 -24 10.5t-6 25.5q2 16 15 26.5t28 10.5t23.5 -10.5t6.5 -26.5q-3 -15 -15.5 -25.5t-27.5 -10.5zM563 500h50l-88 -500h-50l18 102
q-84 -113 -231 -113q-106 0 -171 81t-46 191q21 117 103.5 183.5t185.5 66.5q71 0 127 -36.5t80 -100.5zM274 37q90 0 159 58t84 148q17 97 -37.5 158.5t-142.5 61.5q-86 0 -155 -55.5t-86 -150.5q-16 -90 36 -155t142 -65z" />
    <glyph glyph-name="aring" unicode="&#xe5;" horiz-adv-x="646" 
d="M361 553q-46 0 -70 28.5t-17 70.5t40 68.5t77 26.5q46 0 70 -28.5t18 -70.5q-7 -42 -40 -68.5t-78 -26.5zM317 650q-5 -25 8.5 -41t40.5 -16t46.5 16t24.5 41q4 26 -10 41.5t-41 15.5q-26 0 -45.5 -15.5t-23.5 -41.5zM563 500h50l-88 -500h-50l18 102q-84 -113 -231 -113
q-106 0 -171 81t-46 191q21 117 103.5 183.5t185.5 66.5q71 0 127 -36.5t80 -100.5zM274 37q90 0 159 58t84 148q17 97 -37.5 158.5t-142.5 61.5q-86 0 -155 -55.5t-86 -150.5q-16 -90 36 -155t142 -65z" />
    <glyph glyph-name="ae" unicode="&#xe6;" horiz-adv-x="1062" 
d="M824 511q107 0 162.5 -79t35.5 -184q-2 -12 -6 -24h-450q-7 -85 41 -136t134 -51q62 0 111.5 24.5t79.5 66.5l40 -26q-40 -52 -101.5 -82.5t-132.5 -30.5q-73 0 -123 33.5t-70 93.5l-20 -116h-50l18 105q-40 -55 -101 -85.5t-133 -30.5q-106 0 -169.5 79t-44.5 190
q21 116 105.5 184.5t187.5 68.5q70 0 125 -35t79 -97l21 121h50l-20 -112q84 123 231 123zM271 37q89 0 160 60t87 149q17 97 -36.5 157t-141.5 60q-86 0 -156.5 -57.5t-87.5 -152.5q-16 -90 34.5 -153t140.5 -63zM574 273h400q9 89 -36.5 139.5t-123.5 50.5
q-87 0 -152.5 -53t-87.5 -137z" />
    <glyph glyph-name="ccedilla" unicode="&#xe7;" horiz-adv-x="562" 
d="M344 463q-91 0 -161.5 -60t-86.5 -150q-16 -91 33 -153.5t140 -62.5q60 0 112.5 28.5t83.5 76.5l40 -27q-36 -55 -95.5 -88t-131.5 -38l-8 -45q38 -5 60.5 -26.5t17.5 -52.5q-17 -92 -209 -76l8 41q71 -7 111 3.5t45 35.5q4 22 -18.5 33t-65.5 10l14 78q-98 10 -152 87
t-36 181q19 111 105.5 182t198.5 71q72 0 126.5 -34.5t74.5 -92.5l-43 -23q-17 48 -59 75t-104 27z" />
    <glyph glyph-name="egrave" unicode="&#xe8;" horiz-adv-x="588" 
d="M393 570h-48l-70 127h60zM342 511q112 0 169.5 -78t36.5 -185q-3 -17 -6 -24h-451q-6 -85 42.5 -136t134.5 -51q124 0 190 92l39 -26q-36 -54 -100 -84t-136 -30q-114 0 -175 76.5t-41 191.5q20 111 103 182.5t194 71.5zM99 273h401q9 90 -36 140t-126 50q-86 0 -151 -52
t-88 -138z" />
    <glyph glyph-name="eacute" unicode="&#xe9;" horiz-adv-x="588" 
d="M478 697l-112 -127h-50l100 127h62zM342 511q112 0 169.5 -78t36.5 -185q-3 -17 -6 -24h-451q-6 -85 42.5 -136t134.5 -51q124 0 190 92l39 -26q-36 -54 -100 -84t-136 -30q-114 0 -175 76.5t-41 191.5q20 111 103 182.5t194 71.5zM99 273h401q9 90 -36 140t-126 50
q-86 0 -151 -52t-88 -138z" />
    <glyph glyph-name="ecircumflex" unicode="&#xea;" horiz-adv-x="588" 
d="M376 665l-97 -95h-60l130 127h59l87 -127h-55zM342 511q112 0 169.5 -78t36.5 -185q-3 -17 -6 -24h-451q-6 -85 42.5 -136t134.5 -51q124 0 190 92l39 -26q-36 -54 -100 -84t-136 -30q-114 0 -175 76.5t-41 191.5q20 111 103 182.5t194 71.5zM99 273h401q9 90 -36 140
t-126 50q-86 0 -151 -52t-88 -138z" />
    <glyph glyph-name="edieresis" unicode="&#xeb;" horiz-adv-x="588" 
d="M268 577q-15 0 -24 10.5t-6 25.5q2 16 15 26.5t28 10.5t23.5 -10.5t6.5 -26.5q-3 -15 -15.5 -25.5t-27.5 -10.5zM448 577q-15 0 -24 10.5t-6 25.5q2 16 15 26.5t28 10.5t23.5 -10.5t6.5 -26.5q-3 -15 -15.5 -25.5t-27.5 -10.5zM342 511q112 0 169.5 -78t36.5 -185
q-3 -17 -6 -24h-451q-6 -85 42.5 -136t134.5 -51q124 0 190 92l39 -26q-36 -54 -100 -84t-136 -30q-114 0 -175 76.5t-41 191.5q20 111 103 182.5t194 71.5zM99 273h401q9 90 -36 140t-126 50q-86 0 -151 -52t-88 -138z" />
    <glyph glyph-name="igrave" unicode="&#xec;" horiz-adv-x="204" 
d="M185 570l-33 127h-61l45 -127h49zM83 0h-50l88 500h50z" />
    <glyph glyph-name="iacute" unicode="&#xed;" horiz-adv-x="204" 
d="M132 570h49l88 127h-60zM33 0l88 500h50l-88 -500h-50z" />
    <glyph glyph-name="icircumflex" unicode="&#xee;" horiz-adv-x="204" 
d="M273 570h-57l-42 86l-72 -86h-57l106 127h59zM33 0l88 500h50l-88 -500h-50z" />
    <glyph glyph-name="idieresis" unicode="&#xef;" horiz-adv-x="204" 
d="M94 577q-16 0 -25 10.5t-6 25.5q3 16 15.5 26.5t28.5 10.5q15 0 23.5 -10.5t6.5 -26.5q-3 -15 -15.5 -25.5t-27.5 -10.5zM226 577q-16 0 -24.5 10.5t-6.5 25.5q3 16 15.5 26.5t28.5 10.5q15 0 24 -10.5t6 -26.5q-3 -15 -15.5 -25.5t-27.5 -10.5zM33 0l88 500h50l-88 -500
h-50z" />
    <glyph glyph-name="eth" unicode="&#xf0;" horiz-adv-x="588" 
d="M514 369q39 -67 25 -153q-20 -108 -98 -167.5t-183 -59.5q-101 0 -168.5 74t-47.5 181q17 101 93 159.5t174 58.5q65 0 112 -28l-83 149l-139 -77l8 47l112 62l-47 85h52l36 -62l121 67l-9 -47l-94 -52zM488 220q12 75 -14 120q-46 77 -161 77q-86 0 -146 -47.5
t-74 -129.5q-16 -86 35.5 -144.5t138.5 -58.5q83 0 144.5 49t76.5 134z" />
    <glyph glyph-name="ntilde" unicode="&#xf1;" horiz-adv-x="564" 
d="M340 611q-76 77 -95 -28h-44q9 55 34 83t56 24.5t61 -33.5q76 -77 95 28h44q-14 -82 -60.5 -101.5t-90.5 27.5zM348 511q89 0 133.5 -54.5t29.5 -145.5l-55 -311h-51l55 311q12 70 -19 111t-102 41q-77 0 -134.5 -51t-74.5 -148v1l-47 -265h-50l88 500h50l-15 -87
q71 98 192 98z" />
    <glyph glyph-name="ograve" unicode="&#xf2;" horiz-adv-x="612" 
d="M396 570l-58 127h-60l70 -127h48zM264 -11q-106 0 -173 74t-47 192q21 117 111 186.5t198 69.5q105 0 170 -74.5t45 -190.5q-21 -119 -109 -188t-195 -69zM269 37q87 0 159.5 58.5t89.5 156.5q17 95 -35.5 153t-138.5 58q-87 -1 -159.5 -59t-89.5 -154t35.5 -154.5
t138.5 -58.5z" />
    <glyph glyph-name="oacute" unicode="&#xf3;" horiz-adv-x="612" 
d="M319 570h50l112 127h-62zM264 -11q-106 0 -173 74t-47 192q21 117 111 186.5t198 69.5q105 0 170 -74.5t45 -190.5q-21 -119 -109 -188t-195 -69zM269 37q87 0 159.5 58.5t89.5 156.5q17 95 -35.5 153t-138.5 58q-87 -1 -159.5 -59t-89.5 -154t35.5 -154.5t138.5 -58.5z
" />
    <glyph glyph-name="ocircumflex" unicode="&#xf4;" horiz-adv-x="612" 
d="M379 665l-97 -95h-60l130 127h59l87 -127h-55zM353 511q105 0 170 -74.5t45 -190.5q-21 -119 -109 -188t-195 -69q-106 0 -173 74t-47 192q21 117 111 186.5t198 69.5zM518 252q17 95 -35.5 153t-138.5 58q-87 -1 -159.5 -59t-89.5 -154t35.5 -154.5t138.5 -58.5
q87 0 159.5 58.5t89.5 156.5z" />
    <glyph glyph-name="otilde" unicode="&#xf5;" horiz-adv-x="612" 
d="M227 583q9 55 34 83t56 24.5t61 -33.5q76 -77 95 28h44q-14 -82 -60.5 -101.5t-90.5 27.5q-76 77 -95 -28h-44zM264 -11q-106 0 -173 74t-47 192q21 117 111 186.5t198 69.5q105 0 170 -74.5t45 -190.5q-21 -119 -109 -188t-195 -69zM269 37q87 0 159.5 58.5t89.5 156.5
q17 95 -35.5 153t-138.5 58q-87 -1 -159.5 -59t-89.5 -154t35.5 -154.5t138.5 -58.5z" />
    <glyph glyph-name="odieresis" unicode="&#xf6;" horiz-adv-x="612" 
d="M271 577q-15 0 -24 10.5t-6 25.5q2 16 15 26.5t28 10.5t23.5 -10.5t6.5 -26.5q-3 -15 -15.5 -25.5t-27.5 -10.5zM451 577q-15 0 -24 10.5t-6 25.5q2 16 15 26.5t28 10.5t23.5 -10.5t6.5 -26.5q-3 -15 -15.5 -25.5t-27.5 -10.5zM264 -11q-106 0 -173 74t-47 192
q21 117 111 186.5t198 69.5q105 0 170 -74.5t45 -190.5q-21 -119 -109 -188t-195 -69zM269 37q87 0 159.5 58.5t89.5 156.5q17 95 -35.5 153t-138.5 58q-87 -1 -159.5 -59t-89.5 -154t35.5 -154.5t138.5 -58.5z" />
    <glyph glyph-name="divide" unicode="&#xf7;" horiz-adv-x="580" 
d="M333 492q-19 0 -30 14t-7 33q3 19 17.5 31t34.5 12q19 0 30 -14t8 -33q-4 -19 -19 -31t-34 -12zM77 326l8 48h453l-8 -48h-453zM267 118q-19 0 -30 14t-7 33q3 19 17.5 31t34.5 12q19 0 30 -14t8 -33q-4 -19 -19 -31t-34 -12z" />
    <glyph glyph-name="oslash" unicode="&#xf8;" horiz-adv-x="612" 
d="M584 483l-56 -52q59 -75 40 -185q-21 -119 -109 -188t-195 -69q-90 0 -153 54l-49 -46l-32 20l56 52q-61 75 -42 186q21 117 111 186.5t198 69.5q88 0 150 -54l49 46zM95 250q-15 -88 29 -146l341 318q-49 41 -121 41q-87 -1 -159.5 -59t-89.5 -154zM518 252
q15 86 -28 143l-341 -317q47 -41 120 -41q87 0 159.5 58.5t89.5 156.5z" />
    <glyph glyph-name="ugrave" unicode="&#xf9;" horiz-adv-x="564" 
d="M366 570h-48l-70 127h60zM481 500h50l-88 -500h-50l15 87q-71 -98 -192 -98q-89 0 -133.5 54.5t-29.5 145.5l55 311h51l-55 -311q-12 -70 19 -111t102 -41q77 0 134.5 51t74.5 148v-1z" />
    <glyph glyph-name="uacute" unicode="&#xfa;" horiz-adv-x="564" 
d="M451 697l-112 -127h-50l100 127h62zM481 500h50l-88 -500h-50l15 87q-71 -98 -192 -98q-89 0 -133.5 54.5t-29.5 145.5l55 311h51l-55 -311q-12 -70 19 -111t102 -41q77 0 134.5 51t74.5 148v-1z" />
    <glyph glyph-name="ucircumflex" unicode="&#xfb;" horiz-adv-x="564" 
d="M349 665l-97 -95h-60l130 127h59l87 -127h-55zM481 500h50l-88 -500h-50l15 87q-71 -98 -192 -98q-89 0 -133.5 54.5t-29.5 145.5l55 311h51l-55 -311q-12 -70 19 -111t102 -41q77 0 134.5 51t74.5 148v-1z" />
    <glyph glyph-name="udieresis" unicode="&#xfc;" horiz-adv-x="564" 
d="M241 577q-15 0 -24 10.5t-6 25.5q2 16 15 26.5t28 10.5t23.5 -10.5t6.5 -26.5q-3 -15 -15.5 -25.5t-27.5 -10.5zM421 577q-15 0 -24 10.5t-6 25.5q2 16 15 26.5t28 10.5t23.5 -10.5t6.5 -26.5q-3 -15 -15.5 -25.5t-27.5 -10.5zM481 500h50l-88 -500h-50l15 87
q-71 -98 -192 -98q-89 0 -133.5 54.5t-29.5 145.5l55 311h51l-55 -311q-12 -70 19 -111t102 -41q77 0 134.5 51t74.5 148v-1z" />
    <glyph glyph-name="yacute" unicode="&#xfd;" horiz-adv-x="510" 
d="M416 697l-112 -127h-50l100 127h62zM484 500h57l-312 -546q-44 -78 -102.5 -118.5t-122.5 -35.5l8 47q93 -9 167 117l17 28l-139 508h51l121 -450z" />
    <glyph glyph-name="thorn" unicode="&#xfe;" horiz-adv-x="646" 
d="M384 511q106 0 171 -81t46 -191q-21 -117 -103.5 -183.5t-185.5 -66.5q-71 0 -127 36t-80 100l-57 -325h-50l158 900h50l-53 -302q84 113 231 113zM550 243q16 90 -36 155t-142 65t-158.5 -58t-84.5 -148q-17 -97 37.5 -158.5t142.5 -61.5q86 0 155 55.5t86 150.5z" />
    <glyph glyph-name="ydieresis" unicode="&#xff;" horiz-adv-x="510" 
d="M206 577q-15 0 -24 10.5t-6 25.5q2 16 15 26.5t28 10.5t23.5 -10.5t6.5 -26.5q-3 -15 -15.5 -25.5t-27.5 -10.5zM386 577q-15 0 -24 10.5t-6 25.5q2 16 15 26.5t28 10.5t23.5 -10.5t6.5 -26.5q-3 -15 -15.5 -25.5t-27.5 -10.5zM484 500h57l-312 -546
q-44 -78 -102.5 -118.5t-122.5 -35.5l8 47q93 -9 167 117l17 28l-139 508h51l121 -450z" />
    <glyph glyph-name="Amacron" unicode="&#x100;" horiz-adv-x="629" 
d="M543 831l-7 -44h-254l8 44h253zM516 0l-36 178h-351l-100 -178h-58l395 700h56l148 -700h-54zM157 228h312l-83 407z" />
    <glyph glyph-name="amacron" unicode="&#x101;" horiz-adv-x="646" 
d="M498 631l-7 -44h-254l8 44h253zM563 500h50l-88 -500h-50l18 102q-84 -113 -231 -113q-106 0 -171 81t-46 191q21 117 103.5 183.5t185.5 66.5q71 0 127 -36.5t80 -100.5zM274 37q90 0 159 58t84 148q17 97 -37.5 158.5t-142.5 61.5q-86 0 -155 -55.5t-86 -150.5
q-16 -90 36 -155t142 -65z" />
    <glyph glyph-name="Abreve" unicode="&#x102;" horiz-adv-x="629" 
d="M407 765q-59 0 -91 33t-22 89h48q-13 -78 71 -78q40 0 66 20.5t33 57.5h48q-10 -57 -50 -89.5t-103 -32.5zM516 0l-36 178h-351l-100 -178h-58l395 700h56l148 -700h-54zM157 228h312l-83 407z" />
    <glyph glyph-name="abreve" unicode="&#x103;" horiz-adv-x="646" 
d="M362 565q-59 0 -91 33t-22 89h48q-13 -78 71 -78q40 0 66 20.5t33 57.5h48q-10 -57 -50 -89.5t-103 -32.5zM563 500h50l-88 -500h-50l18 102q-84 -113 -231 -113q-106 0 -171 81t-46 191q21 117 103.5 183.5t185.5 66.5q71 0 127 -36.5t80 -100.5zM274 37q90 0 159 58
t84 148q17 97 -37.5 158.5t-142.5 61.5q-86 0 -155 -55.5t-86 -150.5q-16 -90 36 -155t142 -65z" />
    <glyph glyph-name="Aogonek" unicode="&#x104;" horiz-adv-x="629" 
d="M464 -130q-6 -38 34 -38q25 0 44 8l-7 -41q-23 -10 -56 -10q-35 0 -53 21.5t-12 54.5q11 64 102 137l-36 176h-351l-100 -178h-58l395 700h56l148 -700q-95 -74 -106 -130zM157 228h312l-83 407z" />
    <glyph glyph-name="aogonek" unicode="&#x105;" horiz-adv-x="647" 
d="M525 0q-97 -76 -106 -131q-6 -37 34 -37q21 0 44 9l-7 -42q-24 -10 -56 -10q-36 0 -53.5 21.5t-11.5 54.5q11 63 108 147l16 90q-84 -113 -231 -113q-106 0 -171 81t-46 191q21 117 103.5 183.5t185.5 66.5q71 0 127 -36.5t80 -100.5l22 126h50zM274 37q90 0 159 58
t84 148q17 97 -37.5 158.5t-142.5 61.5q-86 0 -155 -55.5t-86 -150.5q-16 -90 36 -155t142 -65z" />
    <glyph glyph-name="Cacute" unicode="&#x106;" horiz-adv-x="751" 
d="M461 770h50l112 127h-62zM365 -11q-157 0 -242 108t-58 260t145 253t268 101q100 0 173.5 -45.5t109.5 -123.5l-47 -25q-67 143 -237 143q-134 0 -235.5 -89.5t-124.5 -220.5q-22 -131 49 -220.5t204 -89.5q85 0 159.5 39.5t122.5 109.5l45 -28q-56 -79 -144 -125.5
t-188 -46.5z" />
    <glyph glyph-name="cacute" unicode="&#x107;" horiz-adv-x="562" 
d="M309 570h50l112 127h-62zM260 -11q-110 0 -172.5 79t-42.5 190q19 111 105.5 182t198.5 71q72 0 126.5 -34.5t74.5 -92.5l-43 -23q-17 48 -59 75t-104 27q-91 0 -161.5 -60t-86.5 -150q-16 -91 33 -153.5t140 -62.5q60 0 112.5 28.5t83.5 76.5l40 -27
q-38 -59 -102.5 -92.5t-142.5 -33.5z" />
    <glyph glyph-name="Cdotaccent" unicode="&#x10a;" horiz-adv-x="751" 
d="M502 773q-20 0 -31 14t-7 33q3 20 19 33.5t35 13.5q20 0 31.5 -13.5t7.5 -33.5t-19.5 -33.5t-35.5 -13.5zM365 -11q-157 0 -242 108t-58 260t145 253t268 101q100 0 173.5 -45.5t109.5 -123.5l-47 -25q-67 143 -237 143q-134 0 -235.5 -89.5t-124.5 -220.5
q-22 -131 49 -220.5t204 -89.5q85 0 159.5 39.5t122.5 109.5l45 -28q-56 -79 -144 -125.5t-188 -46.5z" />
    <glyph glyph-name="cdotaccent" unicode="&#x10b;" horiz-adv-x="562" 
d="M350 573q-20 0 -31 14t-7 33q3 20 19 33.5t35 13.5q20 0 31.5 -13.5t7.5 -33.5t-19.5 -33.5t-35.5 -13.5zM260 -11q-110 0 -172.5 79t-42.5 190q19 111 105.5 182t198.5 71q72 0 126.5 -34.5t74.5 -92.5l-43 -23q-17 48 -59 75t-104 27q-91 0 -161.5 -60t-86.5 -150
q-16 -91 33 -153.5t140 -62.5q60 0 112.5 28.5t83.5 76.5l40 -27q-38 -59 -102.5 -92.5t-142.5 -33.5z" />
    <glyph glyph-name="Ccaron" unicode="&#x10c;" horiz-adv-x="751" 
d="M473 770l-86 127h54l64 -94l96 94h61l-130 -127h-59zM477 660q-134 0 -235.5 -89.5t-124.5 -220.5q-22 -131 49 -220.5t204 -89.5q85 0 159.5 39.5t122.5 109.5l45 -28q-56 -79 -144 -125.5t-188 -46.5q-157 0 -242 108t-58 260t145 253t268 101q100 0 173.5 -45.5
t109.5 -123.5l-47 -25q-67 143 -237 143z" />
    <glyph glyph-name="ccaron" unicode="&#x10d;" horiz-adv-x="562" 
d="M321 570l-86 127h54l64 -94l96 94h61l-130 -127h-59zM344 463q-91 0 -161.5 -60t-86.5 -150q-16 -91 33 -153.5t140 -62.5q60 0 112.5 28.5t83.5 76.5l40 -27q-38 -59 -102.5 -92.5t-142.5 -33.5q-110 0 -172.5 79t-42.5 190q19 111 105.5 182t198.5 71q72 0 126.5 -34.5
t74.5 -92.5l-43 -23q-17 48 -59 75t-104 27z" />
    <glyph glyph-name="Dcaron" unicode="&#x10e;" horiz-adv-x="728" 
d="M402 770l-86 127h54l64 -94l96 94h61l-130 -127h-59zM429 700q139 0 217 -106t52 -252q-26 -147 -135.5 -244.5t-256.5 -97.5h-263l123 700h263zM646 350q21 126 -41.5 213t-183.5 87h-211l-105 -600h210q122 0 215.5 86.5t115.5 213.5z" />
    <glyph glyph-name="dcaron" unicode="&#x10f;" horiz-adv-x="697" 
d="M541 375l57 325h50l-123 -700h-50l18 102q-84 -113 -231 -113q-106 0 -171 81t-46 191q21 117 103.5 183.5t185.5 66.5q71 0 127 -36t80 -100zM732 700h51l-55 -170h-36zM274 37q90 0 158.5 58t84.5 148q17 97 -37.5 158.5t-142.5 61.5q-86 0 -155 -55.5t-86 -150.5
q-16 -90 36 -155t142 -65z" />
    <glyph glyph-name="Dcroat" unicode="&#x110;" horiz-adv-x="748" 
d="M449 700q139 0 217 -106t52 -252q-26 -147 -135.5 -244.5t-256.5 -97.5h-263l57 326h-67l8 48h68l57 326h263zM666 350q21 126 -41.5 213t-183.5 87h-211l-48 -276h239l-8 -48h-240l-48 -276h210q122 0 215.5 86.5t115.5 213.5z" />
    <glyph glyph-name="dcroat" unicode="&#x111;" horiz-adv-x="653" 
d="M702 624l-7 -42h-68l-102 -582h-51l18 100q-85 -111 -230 -111q-106 0 -171 81t-46 191q21 117 103.5 183.5t185.5 66.5q70 0 126 -36t80 -99l36 206h-201l7 42h202l13 76h51l-13 -76h67zM274 37q85 0 152.5 53t87.5 135l5 33q11 91 -43.5 148t-138.5 57
q-86 0 -155 -55.5t-86 -150.5q-16 -90 36 -155t142 -65z" />
    <glyph glyph-name="Emacron" unicode="&#x112;" horiz-adv-x="533" 
d="M512 831l-7 -44h-254l8 44h253zM556 650h-346l-48 -272h321l-9 -50h-320l-49 -278h350l-9 -50h-403l123 700h398z" />
    <glyph glyph-name="emacron" unicode="&#x113;" horiz-adv-x="588" 
d="M494 631l-7 -44h-254l8 44h253zM342 511q112 0 169.5 -78t36.5 -185q-3 -17 -6 -24h-451q-6 -85 42.5 -136t134.5 -51q124 0 190 92l39 -26q-36 -54 -100 -84t-136 -30q-114 0 -175 76.5t-41 191.5q20 111 103 182.5t194 71.5zM99 273h401q9 90 -36 140t-126 50
q-86 0 -151 -52t-88 -138z" />
    <glyph glyph-name="Edotaccent" unicode="&#x116;" horiz-adv-x="533" 
d="M375 773q-20 0 -31 14t-7 33q3 20 19 33.5t35 13.5q20 0 31.5 -13.5t7.5 -33.5t-19.5 -33.5t-35.5 -13.5zM556 650h-346l-48 -272h321l-9 -50h-320l-49 -278h350l-9 -50h-403l123 700h398z" />
    <glyph glyph-name="edotaccent" unicode="&#x117;" horiz-adv-x="588" 
d="M357 573q-20 0 -31 14t-7 33q3 20 19 33.5t35 13.5q20 0 31.5 -13.5t7.5 -33.5t-19.5 -33.5t-35.5 -13.5zM342 511q112 0 169.5 -78t36.5 -185q-3 -17 -6 -24h-451q-6 -85 42.5 -136t134.5 -51q124 0 190 92l39 -26q-36 -54 -100 -84t-136 -30q-114 0 -175 76.5
t-41 191.5q20 111 103 182.5t194 71.5zM99 273h401q9 90 -36 140t-126 50q-86 0 -151 -52t-88 -138z" />
    <glyph glyph-name="Eogonek" unicode="&#x118;" horiz-adv-x="534" 
d="M556 650h-346l-48 -272h321l-9 -50h-320l-49 -278h350l-9 -50q-97 -73 -106 -127q-3 -18 6 -29.5t28 -11.5q22 0 44 9l-8 -43q-19 -9 -54 -9q-38 0 -55.5 23.5t-11.5 56.5q10 63 102 131h-348l123 700h398z" />
    <glyph glyph-name="eogonek" unicode="&#x119;" horiz-adv-x="588" 
d="M342 511q112 0 169.5 -78t36.5 -185q-3 -17 -6 -24h-451q-6 -85 42.5 -136t134.5 -51q124 0 190 92l39 -26q-23 -34 -56 -58q-141 -119 -151 -176q-8 -37 36 -37q20 0 42 9l-7 -42q-24 -10 -53 -10q-40 0 -57.5 21t-11.5 55q13 64 100 133q-37 -9 -78 -9
q-114 0 -175 76.5t-41 191.5q20 111 103 182.5t194 71.5zM99 273h401q9 90 -36 140t-126 50q-86 0 -151 -52t-88 -138z" />
    <glyph glyph-name="Ecaron" unicode="&#x11a;" horiz-adv-x="533" 
d="M346 770l-86 127h54l64 -94l96 94h61l-130 -127h-59zM556 650h-346l-48 -272h321l-9 -50h-320l-49 -278h350l-9 -50h-403l123 700h398z" />
    <glyph glyph-name="ecaron" unicode="&#x11b;" horiz-adv-x="588" 
d="M328 570l-86 127h54l64 -94l96 94h61l-130 -127h-59zM342 511q112 0 169.5 -78t36.5 -185q-3 -17 -6 -24h-451q-6 -85 42.5 -136t134.5 -51q124 0 190 92l39 -26q-36 -54 -100 -84t-136 -30q-114 0 -175 76.5t-41 191.5q20 111 103 182.5t194 71.5zM99 273h401
q9 90 -36 140t-126 50q-86 0 -151 -52t-88 -138z" />
    <glyph glyph-name="Gbreve" unicode="&#x11e;" horiz-adv-x="800" 
d="M494 765q-59 0 -91 33t-22 89h48q-13 -78 71 -78q40 0 66 20.5t33 57.5h48q-10 -57 -50 -89.5t-103 -32.5zM767 326l-5 -26q-24 -133 -129.5 -222t-253.5 -89q-164 0 -252 109t-61 264q26 149 144 249t271 100q101 0 173 -45.5t111 -123.5l-47 -25q-72 143 -239 143
q-135 0 -237 -88t-124 -218q-22 -132 50.5 -223t212.5 -91q121 0 208.5 67.5t114.5 168.5h-297l9 50h351z" />
    <glyph glyph-name="gbreve" unicode="&#x11f;" horiz-adv-x="650" 
d="M373 565q-59 0 -91 33t-22 89h48q-13 -78 71 -78q40 0 66 20.5t33 57.5h48q-10 -57 -50 -89.5t-103 -32.5zM566 500h51l-84 -476q-20 -112 -97 -173.5t-190 -61.5q-81 0 -138 32.5t-80 87.5l45 23q16 -42 59.5 -68.5t115.5 -26.5q97 0 157.5 49t76.5 138l14 78
q-40 -54 -98 -83.5t-126 -29.5q-114 0 -177.5 79t-45.5 193q17 112 101 181t186 69q71 0 127.5 -36t80.5 -100zM280 37q84 0 150.5 53t87.5 138l6 32q9 90 -46.5 146.5t-138.5 56.5q-85 0 -155.5 -57t-84.5 -149q-14 -93 37.5 -156.5t143.5 -63.5z" />
    <glyph glyph-name="Gdotaccent" unicode="&#x120;" horiz-adv-x="800" 
d="M493 773q-20 0 -31 14t-7 33q3 20 19 33.5t35 13.5q20 0 31.5 -13.5t7.5 -33.5t-19.5 -33.5t-35.5 -13.5zM767 326l-5 -26q-24 -133 -129.5 -222t-253.5 -89q-164 0 -252 109t-61 264q26 149 144 249t271 100q101 0 173 -45.5t111 -123.5l-47 -25q-72 143 -239 143
q-135 0 -237 -88t-124 -218q-22 -132 50.5 -223t212.5 -91q121 0 208.5 67.5t114.5 168.5h-297l9 50h351z" />
    <glyph glyph-name="gdotaccent" unicode="&#x121;" horiz-adv-x="650" 
d="M372 573q-20 0 -31 14t-7 33q3 20 19 33.5t35 13.5q20 0 31.5 -13.5t7.5 -33.5t-19.5 -33.5t-35.5 -13.5zM566 500h51l-84 -476q-20 -112 -97 -173.5t-190 -61.5q-81 0 -138 32.5t-80 87.5l45 23q16 -42 59.5 -68.5t115.5 -26.5q97 0 157.5 49t76.5 138l14 78
q-40 -54 -98 -83.5t-126 -29.5q-114 0 -177.5 79t-45.5 193q17 112 101 181t186 69q71 0 127.5 -36t80.5 -100zM280 37q84 0 150.5 53t87.5 138l6 32q9 90 -46.5 146.5t-138.5 56.5q-85 0 -155.5 -57t-84.5 -149q-14 -93 37.5 -156.5t143.5 -63.5z" />
    <glyph glyph-name="Gcommaaccent" unicode="&#x122;" horiz-adv-x="800" 
d="M767 326l-5 -26q-24 -133 -129.5 -222t-253.5 -89q-164 0 -252 109t-61 264q26 149 144 249t271 100q101 0 173 -45.5t111 -123.5l-47 -25q-72 143 -239 143q-135 0 -237 -88t-124 -218q-22 -132 50.5 -223t212.5 -91q121 0 208.5 67.5t114.5 168.5h-297l9 50h351z
M309 -240l40 170h51l-55 -170h-36z" />
    <glyph glyph-name="gcommaaccent" unicode="&#x123;" horiz-adv-x="650" 
d="M435 760l-40 -170h-51l55 170h36zM566 500h51l-84 -476q-20 -112 -97 -173.5t-190 -61.5q-81 0 -138 32.5t-80 87.5l45 23q16 -42 59.5 -68.5t115.5 -26.5q97 0 157.5 49t76.5 138l14 78q-40 -54 -98 -83.5t-126 -29.5q-114 0 -177.5 79t-45.5 193q17 112 101 181t186 69
q71 0 127.5 -36t80.5 -100zM280 37q84 0 150.5 53t87.5 138l6 32q9 90 -46.5 146.5t-138.5 56.5q-85 0 -155.5 -57t-84.5 -149q-14 -93 37.5 -156.5t143.5 -63.5z" />
    <glyph glyph-name="Hbar" unicode="&#x126;" horiz-adv-x="740" 
d="M748 562l-7 -44h-67l-91 -518h-54l59 335h-406l-59 -335h-54l91 518h-66l8 44h66l24 138h54l-24 -138h406l24 138h54l-24 -138h66zM597 385l23 133h-406l-23 -133h406z" />
    <glyph glyph-name="hbar" unicode="&#x127;" horiz-adv-x="577" 
d="M361 511q89 0 134 -54.5t29 -145.5l-55 -311h-50l54 311q12 70 -19 111t-102 41q-73 0 -129.5 -46t-75.5 -135l-50 -282h-51l102 582h-72l7 42h73l13 76h51l-13 -76h156l-7 -42h-157l-29 -168q71 97 191 97z" />
    <glyph glyph-name="Imacron" unicode="&#x12a;" horiz-adv-x="227" 
d="M80 787l8 44h253l-7 -44h-254zM166 700h53l-123 -700h-53z" />
    <glyph glyph-name="imacron" unicode="&#x12b;" horiz-adv-x="204" 
d="M68 587l8 44h186l-7 -44h-187zM33 0l88 500h50l-88 -500h-50z" />
    <glyph glyph-name="Iogonek" unicode="&#x12e;" horiz-adv-x="227" 
d="M26 -127q-7 -41 34 -41q22 0 44 9l-7 -42q-21 -10 -56 -10t-52.5 22t-12.5 58q10 61 68 136l122 695h53l-123 -700q-62 -83 -70 -127z" />
    <glyph glyph-name="iogonek" unicode="&#x12f;" horiz-adv-x="204" 
d="M181 700q16 0 26 -11.5t7 -27.5q-3 -17 -16 -28.5t-31 -11.5q-17 0 -26 11.5t-6 28.5q2 16 15 27.5t31 11.5zM83 0q-57 -77 -66 -123q-3 -19 6 -32t27 -13q22 0 44 9l-7 -42q-24 -10 -56 -10q-37 0 -54 24.5t-11 58.5q10 51 68 134l87 494h50z" />
    <glyph glyph-name="Idotaccent" unicode="&#x130;" horiz-adv-x="227" 
d="M204 773q-20 0 -31 14t-7 33q3 20 19 33.5t35 13.5q20 0 31.5 -13.5t7.5 -33.5t-19.5 -33.5t-35.5 -13.5zM166 700h53l-123 -700h-53z" />
    <glyph glyph-name="dotlessi" unicode="&#x131;" horiz-adv-x="204" 
d="M33 0l88 500h50l-88 -500h-50z" />
    <glyph glyph-name="Kcommaaccent" unicode="&#x136;" horiz-adv-x="571" 
d="M632 700l-415 -345l300 -355h-64l-296 349l-61 -349h-53l123 700h53l-57 -326l398 326h72zM190 -240l40 170h51l-55 -170h-36z" />
    <glyph glyph-name="kcommaaccent" unicode="&#x137;" horiz-adv-x="483" 
d="M495 500l-313 -241l234 -259h-62l-227 251l-44 -251h-50l123 700h50l-75 -424l293 224h71zM142 -240l40 170h51l-55 -170h-36z" />
    <glyph glyph-name="Lacute" unicode="&#x139;" horiz-adv-x="493" 
d="M341 897l-112 -127h-50l100 127h62zM105 50h330l-9 -50h-383l123 700h53z" />
    <glyph glyph-name="lacute" unicode="&#x13a;" horiz-adv-x="205" 
d="M168 770h50l112 127h-62zM34 0l53 306l75 424h50l-74 -424l-54 -306h-50z" />
    <glyph glyph-name="Lcommaaccent" unicode="&#x13b;" horiz-adv-x="493" 
d="M105 50h330l-9 -50h-383l123 700h53zM167 -240l40 170h51l-55 -170h-36z" />
    <glyph glyph-name="lcommaaccent" unicode="&#x13c;" horiz-adv-x="205" 
d="M34 0l53 306l75 424h50l-74 -424l-54 -306h-50zM18 -240l55 170h-51l-40 -170h36z" />
    <glyph glyph-name="Lcaron" unicode="&#x13d;" horiz-adv-x="493" 
d="M105 50h330l-9 -50h-383l123 700h53zM406 700l-54 -170h-36l40 170h50z" />
    <glyph glyph-name="lcaron" unicode="&#x13e;" horiz-adv-x="247" 
d="M34 0l53 306l75 424h50l-74 -424l-54 -306h-50zM284 560l54 170h-50l-40 -170h36z" />
    <glyph glyph-name="Lslash" unicode="&#x141;" horiz-adv-x="517" 
d="M128 50h330l-9 -50h-383l45 253l-74 -43l9 53l74 44l69 393h53l-63 -359l198 117l-9 -53l-198 -117z" />
    <glyph glyph-name="lslash" unicode="&#x142;" horiz-adv-x="240" 
d="M256 453l-9 -52l-84 -52l-8 -43l-54 -306h-50l53 306l1 8l-82 -50l9 52l83 51l64 363h50l-57 -329z" />
    <glyph glyph-name="Nacute" unicode="&#x143;" horiz-adv-x="687" 
d="M393 770h50l112 127h-62zM43 0l123 700h42l312 -602l106 602h53l-123 -700h-43l-311 602l-106 -602h-53z" />
    <glyph glyph-name="nacute" unicode="&#x144;" horiz-adv-x="564" 
d="M455 697l-112 -127h-50l100 127h62zM348 511q89 0 133.5 -54.5t29.5 -145.5l-55 -311h-51l55 311q12 70 -19 111t-102 41q-77 0 -134.5 -51t-74.5 -148v1l-47 -265h-50l88 500h50l-15 -87q71 98 192 98z" />
    <glyph glyph-name="Ncommaaccent" unicode="&#x145;" horiz-adv-x="687" 
d="M43 0l123 700h42l312 -602l106 602h53l-123 -700h-43l-311 602l-106 -602h-53zM259 -240l55 170h-51l-40 -170h36z" />
    <glyph glyph-name="ncommaaccent" unicode="&#x146;" horiz-adv-x="564" 
d="M348 511q89 0 133.5 -54.5t29.5 -145.5l-55 -311h-51l55 311q12 70 -19 111t-102 41q-77 0 -134.5 -51t-74.5 -148v1l-47 -265h-50l88 500h50l-15 -87q71 98 192 98zM181 -240l40 170h51l-55 -170h-36z" />
    <glyph glyph-name="Ncaron" unicode="&#x147;" horiz-adv-x="687" 
d="M405 770l-86 127h54l64 -94l96 94h61l-130 -127h-59zM626 700h53l-123 -700h-43l-311 602l-106 -602h-53l123 700h42l312 -602z" />
    <glyph glyph-name="ncaron" unicode="&#x148;" horiz-adv-x="564" 
d="M305 570l-86 127h54l64 -94l96 94h61l-130 -127h-59zM348 511q89 0 133.5 -54.5t29.5 -145.5l-55 -311h-51l55 311q12 70 -19 111t-102 41q-77 0 -134.5 -51t-74.5 -148v1l-47 -265h-50l88 500h50l-15 -87q71 98 192 98z" />
    <glyph glyph-name="Eng" unicode="&#x14a;" horiz-adv-x="687" 
d="M626 700h53l-123 -700q-20 -113 -80.5 -157t-159.5 -43l9 51q76 -1 119.5 32.5t58.5 116.5l2 15l-303 587l-106 -602h-53l123 700h42l312 -602z" />
    <glyph glyph-name="eng" unicode="&#x14b;" horiz-adv-x="564" 
d="M348 511q89 0 133.5 -54.5t29.5 -145.5l-65 -368q-14 -80 -64 -120.5t-129 -33.5l8 48q113 -12 134 106l65 368q12 70 -19 111t-102 41q-77 0 -134.5 -51t-74.5 -148v1l-47 -265h-50l88 500h50l-15 -87q71 98 192 98z" />
    <glyph glyph-name="Omacron" unicode="&#x14c;" horiz-adv-x="819" 
d="M376 787l8 44h253l-7 -44h-254zM365 -11q-150 0 -238 109t-62 260q26 150 147 251.5t275 101.5q150 0 238.5 -110.5t62.5 -261.5q-27 -150 -147.5 -250t-275.5 -100zM374 40q132 0 234.5 88.5t125.5 218.5t-50.5 221.5t-205.5 91.5t-234.5 -90t-124.5 -220
q-23 -130 50.5 -220t204.5 -90z" />
    <glyph glyph-name="omacron" unicode="&#x14d;" horiz-adv-x="612" 
d="M236 587l8 44h253l-7 -44h-254zM264 -11q-106 0 -173 74t-47 192q21 117 111 186.5t198 69.5q105 0 170 -74.5t45 -190.5q-21 -119 -109 -188t-195 -69zM269 37q87 0 159.5 58.5t89.5 156.5q17 95 -35.5 153t-138.5 58q-87 -1 -159.5 -59t-89.5 -154t35.5 -154.5
t138.5 -58.5z" />
    <glyph glyph-name="Ohungarumlaut" unicode="&#x150;" horiz-adv-x="819" 
d="M378 770h52l96 130h-58zM520 770h53l105 130h-58zM365 -11q-150 0 -238 109t-62 260q26 150 147 251.5t275 101.5q150 0 238.5 -110.5t62.5 -261.5q-27 -150 -147.5 -250t-275.5 -100zM374 40q132 0 234.5 88.5t125.5 218.5t-50.5 221.5t-205.5 91.5t-234.5 -90
t-124.5 -220q-23 -130 50.5 -220t204.5 -90z" />
    <glyph glyph-name="ohungarumlaut" unicode="&#x151;" horiz-adv-x="612" 
d="M238 570h52l96 130h-58zM380 570h53l105 130h-58zM264 -11q-106 0 -173 74t-47 192q21 117 111 186.5t198 69.5q105 0 170 -74.5t45 -190.5q-21 -119 -109 -188t-195 -69zM269 37q87 0 159.5 58.5t89.5 156.5q17 95 -35.5 153t-138.5 58q-87 -1 -159.5 -59t-89.5 -154
t35.5 -154.5t138.5 -58.5z" />
    <glyph glyph-name="OE" unicode="&#x152;" horiz-adv-x="916" 
d="M938 650h-322l-48 -272h304l-9 -50h-303l-49 -278h327l-9 -50h-380l114 646q-42 14 -92 14q-130 0 -230 -89.5t-122 -220.5q-24 -131 44 -220.5t199 -89.5q49 0 96 14l-9 -54q-47 -11 -96 -11q-150 0 -232.5 106.5t-55.5 258.5t143.5 254.5t271.5 102.5q50 0 92 -11h375z
" />
    <glyph glyph-name="oe" unicode="&#x153;" horiz-adv-x="1061" 
d="M818 511q107 0 165 -78.5t38 -184.5l-6 -24h-451q-7 -85 42 -136t135 -51q123 0 189 92l40 -26q-37 -54 -100 -84t-132 -30q-83 0 -139 42.5t-73 114.5q-40 -72 -110.5 -114.5t-155.5 -42.5q-109 0 -172.5 77.5t-43.5 187.5q20 111 107 184t201 73q77 0 132.5 -43
t73.5 -113q39 72 108 114t152 42zM269 37q89 0 160.5 62t86.5 151q17 89 -33 151t-139 62q-91 0 -162 -61.5t-87 -151.5t33.5 -151.5t140.5 -61.5zM572 273h401q9 90 -36.5 140t-125.5 50q-86 0 -151 -52t-88 -138z" />
    <glyph glyph-name="Racute" unicode="&#x154;" horiz-adv-x="613" 
d="M504 897l-112 -127h-50l100 127h62zM442 700q83 0 134.5 -64.5t35.5 -149.5q-12 -71 -63.5 -123.5t-123.5 -69.5l121 -293h-55l-118 287h-3h-224l-50 -287h-53l123 700h276zM561 493q12 65 -26 111t-101 46h-224l-55 -313h224q64 0 117 45.5t65 110.5z" />
    <glyph glyph-name="racute" unicode="&#x155;" horiz-adv-x="318" 
d="M362 697l-112 -127h-50l100 127h62zM156 415q68 97 184 92l-9 -48q-71 0 -127 -45.5t-72 -135.5l-49 -278h-50l88 500h50z" />
    <glyph glyph-name="Rcommaaccent" unicode="&#x156;" horiz-adv-x="613" 
d="M442 700q83 0 134.5 -64.5t35.5 -149.5q-12 -71 -63.5 -123.5t-123.5 -69.5l121 -293h-55l-118 287h-3h-224l-50 -287h-53l123 700h276zM561 493q12 65 -26 111t-101 46h-224l-55 -313h224q64 0 117 45.5t65 110.5zM220 -240l40 170h51l-55 -170h-36z" />
    <glyph glyph-name="rcommaaccent" unicode="&#x157;" horiz-adv-x="318" 
d="M156 415q68 97 184 92l-9 -48q-71 0 -127 -45.5t-72 -135.5l-49 -278h-50l88 500h50zM-19 -240l40 170h51l-55 -170h-36z" />
    <glyph glyph-name="Rcaron" unicode="&#x158;" horiz-adv-x="613" 
d="M354 770l-86 127h54l64 -94l96 94h61l-130 -127h-59zM442 700q83 0 134.5 -64.5t35.5 -149.5q-12 -71 -63.5 -123.5t-123.5 -69.5l121 -293h-55l-118 287h-3h-224l-50 -287h-53l123 700h276zM561 493q12 65 -26 111t-101 46h-224l-55 -313h224q64 0 117 45.5t65 110.5z
" />
    <glyph glyph-name="rcaron" unicode="&#x159;" horiz-adv-x="318" 
d="M212 570l-86 127h54l64 -94l96 94h61l-130 -127h-59zM156 415q68 97 184 92l-9 -48q-71 0 -127 -45.5t-72 -135.5l-49 -278h-50l88 500h50z" />
    <glyph glyph-name="Sacute" unicode="&#x15a;" horiz-adv-x="573" 
d="M334 770h50l112 127h-62zM260 -11q-95 0 -157.5 43.5t-79.5 121.5l47 24q12 -64 61 -101t131 -37q81 0 133.5 34.5t64.5 93.5q7 35 -2.5 61t-38.5 45.5t-51.5 30t-66.5 26.5q-34 12 -57 21.5t-52.5 28t-46 39t-25 52.5t-1.5 70q16 81 82.5 125t149.5 44q85 0 138 -40.5
t73 -105.5l-47 -24q-37 119 -167 119q-64 0 -113.5 -33t-61.5 -90q-7 -35 2.5 -61t38 -45.5t51.5 -30t66 -26.5q36 -13 57.5 -22t52.5 -28t46.5 -39t24 -52.5t1.5 -70.5q-17 -84 -86 -128.5t-167 -44.5z" />
    <glyph glyph-name="sacute" unicode="&#x15b;" horiz-adv-x="472" 
d="M251 570h50l112 127h-62zM204 -11q-142 0 -178 114l45 23q11 -41 46.5 -65t90.5 -24t93.5 23.5t46.5 65.5q7 37 -20.5 60.5t-70 36.5t-84.5 27.5t-67.5 47t-16.5 83.5q10 57 60.5 93.5t121.5 36.5q59 0 102 -26.5t62 -73.5l-44 -23q-12 37 -46 56t-76 19
q-46 0 -83.5 -22.5t-45.5 -66.5q-7 -36 20.5 -59t69.5 -35.5t84 -28t67.5 -48.5t16.5 -85q-10 -60 -62.5 -94.5t-131.5 -34.5z" />
    <glyph glyph-name="Scedilla" unicode="&#x15e;" horiz-adv-x="573" 
d="M331 374q36 -13 57.5 -22t52.5 -28t46.5 -39t24 -52.5t1.5 -70.5q-17 -83 -83.5 -127t-161.5 -46l-8 -45q38 -5 60.5 -26.5t17.5 -52.5q-17 -92 -209 -76l8 41q71 -7 111 3.5t45 35.5q4 22 -18.5 33t-65.5 10l14 79q-80 8 -132 50.5t-68 112.5l47 24q12 -64 61 -101
t131 -37q81 0 133.5 34.5t64.5 93.5q7 35 -2.5 61t-38.5 45.5t-51.5 30t-66.5 26.5q-34 12 -57 21.5t-52.5 28t-46 39t-25 52.5t-1.5 70q16 81 82.5 125t149.5 44q85 0 138 -40.5t73 -105.5l-47 -24q-37 119 -167 119q-64 0 -113.5 -33t-61.5 -90q-7 -35 2.5 -61t38 -45.5
t51.5 -30t66 -26.5z" />
    <glyph glyph-name="scedilla" unicode="&#x15f;" horiz-adv-x="472" 
d="M140 374q-7 -36 20.5 -59t69.5 -35.5t84 -28t67.5 -48.5t16.5 -85q-10 -58 -59 -92t-123 -37l-8 -45q38 -5 60.5 -26.5t17.5 -52.5q-17 -92 -209 -76l8 41q71 -7 111 3.5t45 35.5q4 22 -18.5 33t-65.5 10l14 79q-113 13 -145 112l45 23q11 -41 46.5 -65t90.5 -24
t93.5 23.5t46.5 65.5q7 37 -20.5 60.5t-70 36.5t-84.5 27.5t-67.5 47t-16.5 83.5q10 57 60.5 93.5t121.5 36.5q59 0 102 -26.5t62 -73.5l-44 -23q-12 37 -46 56t-76 19q-46 0 -83.5 -22.5t-45.5 -66.5z" />
    <glyph glyph-name="Scaron" unicode="&#x160;" horiz-adv-x="573" 
d="M346 770l-86 127h54l64 -94l96 94h61l-130 -127h-59zM331 374q36 -13 57.5 -22t52.5 -28t46.5 -39t24 -52.5t1.5 -70.5q-17 -84 -86 -128.5t-167 -44.5q-95 0 -157.5 43.5t-79.5 121.5l47 24q12 -64 61 -101t131 -37q81 0 133.5 34.5t64.5 93.5q7 35 -2.5 61t-38.5 45.5
t-51.5 30t-66.5 26.5q-34 12 -57 21.5t-52.5 28t-46 39t-25 52.5t-1.5 70q16 81 82.5 125t149.5 44q85 0 138 -40.5t73 -105.5l-47 -24q-37 119 -167 119q-64 0 -113.5 -33t-61.5 -90q-7 -35 2.5 -61t38 -45.5t51.5 -30t66 -26.5z" />
    <glyph glyph-name="scaron" unicode="&#x161;" horiz-adv-x="472" 
d="M263 570l-86 127h54l64 -94l96 94h61l-130 -127h-59zM269 463q-46 0 -83.5 -22.5t-45.5 -66.5q-7 -36 20.5 -59t69.5 -35.5t84 -28t67.5 -48.5t16.5 -85q-10 -60 -62.5 -94.5t-131.5 -34.5q-142 0 -178 114l45 23q11 -41 46.5 -65t90.5 -24t93.5 23.5t46.5 65.5
q7 37 -20.5 60.5t-70 36.5t-84.5 27.5t-67.5 47t-16.5 83.5q10 57 60.5 93.5t121.5 36.5q59 0 102 -26.5t62 -73.5l-44 -23q-12 37 -46 56t-76 19z" />
    <glyph glyph-name="uni0162" unicode="&#x162;" horiz-adv-x="540" 
d="M596 700l-9 -50h-220l-114 -650h-54l114 650h-219l8 50h494zM150 -240l40 170h51l-55 -170h-36z" />
    <glyph glyph-name="uni0163" unicode="&#x163;" horiz-adv-x="377" 
d="M220 451l-58 -325q-10 -61 20.5 -75t114.5 -6l-7 -45q-101 -16 -147 14t-31 112l57 325h-110l9 49h110l22 125l53 15l-25 -140h150l-9 -49h-149zM117 -240l40 170h51l-55 -170h-36z" />
    <glyph glyph-name="Tcaron" unicode="&#x164;" horiz-adv-x="540" 
d="M332 770l-86 127h54l64 -94l96 94h61l-130 -127h-59zM596 700l-9 -50h-220l-114 -650h-54l114 650h-219l8 50h494z" />
    <glyph glyph-name="tcaron" unicode="&#x165;" horiz-adv-x="377" 
d="M386 714l-53 -157h-36l38 157h51zM253 640l-25 -140h150l-9 -49h-149l-58 -325q-10 -61 20.5 -75t114.5 -6l-7 -45q-101 -16 -147 14t-31 112l57 325h-110l9 49h110l22 125z" />
    <glyph glyph-name="Tbar" unicode="&#x166;" horiz-adv-x="540" 
d="M587 650h-220l-48 -276h152l-8 -48h-153l-57 -326h-54l57 326h-153l8 48h154l48 276h-219l8 50h494z" />
    <glyph glyph-name="tbar" unicode="&#x167;" horiz-adv-x="377" 
d="M369 451h-149l-30 -168h100l-7 -42h-101l-20 -115q-10 -61 20.5 -75t114.5 -6l-7 -45q-101 -16 -147 14t-31 112l20 115h-69l7 42h70l29 168h-110l9 49h110l22 125l53 15l-25 -140h150z" />
    <glyph glyph-name="Umacron" unicode="&#x16a;" horiz-adv-x="667" 
d="M298 787l8 44h253l-7 -44h-254zM296 -11q-117 0 -179 68.5t-43 176.5l82 466h53l-82 -466q-15 -87 28.5 -140.5t139.5 -53.5q98 0 161 54.5t78 139.5l82 466h53l-82 -466q-20 -113 -99 -179t-192 -66z" />
    <glyph glyph-name="umacron" unicode="&#x16b;" horiz-adv-x="564" 
d="M467 631l-7 -44h-254l8 44h253zM481 500h50l-88 -500h-50l15 87q-71 -98 -192 -98q-89 0 -133.5 54.5t-29.5 145.5l55 311h51l-55 -311q-12 -70 19 -111t102 -41q77 0 134.5 51t74.5 148v-1z" />
    <glyph glyph-name="Uring" unicode="&#x16e;" horiz-adv-x="667" 
d="M416 720q-46 0 -70 28.5t-17 70.5t40 68.5t77 26.5q46 0 70 -28.5t18 -70.5q-7 -42 -40 -68.5t-78 -26.5zM421 760q27 0 46.5 16t24.5 41q4 26 -10 41.5t-41 15.5q-26 0 -45.5 -15.5t-23.5 -41.5q-5 -25 8.5 -41t40.5 -16zM296 -11q-117 0 -179 68.5t-43 176.5l82 466h53
l-82 -466q-15 -87 28.5 -140.5t139.5 -53.5q98 0 161 54.5t78 139.5l82 466h53l-82 -466q-20 -113 -99 -179t-192 -66z" />
    <glyph glyph-name="uring" unicode="&#x16f;" horiz-adv-x="564" 
d="M330 553q-46 0 -70 28.5t-17 70.5t40 68.5t77 26.5q46 0 70 -28.5t18 -70.5q-7 -42 -40 -68.5t-78 -26.5zM286 650q-5 -25 8.5 -41t40.5 -16t46.5 16t24.5 41q4 26 -10 41.5t-41 15.5q-26 0 -45.5 -15.5t-23.5 -41.5zM481 500h50l-88 -500h-50l15 87q-71 -98 -192 -98
q-89 0 -133.5 54.5t-29.5 145.5l55 311h51l-55 -311q-12 -70 19 -111t102 -41q77 0 134.5 51t74.5 148v-1z" />
    <glyph glyph-name="Uhungarumlaut" unicode="&#x170;" horiz-adv-x="667" 
d="M300 770h52l96 130h-58zM442 770h53l105 130h-58zM296 -11q-117 0 -179 68.5t-43 176.5l82 466h53l-82 -466q-15 -87 28.5 -140.5t139.5 -53.5q98 0 161 54.5t78 139.5l82 466h53l-82 -466q-20 -113 -99 -179t-192 -66z" />
    <glyph glyph-name="uhungarumlaut" unicode="&#x171;" horiz-adv-x="564" 
d="M356 700l-96 -130h-52l90 130h58zM403 570h-53l100 130h58zM481 500h50l-88 -500h-50l15 87q-71 -98 -192 -98q-89 0 -133.5 54.5t-29.5 145.5l55 311h51l-55 -311q-12 -70 19 -111t102 -41q77 0 134.5 51t74.5 148v-1z" />
    <glyph glyph-name="Uogonek" unicode="&#x172;" horiz-adv-x="667" 
d="M616 700h53l-82 -466q-24 -135 -128 -200q-79 -58 -114 -94t-40 -68q-6 -40 38 -40q20 0 40 8l-7 -42q-21 -9 -50 -9q-40 0 -58.5 21.5t-13.5 55.5q11 61 95 127q-23 -4 -53 -4q-117 0 -179 68.5t-43 176.5l82 466h53l-82 -466q-15 -87 28.5 -140.5t139.5 -53.5
q98 0 161 54.5t78 139.5z" />
    <glyph glyph-name="uogonek" unicode="&#x173;" horiz-adv-x="564" 
d="M443 0q-97 -76 -106 -131q-6 -37 34 -37q21 0 44 9l-7 -42q-26 -10 -56 -10q-37 0 -54 21.5t-12 54.5q10 58 109 145l13 77q-71 -98 -192 -98q-89 0 -133.5 54.5t-29.5 145.5l55 311h51l-55 -311q-12 -70 19 -111t102 -41q77 0 134.5 51t74.5 148v-1l47 265h50z" />
    <glyph glyph-name="Wcircumflex" unicode="&#x174;" horiz-adv-x="993" 
d="M607 865l-97 -95h-60l130 127h59l87 -127h-55zM983 700h56l-326 -700h-64l-85 631l-308 -631h-64l-80 700h53l71 -631l306 631h63l85 -631z" />
    <glyph glyph-name="wcircumflex" unicode="&#x175;" horiz-adv-x="770" 
d="M445 665l-97 -95h-60l130 127h59l87 -127h-55zM726 500h55l-246 -500h-55l-64 426l-214 -426h-55l-70 500h50l57 -436l217 436h52l-1 -2l64 -434z" />
    <glyph glyph-name="Ycircumflex" unicode="&#x176;" 
d="M393 865l-97 -95h-60l130 127h59l87 -127h-55zM636 700l-311 -373l-58 -327h-53l58 329l-180 371h55l156 -324l270 324h63z" />
    <glyph glyph-name="ycircumflex" unicode="&#x177;" horiz-adv-x="510" 
d="M314 665l-97 -95h-60l130 127h59l87 -127h-55zM484 500h57l-312 -546q-44 -78 -102.5 -118.5t-122.5 -35.5l8 47q93 -9 167 117l17 28l-139 508h51l121 -450z" />
    <glyph glyph-name="Ydieresis" unicode="&#x178;" 
d="M285 777q-15 0 -24 10.5t-6 25.5q2 16 15 26.5t28 10.5t23.5 -10.5t6.5 -26.5q-3 -15 -15.5 -25.5t-27.5 -10.5zM465 777q-15 0 -24 10.5t-6 25.5q2 16 15 26.5t28 10.5t23.5 -10.5t6.5 -26.5q-3 -15 -15.5 -25.5t-27.5 -10.5zM636 700l-311 -373l-58 -327h-53l58 329
l-180 371h55l156 -324l270 324h63z" />
    <glyph glyph-name="Zacute" unicode="&#x179;" horiz-adv-x="523" 
d="M479 897l-112 -127h-50l100 127h62zM559 700l-8 -50l-482 -600h386l-9 -50h-447l9 50l482 600h-366l8 50h427z" />
    <glyph glyph-name="zacute" unicode="&#x17a;" horiz-adv-x="463" 
d="M415 697l-112 -127h-50l100 127h62zM461 500l-6 -33l-371 -418h307l-8 -49h-380l6 33l370 418h-287l9 49h360z" />
    <glyph glyph-name="Zdotaccent" unicode="&#x17b;" horiz-adv-x="523" 
d="M358 773q-20 0 -31 14t-7 33q3 20 19 33.5t35 13.5q20 0 31.5 -13.5t7.5 -33.5t-19.5 -33.5t-35.5 -13.5zM559 700l-8 -50l-482 -600h386l-9 -50h-447l9 50l482 600h-366l8 50h427z" />
    <glyph glyph-name="zdotaccent" unicode="&#x17c;" horiz-adv-x="463" 
d="M294 573q-20 0 -31 14t-7 33q3 20 19 33.5t35 13.5q20 0 31.5 -13.5t7.5 -33.5t-19.5 -33.5t-35.5 -13.5zM461 500l-6 -33l-371 -418h307l-8 -49h-380l6 33l370 418h-287l9 49h360z" />
    <glyph glyph-name="Zcaron" unicode="&#x17d;" horiz-adv-x="523" 
d="M329 770l-86 127h54l64 -94l96 94h61l-130 -127h-59zM559 700l-8 -50l-482 -600h386l-9 -50h-447l9 50l482 600h-366l8 50h427z" />
    <glyph glyph-name="zcaron" unicode="&#x17e;" horiz-adv-x="463" 
d="M265 570l-86 127h54l64 -94l96 94h61l-130 -127h-59zM461 500l-6 -33l-371 -418h307l-8 -49h-380l6 33l370 418h-287l9 49h360z" />
    <glyph glyph-name="florin" unicode="&#x192;" horiz-adv-x="436" 
d="M305 577q29 85 86 117t125 9l-8 -50q-49 22 -90 0t-61 -77l-69 -201h120l-9 -49h-128l-139 -403q-29 -84 -86.5 -116.5t-124.5 -9.5l8 50q49 -22 90 0t61 77l139 402h-114l9 49h121z" />
    <glyph glyph-name="Scommaaccent" unicode="&#x218;" horiz-adv-x="573" 
d="M260 -11q-95 0 -157.5 43.5t-79.5 121.5l47 24q12 -64 61 -101t131 -37q81 0 133.5 34.5t64.5 93.5q7 35 -2.5 61t-38.5 45.5t-51.5 30t-66.5 26.5q-34 12 -57 21.5t-52.5 28t-46 39t-25 52.5t-1.5 70q16 81 82.5 125t149.5 44q85 0 138 -40.5t73 -105.5l-47 -24
q-37 119 -167 119q-64 0 -113.5 -33t-61.5 -90q-7 -35 2.5 -61t38 -45.5t51.5 -30t66 -26.5q36 -13 57.5 -22t52.5 -28t46.5 -39t24 -52.5t1.5 -70.5q-17 -84 -86 -128.5t-167 -44.5zM218 -240l55 170h-51l-40 -170h36z" />
    <glyph glyph-name="scommaaccent" unicode="&#x219;" horiz-adv-x="472" 
d="M204 -11q-142 0 -178 114l45 23q11 -41 46.5 -65t90.5 -24t93.5 23.5t46.5 65.5q7 37 -20.5 60.5t-70 36.5t-84.5 27.5t-67.5 47t-16.5 83.5q10 57 60.5 93.5t121.5 36.5q59 0 102 -26.5t62 -73.5l-44 -23q-12 37 -46 56t-76 19q-46 0 -83.5 -22.5t-45.5 -66.5
q-7 -36 20.5 -59t69.5 -35.5t84 -28t67.5 -48.5t16.5 -85q-10 -60 -62.5 -94.5t-131.5 -34.5zM166 -240l55 170h-51l-40 -170h36z" />
    <glyph glyph-name="uni021A" unicode="&#x21a;" horiz-adv-x="540" 
d="M596 700l-9 -50h-220l-114 -650h-54l114 650h-219l8 50h494zM150 -240l40 170h51l-55 -170h-36z" />
    <glyph glyph-name="uni021B" unicode="&#x21b;" horiz-adv-x="377" 
d="M220 451l-58 -325q-10 -61 20.5 -75t114.5 -6l-7 -45q-101 -16 -147 14t-31 112l57 325h-110l9 49h110l22 125l53 15l-25 -140h150l-9 -49h-149zM117 -240l40 170h51l-55 -170h-36z" />
    <glyph glyph-name="circumflex" unicode="&#x2c6;" horiz-adv-x="315" 
d="M352 570h-55l-64 95l-97 -95h-60l130 127h59z" />
    <glyph glyph-name="caron" unicode="&#x2c7;" horiz-adv-x="315" 
d="M313 697h61l-130 -127h-59l-86 127h54l64 -94z" />
    <glyph glyph-name="breve" unicode="&#x2d8;" horiz-adv-x="307" 
d="M210 565q-59 0 -91 33t-22 89h48q-13 -78 71 -78q40 0 66 20.5t33 57.5h48q-10 -57 -50 -89.5t-103 -32.5z" />
    <glyph glyph-name="dotaccent" unicode="&#x2d9;" horiz-adv-x="107" 
d="M120 573q-20 0 -31 14t-7 33q3 20 19 33.5t35 13.5q20 0 31.5 -13.5t7.5 -33.5t-19.5 -33.5t-35.5 -13.5z" />
    <glyph glyph-name="ring" unicode="&#x2da;" horiz-adv-x="245" 
d="M178 553q-46 0 -70 28.5t-17 70.5t40 68.5t77 26.5q46 0 70 -28.5t18 -70.5q-7 -42 -40 -68.5t-78 -26.5zM183 593q27 0 46.5 16t24.5 41q4 26 -10 41.5t-41 15.5q-26 0 -45.5 -15.5t-23.5 -41.5q-5 -25 8.5 -41t40.5 -16z" />
    <glyph glyph-name="ogonek" unicode="&#x2db;" horiz-adv-x="174" 
d="M20 -211q-38 0 -55.5 23.5t-11.5 56.5q10 63 102 131h55q-97 -73 -106 -127q-3 -18 6 -29.5t28 -11.5q22 0 44 9l-8 -43q-19 -9 -54 -9z" />
    <glyph glyph-name="tilde" unicode="&#x2dc;" horiz-adv-x="312" 
d="M79 583q9 55 34 83t56 24.5t61 -33.5q76 -77 95 28h44q-14 -82 -60.5 -101.5t-90.5 27.5q-76 77 -95 -28h-44z" />
    <glyph glyph-name="hungarumlaut" unicode="&#x2dd;" horiz-adv-x="317" 
d="M76 570h52l96 130h-58zM218 570h53l105 130h-58z" />
    <glyph glyph-name="gravecomb" unicode="&#x300;" horiz-adv-x="0" 
d="M37 570l-58 127h-60l70 -127h48z" />
    <glyph glyph-name="acutecomb" unicode="&#x301;" horiz-adv-x="0" 
d="M-103 570h50l112 127h-62z" />
    <glyph glyph-name="uni0302" unicode="&#x302;" horiz-adv-x="0" 
d="M37 570h-55l-64 95l-97 -95h-60l130 127h59z" />
    <glyph glyph-name="tildecomb" unicode="&#x303;" horiz-adv-x="0" 
d="M-233 583q9 55 34 83t56 24.5t61 -33.5q76 -77 95 28h44q-14 -82 -60.5 -101.5t-90.5 27.5q-76 77 -95 -28h-44z" />
    <glyph glyph-name="uni0304" unicode="&#x304;" horiz-adv-x="0" 
d="M-214 587l8 44h253l-7 -44h-254z" />
    <glyph glyph-name="uni0306" unicode="&#x306;" horiz-adv-x="0" 
d="M-103 565q-59 0 -91 33t-22 89h48q-13 -78 71 -78q40 0 66 20.5t33 57.5h48q-10 -57 -50 -89.5t-103 -32.5z" />
    <glyph glyph-name="uni0307" unicode="&#x307;" horiz-adv-x="0" 
d="M-10 573q-20 0 -31 14t-7 33q3 20 19 33.5t35 13.5q20 0 31.5 -13.5t7.5 -33.5t-19.5 -33.5t-35.5 -13.5z" />
    <glyph glyph-name="uni0308" unicode="&#x308;" horiz-adv-x="0" 
d="M-178 577q-15 0 -24 10.5t-6 25.5q2 16 15 26.5t28 10.5t23.5 -10.5t6.5 -26.5q-3 -15 -15.5 -25.5t-27.5 -10.5zM2 577q-15 0 -24 10.5t-6 25.5q2 16 15 26.5t28 10.5t23.5 -10.5t6.5 -26.5q-3 -15 -15.5 -25.5t-27.5 -10.5z" />
    <glyph glyph-name="uni030A" unicode="&#x30a;" horiz-adv-x="0" 
d="M-67 553q-46 0 -70 28.5t-17 70.5t40 68.5t77 26.5q46 0 70 -28.5t18 -70.5q-7 -42 -40 -68.5t-78 -26.5zM-62 593q27 0 46.5 16t24.5 41q4 26 -10 41.5t-41 15.5q-26 0 -45.5 -15.5t-23.5 -41.5q-5 -25 8.5 -41t40.5 -16z" />
    <glyph glyph-name="uni030B" unicode="&#x30b;" horiz-adv-x="0" 
d="M-238 570h52l96 130h-58zM-96 570h53l105 130h-58z" />
    <glyph glyph-name="uni030C" unicode="&#x30c;" horiz-adv-x="0" 
d="M-2 697h61l-130 -127h-59l-86 127h54l64 -94z" />
    <glyph glyph-name="uni0312" unicode="&#x312;" horiz-adv-x="0" 
d="M69 960l-55 -170h51l40 170h-36z" />
    <glyph glyph-name="uni0326" unicode="&#x326;" horiz-adv-x="0" 
d="M-131 -240l55 170h-51l-40 -170h36z" />
    <glyph glyph-name="uni0327" unicode="&#x327;" horiz-adv-x="0" 
d="M-165 -56q38 -5 60.5 -26.5t17.5 -52.5q-17 -92 -209 -76l8 41q71 -7 111 3.5t45 35.5q4 22 -18.5 33t-65.5 10l16 88h45z" />
    <glyph glyph-name="uni0328" unicode="&#x328;" horiz-adv-x="0" 
d="M-154 -211q-38 0 -55.5 23.5t-11.5 56.5q10 63 102 131h55q-97 -73 -106 -127q-3 -18 6 -29.5t28 -11.5q22 0 44 9l-8 -43q-19 -9 -54 -9z" />
    <glyph glyph-name="uni0394" unicode="&#x394;" horiz-adv-x="626" 
d="M420 700l149 -700h-600l395 700h56zM57 50h448l-122 585z" />
    <glyph glyph-name="uni03A9" unicode="&#x3a9;" horiz-adv-x="818" 
d="M788 343q-17 -96 -77 -173t-147 -120h160l-9 -50h-272l9 50q105 26 184.5 109t98.5 191q22 130 -51 220t-203 90t-235 -90.5t-127 -219.5q-19 -108 30 -191t146 -109l-9 -50h-271l9 50h163q-72 45 -105.5 127t-16.5 180q26 150 147.5 252t277.5 102q148 0 236 -109
t62 -259z" />
    <glyph glyph-name="pi" unicode="&#x3c0;" horiz-adv-x="650" 
d="M661 500l-9 -49h-83l-79 -451h-51l79 451h-312l-79 -451h-51l79 451h-86l8 49h584z" />
    <glyph glyph-name="uni0401" unicode="&#x401;" horiz-adv-x="533" 
d="M286 777q-15 0 -24 10.5t-6 25.5q2 16 15 26.5t28 10.5t23.5 -10.5t6.5 -26.5q-3 -15 -15.5 -25.5t-27.5 -10.5zM466 777q-15 0 -24 10.5t-6 25.5q2 16 15 26.5t28 10.5t23.5 -10.5t6.5 -26.5q-3 -15 -15.5 -25.5t-27.5 -10.5zM556 650h-346l-48 -272h321l-9 -50h-320
l-49 -278h350l-9 -50h-403l123 700h398z" />
    <glyph glyph-name="uni0402" unicode="&#x402;" horiz-adv-x="692" 
d="M477 471q86 0 131 -47t31 -137l-25 -139q-30 -169 -193 -155l8 49q58 -7 89.5 19t42.5 87l24 139q24 136 -112 136q-82 0 -174 -45l-66 -378h-54l114 650h-199l8 50h487l-8 -50h-234l-38 -219q88 40 168 40z" />
    <glyph glyph-name="uni0403" unicode="&#x403;" horiz-adv-x="493" 
d="M488 896l-112 -127h-50l100 127h62zM549 700l-8 -50h-331l-114 -650h-53l114 650l9 50h383z" />
    <glyph glyph-name="uni0404" unicode="&#x404;" horiz-adv-x="751" 
d="M477 660q-127 0 -225.5 -81.5t-129.5 -203.5h397l-9 -50h-396q-12 -122 59 -203.5t197 -81.5q85 0 159.5 39.5t122.5 109.5l45 -28q-56 -79 -144 -125.5t-188 -46.5q-157 0 -242 108t-58 260t145 253t268 101q100 0 173.5 -45.5t109.5 -123.5l-47 -25q-67 143 -237 143z
" />
    <glyph glyph-name="uni0405" unicode="&#x405;" horiz-adv-x="573" 
d="M260 -11q-95 0 -157.5 43.5t-79.5 121.5l47 24q12 -64 61 -101t131 -37q81 0 133.5 34.5t64.5 93.5q7 35 -2.5 61t-38.5 45.5t-51.5 30t-66.5 26.5q-34 12 -57 21.5t-52.5 28t-46 39t-25 52.5t-1.5 70q16 81 82.5 125t149.5 44q85 0 138 -40.5t73 -105.5l-47 -24
q-37 119 -167 119q-64 0 -113.5 -33t-61.5 -90q-7 -35 2.5 -61t38 -45.5t51.5 -30t66 -26.5q36 -13 57.5 -22t52.5 -28t46.5 -39t24 -52.5t1.5 -70.5q-17 -84 -86 -128.5t-167 -44.5z" />
    <glyph glyph-name="uni0406" unicode="&#x406;" horiz-adv-x="227" 
d="M166 700h53l-123 -700h-53z" />
    <glyph glyph-name="uni0407" unicode="&#x407;" horiz-adv-x="227" 
d="M115 777q-15 0 -24 10.5t-6 25.5q2 16 15 26.5t28 10.5t23.5 -10.5t6.5 -26.5q-3 -15 -15.5 -25.5t-27.5 -10.5zM295 777q-15 0 -24 10.5t-6 25.5q2 16 15 26.5t28 10.5t23.5 -10.5t6.5 -26.5q-3 -15 -15.5 -25.5t-27.5 -10.5zM166 700h53l-123 -700h-53z" />
    <glyph glyph-name="uni0408" unicode="&#x408;" horiz-adv-x="553" 
d="M214 -11q-75 0 -126 30.5t-69 89.5l47 26q27 -95 151 -95q76 0 129.5 39.5t66.5 112.5l89 508h53l-89 -509q-18 -100 -88 -151t-164 -51z" />
    <glyph glyph-name="uni0409" unicode="&#x409;" horiz-adv-x="996" 
d="M771 393q85 0 135.5 -59t35.5 -143t-83.5 -137.5t-157.5 -53.5h-220l115 650h-303l-63 -354q-30 -172 -92 -239t-164 -58l9 47q72 -8 120.5 48.5t74.5 202.5l70 403h409l-54 -307h168zM889 197q11 64 -26 105t-101 41h-168l-51 -293h167q64 0 116 41.5t63 105.5z" />
    <glyph glyph-name="uni040A" unicode="&#x40a;" horiz-adv-x="985" 
d="M759 393q85 0 136 -59t36 -143t-84 -137.5t-158 -53.5h-220l60 343h-373l-60 -343h-53l123 700h53l-54 -307h373l54 307h54l-54 -307h167zM877 197q11 64 -26 105t-101 41h-167l-51 -293h166q65 0 116.5 41.5t62.5 105.5z" />
    <glyph glyph-name="uni040B" unicode="&#x40b;" horiz-adv-x="699" 
d="M477 471q86 0 131 -47t31 -137l-51 -287h-53l50 287q24 136 -112 136q-82 0 -174 -45l-66 -378h-54l114 650h-199l8 50h487l-8 -50h-234l-38 -219q88 40 168 40z" />
    <glyph glyph-name="uni040C" unicode="&#x40c;" horiz-adv-x="571" 
d="M498 896l-112 -127h-50l100 127h62zM632 700l-415 -345l300 -355h-64l-296 349l-61 -349h-53l123 700h53l-57 -326l398 326h72z" />
    <glyph glyph-name="uni040E" unicode="&#x40e;" horiz-adv-x="566" 
d="M518 830l-7 -44h-254l8 44h253zM577 700h55l-322 -546q-51 -88 -108.5 -123.5t-131.5 -30.5l8 47q55 -4 97.5 22.5t80.5 89.5l18 30l-162 511h52l144 -454z" />
    <glyph glyph-name="uni040F" unicode="&#x40f;" horiz-adv-x="673" 
d="M612 700h54l-123 -700h-224l-24 -134h-53l23 134h-222l123 700h53l-114 -650h393z" />
    <glyph glyph-name="uni0410" unicode="&#x410;" horiz-adv-x="629" 
d="M516 0l-36 178h-351l-100 -178h-58l395 700h56l148 -700h-54zM157 228h312l-83 407z" />
    <glyph glyph-name="uni0411" unicode="&#x411;" horiz-adv-x="586" 
d="M561 650h-351l-41 -237h200q82 0 134 -64.5t36 -149.5q-15 -85 -84.5 -142t-158.5 -57h-253l123 700h403zM360 363h-200l-55 -313h200q64 0 117.5 46t64.5 111q13 67 -24.5 111.5t-102.5 44.5z" />
    <glyph glyph-name="uni0412" unicode="&#x412;" horiz-adv-x="623" 
d="M596 512q-8 -49 -39 -89t-77 -62q49 -21 73.5 -68t15.5 -106q-12 -78 -75 -132.5t-151 -54.5h-300l123 700h265q80 0 128.5 -55.5t36.5 -132.5zM389 382q54 0 99 39.5t55 94.5q10 56 -23 95t-91 39h-219l-47 -268h226zM516 191q10 59 -23 100t-90 41h-249l-49 -282h243
q62 0 110 41t58 100z" />
    <glyph glyph-name="uni0413" unicode="&#x413;" horiz-adv-x="493" 
d="M549 700l-8 -50h-331l-114 -650h-53l114 650l9 50h383z" />
    <glyph glyph-name="uni0414" unicode="&#x414;" horiz-adv-x="690" 
d="M543 50h74l-33 -184h-53l23 134h-526l-24 -134h-53l32 184h56q86 83 116 251l70 399h432zM208 300q-30 -164 -103 -250h385l106 600h-326z" />
    <glyph glyph-name="uni0415" unicode="&#x415;" horiz-adv-x="533" 
d="M556 650h-346l-48 -272h321l-9 -50h-320l-49 -278h350l-9 -50h-403l123 700h398z" />
    <glyph glyph-name="uni0416" unicode="&#x416;" horiz-adv-x="836" 
d="M887 700l-371 -346l256 -354h-57l-253 348l-61 -348h-53l61 347l-364 -347h-69l383 366l-249 334h57l246 -327l58 327h53l-58 -328l353 328h68z" />
    <glyph glyph-name="uni0417" unicode="&#x417;" horiz-adv-x="558" 
d="M539 517q-19 -112 -131 -157q56 -22 82 -69t16 -108q-16 -88 -84.5 -141t-180.5 -53q-95 0 -148.5 42t-71.5 112l49 24q15 -60 56 -94t124 -34t137 42t66 108q11 64 -26 103.5t-113 39.5h-79l8 50h56q74 0 125.5 41t61.5 102q11 60 -27 98t-111 38q-127 0 -197 -118
l-43 28q83 140 249 140q94 0 145 -56t37 -138z" />
    <glyph glyph-name="uni0418" unicode="&#x418;" horiz-adv-x="687" 
d="M43 0l123 700h53l-105 -597l518 597h47l-123 -700h-53l105 597l-519 -597h-46z" />
    <glyph glyph-name="uni0419" unicode="&#x419;" horiz-adv-x="687" 
d="M307 787l8 44h253l-7 -44h-254zM43 0l123 700h53l-105 -597l518 597h47l-123 -700h-53l105 597l-519 -597h-46z" />
    <glyph glyph-name="uni041A" unicode="&#x41a;" horiz-adv-x="571" 
d="M632 700l-415 -345l300 -355h-64l-296 349l-61 -349h-53l123 700h53l-57 -326l398 326h72z" />
    <glyph glyph-name="uni041B" unicode="&#x41b;" horiz-adv-x="698" 
d="M-26 -1l9 47q72 -8 120.5 48.5t74.5 202.5l70 403h443l-123 -700h-54l115 650h-336l-63 -354q-30 -173 -92.5 -239.5t-163.5 -57.5z" />
    <glyph glyph-name="uni041C" unicode="&#x41c;" horiz-adv-x="807" 
d="M799 700l-123 -700h-53l108 617l-331 -425h-9l-185 434l-110 -626h-53l123 700h63l178 -417l324 417h68z" />
    <glyph glyph-name="uni041D" unicode="&#x41d;" horiz-adv-x="687" 
d="M626 700h53l-123 -700h-53l59 335h-407l-59 -335h-53l123 700h53l-55 -315h407z" />
    <glyph glyph-name="uni041E" unicode="&#x41e;" horiz-adv-x="819" 
d="M365 -11q-150 0 -238 109t-62 260q26 150 147 251.5t275 101.5q150 0 238.5 -110.5t62.5 -261.5q-27 -150 -147.5 -250t-275.5 -100zM374 40q132 0 234.5 88.5t125.5 218.5t-50.5 221.5t-205.5 91.5t-234.5 -90t-124.5 -220q-23 -130 50.5 -220t204.5 -90z" />
    <glyph glyph-name="uni041F" unicode="&#x41f;" horiz-adv-x="673" 
d="M666 700l-123 -700h-54l114 650h-393l-114 -650h-53l123 700h500z" />
    <glyph glyph-name="uni0420" unicode="&#x420;" horiz-adv-x="586" 
d="M399 700q98 0 149.5 -62t35.5 -155t-88.5 -154.5t-181.5 -61.5h-171l-47 -267h-53l123 700h233zM532 490q12 71 -26 115.5t-111 44.5h-185l-58 -333h168q84 0 142 49t70 124z" />
    <glyph glyph-name="uni0421" unicode="&#x421;" horiz-adv-x="751" 
d="M365 -11q-157 0 -242 108t-58 260t145 253t268 101q100 0 173.5 -45.5t109.5 -123.5l-47 -25q-67 143 -237 143q-134 0 -235.5 -89.5t-124.5 -220.5q-22 -131 49 -220.5t204 -89.5q85 0 159.5 39.5t122.5 109.5l45 -28q-56 -79 -144 -125.5t-188 -46.5z" />
    <glyph glyph-name="uni0422" unicode="&#x422;" horiz-adv-x="540" 
d="M596 700l-9 -50h-220l-114 -650h-54l114 650h-219l8 50h494z" />
    <glyph glyph-name="uni0423" unicode="&#x423;" horiz-adv-x="566" 
d="M577 700h55l-322 -546q-51 -88 -108.5 -123.5t-131.5 -30.5l8 47q55 -4 97.5 22.5t80.5 89.5l18 30l-162 511h52l144 -454z" />
    <glyph glyph-name="uni0424" unicode="&#x424;" horiz-adv-x="806" 
d="M494 621q149 -7 233 -80t62 -196q-23 -124 -128.5 -193t-261.5 -74l-14 -78h-53l14 79q-149 7 -232.5 79.5t-61.5 196.5t127.5 193t261.5 74l14 78h53zM736 350q18 103 -50 160.5t-200 62.5l-79 -445q134 5 222 62t107 160zM105 350q-18 -103 49.5 -160t199.5 -62l79 444
q-135 -5 -222.5 -62t-105.5 -160z" />
    <glyph glyph-name="uni0425" unicode="&#x425;" horiz-adv-x="573" 
d="M616 700l-281 -343l171 -357h-55l-151 315l-258 -315h-63l298 363l-162 337h55l141 -295l242 295h63z" />
    <glyph glyph-name="uni0426" unicode="&#x426;" horiz-adv-x="690" 
d="M545 50h73l-32 -184h-53l23 134h-513l123 700h53l-114 -650h387l114 650h53z" />
    <glyph glyph-name="uni0427" unicode="&#x427;" horiz-adv-x="627" 
d="M566 700h53l-123 -700h-53l51 293q-93 -36 -184 -36q-116 0 -168 55t-36 141l43 247h53l-43 -247q-12 -68 26 -107t131 -39q92 0 188 39z" />
    <glyph glyph-name="uni0428" unicode="&#x428;" horiz-adv-x="957" 
d="M896 700h53l-123 -700h-783l123 700h53l-114 -650h312l114 650h53l-114 -650h312z" />
    <glyph glyph-name="uni0429" unicode="&#x429;" horiz-adv-x="980" 
d="M835 50h73l-33 -184h-53l24 134h-803l123 700h53l-114 -650h312l114 650h53l-114 -650h312l114 650h53z" />
    <glyph glyph-name="uni042A" unicode="&#x42a;" horiz-adv-x="694" 
d="M149 0l114 650h-192l8 50h247l-47 -267h181q92 0 146 -65.5t38 -158.5q-17 -93 -88 -151t-168 -58h-239zM212 50h184q71 0 126 47t68 120t-25.5 119.5t-112.5 46.5h-182z" />
    <glyph glyph-name="uni042B" unicode="&#x42b;" horiz-adv-x="763" 
d="M43 0l123 700h53l-47 -267h182q92 0 145.5 -65.5t37.5 -158.5q-17 -93 -88 -151t-168 -58h-238zM579 0l123 700h54l-123 -700h-54zM105 50h184q72 0 127 47t68 120t-26 120t-113 46h-181z" />
    <glyph glyph-name="uni042C" unicode="&#x42c;" horiz-adv-x="587" 
d="M354 433q92 0 145.5 -65.5t37.5 -158.5q-17 -93 -88 -151t-168 -58h-238l123 700h53l-47 -267h182zM484 217q13 73 -26 120t-113 46h-182l-58 -333h184q72 0 127 47t68 120z" />
    <glyph glyph-name="uni042D" unicode="&#x42d;" horiz-adv-x="747" 
d="M422 711q155 0 237.5 -107.5t57.5 -259.5q-25 -150 -141 -252.5t-275 -102.5q-100 0 -172.5 46t-103.5 125l48 26q25 -67 86 -106.5t146 -39.5q128 0 225.5 81t127.5 204h-395l9 50h395q13 124 -56 204.5t-195 80.5q-87 0 -161.5 -41t-121.5 -110l-44 28q55 79 144 126.5
t189 47.5z" />
    <glyph glyph-name="uni042E" unicode="&#x42e;" horiz-adv-x="1048" 
d="M716 711q99 0 174.5 -51t109.5 -136.5t17 -184.5q-27 -150 -147.5 -250t-275.5 -100q-144 0 -230 101t-69 245h-140l-59 -335h-53l123 700h53l-55 -315h140q34 141 149.5 233.5t262.5 92.5zM964 347q22 130 -52 221.5t-205 91.5t-233.5 -90t-125.5 -220
q-23 -129 50.5 -219.5t204.5 -90.5q132 0 235 88.5t126 218.5z" />
    <glyph glyph-name="uni042F" unicode="&#x42f;" horiz-adv-x="627" 
d="M619 700l-123 -700h-53l50 287h-189l-246 -287h-65l249 290q-73 13 -114.5 73.5t-28.5 137.5q16 86 85 142.5t161 56.5h274zM285 337h217l55 313h-220q-66 0 -119.5 -44.5t-64.5 -109.5t27 -112t105 -47z" />
    <glyph glyph-name="uni0430" unicode="&#x430;" horiz-adv-x="646" 
d="M563 500h50l-88 -500h-50l18 102q-84 -113 -231 -113q-106 0 -171 81t-46 191q21 117 103.5 183.5t185.5 66.5q71 0 127 -36.5t80 -100.5zM274 37q90 0 159 58t84 148q17 97 -37.5 158.5t-142.5 61.5q-86 0 -155 -55.5t-86 -150.5q-16 -90 36 -155t142 -65z" />
    <glyph glyph-name="uni0431" unicode="&#x431;" horiz-adv-x="572" 
d="M251 -12q-104 0 -166.5 72t-42.5 185q15 85 37 137t71 98t134 84q27 12 65.5 27t60.5 24.5t46.5 23t39.5 32t23 42.5l39 -23q-10 -28 -27 -49t-47 -38.5t-51 -27.5t-65.5 -27t-63.5 -25q-78 -33 -118.5 -70.5t-63.5 -99.5q87 102 219 102q94 0 152 -68.5t40 -169.5
t-96 -165t-186 -64zM257 38q85 0 148 52t77 132t-30 132t-125 52q-77 0 -146 -47t-88 -123q-15 -86 31.5 -142t132.5 -56z" />
    <glyph glyph-name="uni0432" unicode="&#x432;" horiz-adv-x="506" 
d="M469 364q-14 -78 -83 -108q39 -15 56.5 -47.5t9.5 -75.5q-10 -60 -55 -96.5t-122 -36.5h-242l88 500h223q66 0 100.5 -39.5t24.5 -96.5zM418 366q8 40 -14 62.5t-69 22.5h-173l-30 -173h169q48 0 79 23t38 65zM403 140q8 42 -15.5 65.5t-72.5 23.5h-192l-31 -180h191
q49 0 81 24t39 67z" />
    <glyph glyph-name="uni0433" unicode="&#x433;" horiz-adv-x="397" 
d="M434 500l-8 -49h-264l-79 -451h-50l79 451l9 49h313z" />
    <glyph glyph-name="uni0434" unicode="&#x434;" horiz-adv-x="590" 
d="M452 49h69l-32 -183h-51l24 134h-432l-24 -134h-51l33 183h58q67 73 90 201l44 250h351zM111 49h290l70 402h-249l-35 -201q-22 -124 -76 -201z" />
    <glyph glyph-name="uni0435" unicode="&#x435;" horiz-adv-x="588" 
d="M342 511q112 0 169.5 -78t36.5 -185q-3 -17 -6 -24h-451q-6 -85 42.5 -136t134.5 -51q124 0 190 92l39 -26q-36 -54 -100 -84t-136 -30q-114 0 -175 76.5t-41 191.5q20 111 103 182.5t194 71.5zM99 273h401q9 90 -36 140t-126 50q-86 0 -151 -52t-88 -138z" />
    <glyph glyph-name="uni0436" unicode="&#x436;" horiz-adv-x="661" 
d="M673 500l-268 -245l189 -255h-56l-182 247l-44 -247h-51l43 246l-263 -246h-62l283 265l-185 235h58l174 -225l40 225h51l-40 -229l251 229h62z" />
    <glyph glyph-name="uni0437" unicode="&#x437;" horiz-adv-x="446" 
d="M408 365q-15 -81 -89 -110q40 -16 59.5 -51t11.5 -77q-10 -60 -64 -99t-142 -39q-80 0 -123 32.5t-53 85.5l44 24q15 -94 138 -94q63 0 103 27.5t47 72.5q8 41 -17.5 66.5t-76.5 25.5h-68l9 49h49q49 0 81.5 25t39.5 67q8 41 -20.5 67t-83.5 26q-102 0 -147 -82l-40 25
q65 105 192 105q79 0 119.5 -43.5t30.5 -102.5z" />
    <glyph glyph-name="uni0438" unicode="&#x438;" horiz-adv-x="567" 
d="M490 500h44l-88 -500h-51l72 409l-390 -409h-44l88 500h50l-72 -409z" />
    <glyph glyph-name="uni0439" unicode="&#x439;" horiz-adv-x="567" 
d="M215 587l8 44h253l-7 -44h-254zM490 500h44l-88 -500h-51l72 409l-390 -409h-44l88 500h50l-72 -409z" />
    <glyph glyph-name="uni043A" unicode="&#x43a;" horiz-adv-x="483" 
d="M495 500l-313 -241l234 -259h-62l-227 251l-44 -251h-50l88 500h50l-39 -224l292 224h71z" />
    <glyph glyph-name="uni043B" unicode="&#x43b;" horiz-adv-x="560" 
d="M527 500l-88 -500h-50l79 451h-251l-42 -241q-22 -127 -73.5 -171.5t-132.5 -38.5l9 47q58 -5 93.5 32.5t52.5 130.5l51 290h352z" />
    <glyph glyph-name="uni043C" unicode="&#x43c;" horiz-adv-x="637" 
d="M604 500l-88 -500h-51l74 423l-238 -294h-8l-135 298l-75 -427h-50l88 500h56l131 -287l233 287h63z" />
    <glyph glyph-name="uni043D" unicode="&#x43d;" horiz-adv-x="567" 
d="M483 500h51l-88 -500h-51l40 226h-312l-40 -226h-50l88 500h50l-40 -226h312z" />
    <glyph glyph-name="uni043E" unicode="&#x43e;" horiz-adv-x="612" 
d="M264 -11q-106 0 -173 74t-47 192q21 117 111 186.5t198 69.5q105 0 170 -74.5t45 -190.5q-21 -119 -109 -188t-195 -69zM269 37q87 0 159.5 58.5t89.5 156.5q17 95 -35.5 153t-138.5 58q-87 -1 -159.5 -59t-89.5 -154t35.5 -154.5t138.5 -58.5z" />
    <glyph glyph-name="uni043F" unicode="&#x43f;" horiz-adv-x="567" 
d="M534 500l-88 -500h-51l79 451h-312l-79 -451h-50l88 500h413z" />
    <glyph glyph-name="uni0440" unicode="&#x440;" horiz-adv-x="646" 
d="M384 511q106 0 171 -81t46 -191q-21 -117 -103.5 -183.5t-185.5 -66.5q-71 0 -127 36.5t-80 100.5l-57 -326h-50l123 700h50l-18 -102q86 113 231 113zM550 243q16 90 -36 155t-142 65t-158.5 -58t-84.5 -148q-17 -97 37.5 -158.5t142.5 -61.5q86 0 155 55.5t86 150.5z
" />
    <glyph glyph-name="uni0441" unicode="&#x441;" horiz-adv-x="562" 
d="M260 -11q-110 0 -172.5 79t-42.5 190q19 111 105.5 182t198.5 71q72 0 126.5 -34.5t74.5 -92.5l-43 -23q-17 48 -59 75t-104 27q-91 0 -161.5 -60t-86.5 -150q-16 -91 33 -153.5t140 -62.5q60 0 112.5 28.5t83.5 76.5l40 -27q-38 -59 -102.5 -92.5t-142.5 -33.5z" />
    <glyph glyph-name="uni0442" unicode="&#x442;" horiz-adv-x="440" 
d="M471 500l-9 -49h-182l-79 -451h-50l79 451h-181l8 49h414z" />
    <glyph glyph-name="uni0443" unicode="&#x443;" horiz-adv-x="510" 
d="M484 500h57l-312 -546q-44 -78 -102.5 -118.5t-122.5 -35.5l8 47q93 -9 167 117l17 28l-139 508h51l121 -450z" />
    <glyph glyph-name="uni0444" unicode="&#x444;" horiz-adv-x="672" 
d="M407 511q116 -8 178 -83.5t43 -182.5t-104.5 -178t-208.5 -78l-33 -189h-50l33 189q-116 8 -178 83.5t-43 182.5t105 178t208 78l33 189h50zM577 250q16 86 -33 145.5t-146 66.5l-74 -424q99 7 168.5 66t84.5 146zM95 250q-15 -87 33.5 -146t145.5 -66l74 424
q-99 -7 -168 -66t-85 -146z" />
    <glyph glyph-name="uni0445" unicode="&#x445;" horiz-adv-x="507" 
d="M515 500l-230 -245l154 -255h-56l-133 218l-205 -218h-66l246 261l-146 239h57l123 -203l191 203h65z" />
    <glyph glyph-name="uni0446" unicode="&#x446;" horiz-adv-x="593" 
d="M444 49h80l-32 -183h-51l24 134h-432l88 500h50l-79 -451h302l79 451h51z" />
    <glyph glyph-name="uni0447" unicode="&#x447;" horiz-adv-x="537" 
d="M453 500h51l-88 -500h-51l34 193q-78 -30 -157 -30q-95 0 -139.5 48.5t-29.5 128.5l28 160h50l-28 -160q-11 -62 20 -95.5t101 -33.5q76 0 164 33z" />
    <glyph glyph-name="uni0448" unicode="&#x448;" horiz-adv-x="817" 
d="M733 500h51l-88 -500h-663l88 500h50l-79 -451h256l79 451h51l-79 -451h255z" />
    <glyph glyph-name="uni0449" unicode="&#x449;" horiz-adv-x="843" 
d="M705 49h69l-32 -183h-51l24 134h-682l88 500h50l-79 -451h256l79 451h51l-79 -451h255l79 451h51z" />
    <glyph glyph-name="uni044A" unicode="&#x44a;" horiz-adv-x="541" 
d="M352 306q66 0 107.5 -45.5t29.5 -112.5t-66 -107.5t-126 -40.5h-198l79 451h-142l8 49h194l-34 -194h148zM439 153q8 47 -20 75.5t-77 28.5h-147l-36 -208h147q48 0 86.5 29t46.5 75z" />
    <glyph glyph-name="uni044B" unicode="&#x44b;" horiz-adv-x="644" 
d="M285 306q67 0 108.5 -45.5t29.5 -112.5t-66 -107.5t-126 -40.5h-198l88 500h50l-34 -194h148zM561 500h50l-88 -500h-50zM372 153q8 47 -19.5 75.5t-76.5 28.5h-148l-36 -208h147q48 0 86.5 29t46.5 75z" />
    <glyph glyph-name="uni044C" unicode="&#x44c;" horiz-adv-x="474" 
d="M285 306q67 0 108.5 -45.5t29.5 -112.5t-66 -107.5t-126 -40.5h-198l88 500h50l-34 -194h148zM372 153q8 47 -19.5 75.5t-76.5 28.5h-148l-36 -208h147q48 0 86.5 29t46.5 75z" />
    <glyph glyph-name="uni044D" unicode="&#x44d;" horiz-adv-x="562" 
d="M302 511q112 0 173.5 -78.5t41.5 -190.5q-19 -111 -105 -182t-199 -71q-72 0 -126.5 34.5t-74.5 92.5l43 23q35 -102 163 -102q86 0 154 53.5t90 135.5h-259l9 48h257q5 82 -42.5 135.5t-133.5 53.5q-60 0 -112.5 -28.5t-83.5 -76.5l-40 27q38 59 102.5 92.5t142.5 33.5z
" />
    <glyph glyph-name="uni044E" unicode="&#x44e;" horiz-adv-x="803" 
d="M544 511q105 0 170 -74.5t45 -190.5q-21 -119 -108.5 -188t-195.5 -69q-99 0 -164 65.5t-56 171.5h-112l-40 -226h-50l88 500h50l-40 -226h112q26 109 112.5 173t188.5 64zM709 252q17 95 -35.5 153t-138.5 58q-87 -1 -159.5 -59t-89.5 -154q-16 -96 36 -154.5t138 -58.5
q87 0 159.5 59t89.5 156z" />
    <glyph glyph-name="uni044F" unicode="&#x44f;" horiz-adv-x="500" 
d="M467 500l-88 -500h-50l34 195h-111l-189 -195h-64l194 197q-58 9 -92 52t-24 103q12 67 67 107.5t125 40.5h198zM224 243h148l36 208h-147q-48 0 -86.5 -29t-46.5 -75q-8 -47 19.5 -75.5t76.5 -28.5z" />
    <glyph glyph-name="uni0451" unicode="&#x451;" horiz-adv-x="588" 
d="M268 577q-15 0 -24 10.5t-6 25.5q2 16 15 26.5t28 10.5t23.5 -10.5t6.5 -26.5q-3 -15 -15.5 -25.5t-27.5 -10.5zM448 577q-15 0 -24 10.5t-6 25.5q2 16 15 26.5t28 10.5t23.5 -10.5t6.5 -26.5q-3 -15 -15.5 -25.5t-27.5 -10.5zM342 511q112 0 169.5 -78t36.5 -185
q-3 -17 -6 -24h-451q-6 -85 42.5 -136t134.5 -51q124 0 190 92l39 -26q-36 -54 -100 -84t-136 -30q-114 0 -175 76.5t-41 191.5q20 111 103 182.5t194 71.5zM99 273h401q9 90 -36 140t-126 50q-86 0 -151 -52t-88 -138z" />
    <glyph glyph-name="uni0452" unicode="&#x452;" horiz-adv-x="577" 
d="M361 511q89 0 134 -54.5t29 -145.5l-65 -368q-29 -168 -193 -154l8 48q114 -12 135 106l64 368q12 70 -19 111t-102 41q-73 0 -129.5 -46t-75.5 -135l-50 -282h-51l102 582h-72l7 42h73l13 76h51l-13 -76h156l-7 -42h-157l-29 -168q71 97 191 97z" />
    <glyph glyph-name="uni0453" unicode="&#x453;" horiz-adv-x="397" 
d="M386 697l-112 -127h-50l100 127h62zM434 500l-8 -49h-264l-79 -451h-50l79 451l9 49h313z" />
    <glyph glyph-name="uni0454" unicode="&#x454;" horiz-adv-x="562" 
d="M344 463q-86 0 -153.5 -53.5t-89.5 -135.5h258l-9 -48h-257q-5 -82 43.5 -135.5t132.5 -53.5q60 0 112.5 28.5t83.5 76.5l40 -27q-38 -59 -102.5 -92.5t-142.5 -33.5q-110 0 -172.5 79t-42.5 190q19 111 105.5 182t198.5 71q72 0 126.5 -34.5t74.5 -92.5l-43 -23
q-17 48 -59 75t-104 27z" />
    <glyph glyph-name="uni0455" unicode="&#x455;" horiz-adv-x="472" 
d="M204 -11q-142 0 -178 114l45 23q11 -41 46.5 -65t90.5 -24t93.5 23.5t46.5 65.5q7 37 -20.5 60.5t-70 36.5t-84.5 27.5t-67.5 47t-16.5 83.5q10 57 60.5 93.5t121.5 36.5q59 0 102 -26.5t62 -73.5l-44 -23q-12 37 -46 56t-76 19q-46 0 -83.5 -22.5t-45.5 -66.5
q-7 -36 20.5 -59t69.5 -35.5t84 -28t67.5 -48.5t16.5 -85q-10 -60 -62.5 -94.5t-131.5 -34.5z" />
    <glyph glyph-name="uni0456" unicode="&#x456;" horiz-adv-x="204" 
d="M167 621q-17 0 -26 11.5t-6 28.5q2 16 15 27.5t31 11.5q16 0 26 -11.5t7 -27.5q-3 -17 -16 -28.5t-31 -11.5zM33 0l88 500h50l-88 -500h-50z" />
    <glyph glyph-name="uni0457" unicode="&#x457;" horiz-adv-x="204" 
d="M69 577q-15 0 -24 10.5t-6 25.5q2 16 15 26.5t28 10.5t23.5 -10.5t6.5 -26.5q-3 -15 -15.5 -25.5t-27.5 -10.5zM249 577q-15 0 -24 10.5t-6 25.5q2 16 15 26.5t28 10.5t23.5 -10.5t6.5 -26.5q-3 -15 -15.5 -25.5t-27.5 -10.5zM33 0l88 500h50l-88 -500h-50z" />
    <glyph glyph-name="uni0458" unicode="&#x458;" horiz-adv-x="223" 
d="M200 700q16 0 26 -11.5t7 -27.5q-3 -17 -16 -28.5t-31 -11.5q-17 0 -26 11.5t-6 28.5q2 16 15 27.5t31 11.5zM42 -57l98 557h50l-98 -557q-29 -171 -193 -154l8 48q114 -12 135 106z" />
    <glyph glyph-name="uni0459" unicode="&#x459;" horiz-adv-x="804" 
d="M620 286q64 0 103.5 -41t27.5 -107q-12 -67 -62 -102.5t-119 -35.5h-191l79 451h-241l-42 -241q-22 -125 -74 -170.5t-132 -39.5l9 47q59 -6 94 31.5t52 131.5l51 290h342l-38 -214h141zM700 143q8 46 -17 70t-71 24h-141l-33 -188h140q46 0 80 24.5t42 69.5z" />
    <glyph glyph-name="uni045A" unicode="&#x45a;" horiz-adv-x="801" 
d="M617 286q64 0 103.5 -41t27.5 -107t-62.5 -102t-118.5 -36h-192l42 237h-292l-42 -237h-50l88 500h50l-38 -214h292l38 214h51l-38 -214h141zM697 143q8 46 -17 70t-71 24h-141l-33 -188h140q46 0 80 24.5t42 69.5z" />
    <glyph glyph-name="uni045B" unicode="&#x45b;" horiz-adv-x="577" 
d="M361 511q89 0 134 -54.5t29 -145.5l-55 -311h-50l54 311q12 70 -19 111t-102 41q-73 0 -129.5 -46t-75.5 -135l-50 -282h-51l102 582h-72l7 42h73l13 76h51l-13 -76h156l-7 -42h-157l-29 -168q71 97 191 97z" />
    <glyph glyph-name="uni045C" unicode="&#x45c;" horiz-adv-x="483" 
d="M416 697l-112 -127h-50l100 127h62zM495 500l-313 -241l234 -259h-62l-227 251l-44 -251h-50l88 500h50l-39 -224l292 224h71z" />
    <glyph glyph-name="uni045E" unicode="&#x45e;" horiz-adv-x="510" 
d="M432 631l-7 -44h-254l8 44h253zM484 500h57l-312 -546q-44 -78 -102.5 -118.5t-122.5 -35.5l8 47q93 -9 167 117l17 28l-139 508h51l121 -450z" />
    <glyph glyph-name="uni045F" unicode="&#x45f;" horiz-adv-x="567" 
d="M483 500h51l-88 -500h-181l-24 -134h-51l24 134h-181l88 500h50l-79 -451h312z" />
    <glyph glyph-name="uni0490" unicode="&#x490;" horiz-adv-x="493" 
d="M518 820h53l-30 -170h-331l-114 -650h-53l114 650l9 50h330z" />
    <glyph glyph-name="uni0491" unicode="&#x491;" horiz-adv-x="397" 
d="M401 604h51l-26 -153h-264l-79 -451h-50l79 451l9 49h262z" />
    <glyph glyph-name="Wgrave" unicode="&#x1e80;" horiz-adv-x="993" 
d="M624 770l-58 127h-60l70 -127h48zM192 0l-80 700h53l71 -631l306 631h63l85 -631l293 631h56l-326 -700h-64l-85 631l-308 -631h-64z" />
    <glyph glyph-name="wgrave" unicode="&#x1e81;" horiz-adv-x="770" 
d="M462 570h-48l-70 127h60zM726 500h55l-246 -500h-55l-64 426l-214 -426h-55l-70 500h50l57 -436l217 436h52l-1 -2l64 -434z" />
    <glyph glyph-name="Wacute" unicode="&#x1e82;" horiz-adv-x="993" 
d="M547 770h50l112 127h-62zM192 0l-80 700h53l71 -631l306 631h63l85 -631l293 631h56l-326 -700h-64l-85 631l-308 -631h-64z" />
    <glyph glyph-name="wacute" unicode="&#x1e83;" horiz-adv-x="770" 
d="M547 697l-112 -127h-50l100 127h62zM726 500h55l-246 -500h-55l-64 426l-214 -426h-55l-70 500h50l57 -436l217 436h52l-1 -2l64 -434z" />
    <glyph glyph-name="Wdieresis" unicode="&#x1e84;" horiz-adv-x="993" 
d="M499 777q-15 0 -24 10.5t-6 25.5q2 16 15 26.5t28 10.5t23.5 -10.5t6.5 -26.5q-3 -15 -15.5 -25.5t-27.5 -10.5zM679 777q-15 0 -24 10.5t-6 25.5q2 16 15 26.5t28 10.5t23.5 -10.5t6.5 -26.5q-3 -15 -15.5 -25.5t-27.5 -10.5zM192 0l-80 700h53l71 -631l306 631h63
l85 -631l293 631h56l-326 -700h-64l-85 631l-308 -631h-64z" />
    <glyph glyph-name="wdieresis" unicode="&#x1e85;" horiz-adv-x="770" 
d="M337 577q-15 0 -24 10.5t-6 25.5q2 16 15 26.5t28 10.5t23.5 -10.5t6.5 -26.5q-3 -15 -15.5 -25.5t-27.5 -10.5zM517 577q-15 0 -24 10.5t-6 25.5q2 16 15 26.5t28 10.5t23.5 -10.5t6.5 -26.5q-3 -15 -15.5 -25.5t-27.5 -10.5zM726 500h55l-246 -500h-55l-64 426
l-214 -426h-55l-70 500h50l57 -436l217 436h52l-1 -2l64 -434z" />
    <glyph glyph-name="Ygrave" unicode="&#x1ef2;" 
d="M410 770h-48l-70 127h60zM636 700l-311 -373l-58 -327h-53l58 329l-180 371h55l156 -324l270 324h63z" />
    <glyph glyph-name="ygrave" unicode="&#x1ef3;" horiz-adv-x="510" 
d="M331 570h-48l-70 127h60zM484 500h57l-312 -546q-44 -78 -102.5 -118.5t-122.5 -35.5l8 47q93 -9 167 117l17 28l-139 508h51l121 -450z" />
    <glyph glyph-name="endash" unicode="&#x2013;" horiz-adv-x="665" 
d="M93 285l8 48h492l-8 -48h-492z" />
    <glyph glyph-name="emdash" unicode="&#x2014;" horiz-adv-x="765" 
d="M93 285l8 48h592l-8 -48h-592z" />
    <glyph glyph-name="quoteleft" unicode="&#x2018;" horiz-adv-x="224" 
d="M104 492l91 208h46l-74 -208h-63z" />
    <glyph glyph-name="quoteright" unicode="&#x2019;" horiz-adv-x="224" 
d="M242 700l-91 -208h-46l74 208h63z" />
    <glyph glyph-name="quotesinglbase" unicode="&#x201a;" horiz-adv-x="223" 
d="M130 68l-91 -208h-46l74 208h63z" />
    <glyph glyph-name="quotedblleft" unicode="&#x201c;" horiz-adv-x="351" 
d="M104 492l91 208h46l-74 -208h-63zM231 492l91 208h46l-74 -208h-63z" />
    <glyph glyph-name="quotedblright" unicode="&#x201d;" horiz-adv-x="351" 
d="M242 700l-91 -208h-46l74 208h63zM369 700l-91 -208h-46l74 208h63z" />
    <glyph glyph-name="quotedblbase" unicode="&#x201e;" horiz-adv-x="350" 
d="M130 68l-91 -208h-46l74 208h63zM257 68l-91 -208h-46l74 208h63z" />
    <glyph glyph-name="dagger" unicode="&#x2020;" horiz-adv-x="473" 
d="M459 527l-9 -48h-148l-84 -479h-51l84 479h-147l8 48h148l30 173h51l-30 -173h148z" />
    <glyph glyph-name="daggerdbl" unicode="&#x2021;" horiz-adv-x="473" 
d="M450 479h-148l-45 -258h148l-9 -48h-148l-30 -173h-51l30 173h-147l8 48h148l45 258h-147l8 48h148l30 173h51l-30 -173h148z" />
    <glyph glyph-name="bullet" unicode="&#x2022;" horiz-adv-x="280" 
d="M143 263q-36 0 -57 27.5t-14 63.5t36 59.5t66 23.5q35 0 56 -27t14 -62q-7 -37 -35.5 -61t-65.5 -24z" />
    <glyph glyph-name="ellipsis" unicode="&#x2026;" horiz-adv-x="593" 
d="M61 -10q-19 0 -29.5 13.5t-7.5 32.5t17.5 31.5t34.5 12.5q19 0 30.5 -13.5t7.5 -32.5q-4 -20 -18 -32t-35 -12zM251 -10q-19 0 -29.5 13.5t-7.5 32.5t17.5 31.5t34.5 12.5q19 0 30.5 -13.5t7.5 -32.5q-4 -20 -18 -32t-35 -12zM441 -10q-19 0 -29.5 13.5t-7.5 32.5
t17.5 31.5t34.5 12.5q19 0 30.5 -13.5t7.5 -32.5q-4 -20 -18 -32t-35 -12z" />
    <glyph glyph-name="perthousand" unicode="&#x2030;" horiz-adv-x="1076" 
d="M246 413q-64 0 -101 44.5t-26 107.5t61.5 104.5t117.5 41.5q65 0 101.5 -44.5t25.5 -107.5t-61 -104.5t-118 -41.5zM254 459q45 0 79.5 29.5t42.5 73.5t-16.5 73.5t-69.5 29.5t-79.5 -29.5t-42.5 -73.5t16.5 -73.5t69.5 -29.5zM71 90l569 535l35 -20l-570 -535zM454 -11
q-64 0 -101 44.5t-26 107.5t61.5 104.5t117.5 41.5q65 0 101.5 -44.5t25.5 -107.5t-61.5 -104.5t-117.5 -41.5zM814 -11q-64 0 -101 44.5t-26 107.5t61.5 104.5t117.5 41.5q65 0 101.5 -44.5t25.5 -107.5t-61.5 -104.5t-117.5 -41.5zM462 35q45 0 79.5 29.5t42.5 73.5
t-16.5 73.5t-69.5 29.5t-79.5 -29.5t-42.5 -73.5q-7 -44 17 -73.5t69 -29.5zM822 35q45 0 79.5 29.5t42.5 73.5t-16.5 73.5t-69.5 29.5t-79.5 -29.5t-42.5 -73.5q-7 -44 17 -73.5t69 -29.5z" />
    <glyph glyph-name="guilsinglleft" unicode="&#x2039;" horiz-adv-x="333" 
d="M294 482l-141 -177l75 -169h-61l-77 173l138 173h66z" />
    <glyph glyph-name="guilsinglright" unicode="&#x203a;" horiz-adv-x="334" 
d="M187 482l77 -173l-138 -173h-66l141 177l-75 169h61z" />
    <glyph glyph-name="fraction" unicode="&#x2044;" horiz-adv-x="227" 
d="M-106 0h-51l525 700h51z" />
    <glyph glyph-name="Euro" unicode="&#x20ac;" horiz-adv-x="603" 
d="M434 660q-82 0 -144.5 -58t-97.5 -165h268l-8 -44h-272l-9 -43q-4 -27 -5 -37h272l-8 -45h-268q-5 -109 37.5 -168.5t125.5 -59.5q116 0 183 110l43 -26q-84 -135 -235 -135q-103 0 -158 75.5t-50 203.5h-81l7 45h78q2 21 6 42q2 16 8 38h-77l7 44h81q40 129 119 201.5
t187 72.5q69 0 117 -35t69 -99l-48 -24q-31 107 -147 107z" />
    <glyph glyph-name="uni20BD" unicode="&#x20bd;" horiz-adv-x="577" 
d="M422 700q83 0 134.5 -63.5t35.5 -148.5q-14 -85 -84 -143t-158 -58h-187l-18 -104h267l-8 -44h-267l-24 -139h-54l24 139h-89l8 44h89l18 104h-89l9 50h89l64 363h240zM539 493q12 65 -25 111t-100 46h-187l-55 -313h187q64 0 116.5 45.5t63.5 110.5z" />
    <glyph glyph-name="uni2116" unicode="&#x2116;" horiz-adv-x="1020" 
d="M856 418q-62 0 -98 44.5t-25 105.5t60.5 102t114.5 41q63 0 98.5 -44.5t24.5 -105.5q-10 -62 -57.5 -102.5t-117.5 -40.5zM43 0l123 700h42l312 -602l106 602h53l-123 -700h-43l-311 602l-106 -602h-53zM865 464q43 0 76.5 29t40.5 71q8 43 -15.5 72t-66.5 29
q-44 0 -77 -29t-41 -72q-7 -43 15.5 -71.5t67.5 -28.5zM695 290l9 49h276l-8 -49h-277z" />
    <glyph glyph-name="trademark" unicode="&#x2122;" horiz-adv-x="479" 
d="M275 669h-58l-30 -169h-34l30 169h-59l6 31h150zM508 700l-35 -200h-33l25 144l-85 -106h-4l-45 105l-25 -143h-34l35 200h34l44 -109l86 109h37z" />
    <glyph glyph-name="estimated" unicode="&#x212e;" horiz-adv-x="833" 
d="M498 710q161 0 247.5 -104.5t59.5 -255.5q-3 -15 -18 -15h-560q-15 0 -18 -15l-33 -192q-3 -11 3 -19q69 -89 218 -89q143 0 250 97q9 9 19 9h35q10 0 12 -6t-6 -13q-130 -117 -316 -117q-173 0 -262.5 108t-62.5 262q27 152 146.5 251t285.5 99zM695 574q1 11 -4 19
q-67 87 -198 87q-129 0 -229 -89q-9 -9 -10 -19l-34 -192q-3 -15 12 -15h410q15 0 18 15z" />
    <glyph glyph-name="oneeighth" unicode="&#x215b;" horiz-adv-x="815" 
d="M196 643l-106 -32l-5 44l130 45h39l-71 -400h-48zM614 700h51l-525 -700h-51zM781 296q-10 -58 -73 -87q65 -36 52 -108q-10 -53 -53.5 -83t-107.5 -30q-61 0 -96 33.5t-26 86.5q14 74 90 104q-53 34 -43 91q9 52 51.5 80.5t97.5 28.5q51 0 84 -32t24 -84zM733 300
q6 31 -13 49t-55 18q-37 0 -62 -18t-31 -49q-5 -31 14.5 -49.5t55.5 -18.5q35 0 60.5 18.5t30.5 49.5zM713 110q6 35 -16.5 55.5t-63.5 20.5q-43 0 -72 -20.5t-35 -55.5t15.5 -55.5t65.5 -20.5q43 0 71.5 20.5t34.5 55.5z" />
    <glyph glyph-name="threeeighths" unicode="&#x215c;" horiz-adv-x="919" 
d="M336 411q-10 -56 -53.5 -89.5t-109.5 -33.5q-95 0 -124 81l42 21q18 -56 89 -56q46 0 74 22.5t34 58.5q7 36 -14 59t-65 23h-3l-18 35l115 122h-192l8 46h251l-8 -46l-114 -120q48 -9 72 -43t16 -80zM718 700h51l-525 -700h-51zM885 296q-10 -58 -73 -87q65 -36 52 -108
q-10 -53 -53.5 -83t-107.5 -30q-61 0 -96 33.5t-26 86.5q14 74 90 104q-53 34 -43 91q9 52 51.5 80.5t97.5 28.5q51 0 84 -32t24 -84zM837 300q6 31 -13 49t-55 18q-37 0 -62 -18t-31 -49q-5 -31 14.5 -49.5t55.5 -18.5q35 0 60.5 18.5t30.5 49.5zM817 110q6 35 -16.5 55.5
t-63.5 20.5q-43 0 -72 -20.5t-35 -55.5t15.5 -55.5t65.5 -20.5q43 0 71.5 20.5t34.5 55.5z" />
    <glyph glyph-name="fiveeighths" unicode="&#x215d;" horiz-adv-x="909" 
d="M333 411q-10 -57 -52.5 -90t-108.5 -33q-94 0 -123 80l43 22q19 -56 87 -56q43 0 71.5 22t34.5 59q7 39 -13.5 61.5t-63.5 22.5h-118l50 201h227l-8 -45h-184l-28 -110h71q58 0 91.5 -38.5t23.5 -95.5zM708 700h51l-525 -700h-51zM875 296q-10 -58 -73 -87
q65 -36 52 -108q-10 -53 -53.5 -83t-107.5 -30q-61 0 -96 33.5t-26 86.5q14 74 90 104q-53 34 -43 91q9 52 51.5 80.5t97.5 28.5q51 0 84 -32t24 -84zM827 300q6 31 -13 49t-55 18q-37 0 -62 -18t-31 -49q-5 -31 14.5 -49.5t55.5 -18.5q35 0 60.5 18.5t30.5 49.5zM807 110
q6 35 -16.5 55.5t-63.5 20.5q-43 0 -72 -20.5t-35 -55.5t15.5 -55.5t65.5 -20.5q43 0 71.5 20.5t34.5 55.5z" />
    <glyph glyph-name="seveneighths" unicode="&#x215e;" horiz-adv-x="878" 
d="M362 700l-7 -39l-216 -361h-53l214 354h-212l8 46h266zM677 700h51l-525 -700h-51zM844 296q-10 -58 -73 -87q65 -36 52 -108q-10 -53 -53.5 -83t-107.5 -30q-61 0 -96 33.5t-26 86.5q14 74 90 104q-53 34 -43 91q9 52 51.5 80.5t97.5 28.5q51 0 84 -32t24 -84zM796 300
q6 31 -13 49t-55 18q-37 0 -62 -18t-31 -49q-5 -31 14.5 -49.5t55.5 -18.5q35 0 60.5 18.5t30.5 49.5zM776 110q6 35 -16.5 55.5t-63.5 20.5q-43 0 -72 -20.5t-35 -55.5t15.5 -55.5t65.5 -20.5q43 0 71.5 20.5t34.5 55.5z" />
    <glyph glyph-name="arrowleft" unicode="&#x2190;" horiz-adv-x="827" 
d="M785 374l-8 -48h-610l228 -276h-67l-247 300l353 300l71 -1l-323 -275h603z" />
    <glyph glyph-name="arrowup" unicode="&#x2191;" horiz-adv-x="727" 
d="M689 400l-11 -67l-227 276l-106 -609h-51l106 601l-323 -274l13 73l352 300z" />
    <glyph glyph-name="arrowright" unicode="&#x2192;" horiz-adv-x="827" 
d="M534 650l247 -300l-349 -300h-73l322 276h-604l8 48h611l-228 276h66z" />
    <glyph glyph-name="arrowdown" unicode="&#x2193;" horiz-adv-x="727" 
d="M362 98l323 274l-13 -72l-353 -300l-247 300l12 65l226 -275l107 610h51z" />
    <glyph glyph-name="arrowboth" unicode="&#x2194;" horiz-adv-x="1033" 
d="M785 597l203 -247l-290 -247h-72l261 223h-720l183 -223h-66l-203 247l290 247h72l-261 -223h720l-183 223h66z" />
    <glyph glyph-name="arrowupdn" unicode="&#x2195;" horiz-adv-x="627" 
d="M602 491l-181 220l-128 -716l260 221l-13 -73l-289 -246l-203 246l12 66l182 -222l127 719l-261 -221l13 72l290 246l202 -246z" />
    <glyph glyph-name="uni2196" unicode="&#x2196;" horiz-adv-x="639" 
d="M586 539h-391l356 -431l-39 -33l-356 431l-68 -391l-40 48l75 424h424z" />
    <glyph glyph-name="uni2197" unicode="&#x2197;" horiz-adv-x="640" 
d="M212 587h424l-75 -424l-59 -49l68 386l-500 -425l-31 37l502 427h-387z" />
    <glyph glyph-name="uni2198" unicode="&#x2198;" horiz-adv-x="639" 
d="M583 561l39 -48l-74 -424h-424l-40 48h392l-357 432l39 33l356 -433z" />
    <glyph glyph-name="uni2199" unicode="&#x2199;" horiz-adv-x="640" 
d="M632 564l-503 -427h387l-57 -48h-424l74 424l58 48l-68 -386l501 426z" />
    <glyph glyph-name="partialdiff" unicode="&#x2202;" horiz-adv-x="579" 
d="M316 711q117 0 181 -102t35 -264q-31 -171 -117.5 -263.5t-201.5 -92.5q-91 0 -137.5 62.5t-30.5 153.5q18 103 89.5 164t178.5 61q102 0 172 -57q17 123 -30 206t-148 83q-72 0 -134 -35l9 50q60 34 134 34zM221 37q89 0 157.5 76t97.5 209q-67 59 -171 59
q-82 0 -138 -47.5t-71 -133.5q-12 -72 20 -117.5t105 -45.5z" />
    <glyph glyph-name="emptyset" unicode="&#x2205;" horiz-adv-x="819" 
d="M827 720l-108 -108q97 -109 70 -268q-27 -150 -149.5 -252.5t-275.5 -102.5q-116 0 -199 70l-80 -79h-58l108 108q-46 51 -65 121t-5 147q26 150 149.5 252.5t275.5 102.5q116 0 199 -70l80 79h58zM112 350q-24 -136 56 -229l489 487q-72 59 -174 59q-131 0 -239.5 -92.5
t-131.5 -224.5zM742 350q24 136 -56 229l-489 -487q72 -59 174 -59q131 0 239.5 92.5t131.5 224.5z" />
    <glyph glyph-name="product" unicode="&#x220f;" horiz-adv-x="640" 
d="M8 -200l158 900h466l-158 -900h-50l149 851h-365l-150 -851h-50z" />
    <glyph glyph-name="summation" unicode="&#x2211;" horiz-adv-x="541" 
d="M-22 -200l8 50l326 414l-170 387l8 49h421l-8 -49h-368l174 -394l-321 -408h389l-9 -49h-450z" />
    <glyph glyph-name="minus" unicode="&#x2212;" horiz-adv-x="540" 
d="M77 326l8 48h413l-8 -48h-413z" />
    <glyph glyph-name="radical" unicode="&#x221a;" horiz-adv-x="639" 
d="M251 0l-103 251h-84l8 49h110l98 -240l376 740h57l-408 -800h-54z" />
    <glyph glyph-name="infinity" unicode="&#x221e;" horiz-adv-x="806" 
d="M635 507q64 0 102 -46.5t26 -114.5t-63 -110.5t-119 -42.5q-56 0 -94.5 32.5t-71.5 85.5q-109 -118 -208 -118q-65 0 -102.5 46.5t-25.5 114.5t63 110.5t119 42.5q56 0 95 -32.5t72 -85.5q49 53 98 85.5t109 32.5zM215 239q46 0 88 30t89 81q-29 52 -60.5 81.5
t-77.5 29.5q-47 0 -82 -31t-43 -80q-9 -49 15 -80t71 -31zM714 350q8 49 -16 80t-71 31q-45 0 -87 -30t-89 -81q59 -111 137 -111q47 0 82 31t44 80z" />
    <glyph glyph-name="integral" unicode="&#x222b;" horiz-adv-x="436" 
d="M-80 -203l9 50q48 -21 87 0.5t58 76.5l225 653q29 86 85.5 117t131.5 8l-9 -49q-56 21 -96.5 -0.5t-59.5 -76.5l-225 -653q-28 -85 -83.5 -116.5t-122.5 -9.5z" />
    <glyph glyph-name="approxequal" unicode="&#x2248;" horiz-adv-x="587" 
d="M310 409q-122 90 -179 -40l-43 22q15 35 38.5 59.5t55 38t72.5 4.5t86 -42q122 -91 179 40l43 -22q-15 -35 -38 -60t-54 -38t-73 -4t-87 42zM102 209l-42 22q15 35 38 59.5t54.5 38t73.5 4.5t86 -42q122 -91 179 40l43 -22q-15 -35 -38 -59.5t-54 -38t-73 -4.5t-87 42
q-122 89 -180 -40z" />
    <glyph glyph-name="notequal" unicode="&#x2260;" horiz-adv-x="537" 
d="M505 426h-148l-96 -152h217l-9 -48h-238l-96 -154h-43l96 154h-129l9 48h150l96 152h-219l8 48h241l96 154h43l-96 -154h126z" />
    <glyph glyph-name="lessequal" unicode="&#x2264;" horiz-adv-x="527" 
d="M524 593l-11 -59l-359 -127l314 -127l-9 -53l-372 158l4 25l5 25zM38 107l9 48h399l-8 -48h-400z" />
    <glyph glyph-name="greaterequal" unicode="&#x2265;" horiz-adv-x="527" 
d="M124 593l372 -158l-5 -25l-4 -25l-428 -158l11 59l358 127l-313 127zM38 107l9 48h399l-8 -48h-400z" />
    <glyph glyph-name="lozenge" unicode="&#x25ca;" horiz-adv-x="538" 
d="M199 0l-124 350l247 350h52l125 -350l-248 -350h-52zM232 55l213 301l-103 289l-213 -301z" />
    <glyph glyph-name="i.loclTRK" horiz-adv-x="204" 
d="M158 573q-20 0 -31 14t-7 33q3 20 19 33.5t35 13.5q20 0 31.5 -13.5t7.5 -33.5t-19.5 -33.5t-35.5 -13.5zM33 0l88 500h50l-88 -500h-50z" />
    <glyph glyph-name="f_f_j" horiz-adv-x="780" 
d="M657 673q-77 0 -118.5 -32t-54.5 -104l-6 -37h269l-98 -557q-14 -80 -64 -120.5t-129 -33.5l8 48q114 -12 135 106l89 508h-219l-79 -451h-51l79 451h-218l-80 -451h-51l80 451h-87l9 49h86l5 27q17 96 76.5 143.5t156.5 40.5l-9 -48q-147 12 -173 -136l-5 -27h219l6 37
q32 184 233 184q45 0 95 -11l-8 -46q-48 9 -96 9z" />
    <glyph glyph-name="f_j" horiz-adv-x="510" 
d="M386 663q-78 0 -119 -32t-54 -104l-5 -27h270l-98 -557q-14 -80 -64.5 -120.5t-129.5 -33.5l9 48q113 -12 134 106l89 508h-218l-80 -451h-51l80 451h-87l9 49h86l5 27q32 184 233 184q44 0 94 -11l-7 -46q-48 9 -96 9z" />
    <glyph glyph-name="uni0414.loclBGR" horiz-adv-x="703" 
d="M642 50l-33 -184h-54l24 134h-543l-24 -134h-53l24 134l9 50h64l347 650h56l119 -650h64zM113 50h411l-101 585z" />
    <glyph glyph-name="uni041B.loclBGR" horiz-adv-x="605" 
d="M-31 0l384 700h57l137 -700h-53l-121 635l-346 -635h-58z" />
    <glyph glyph-name="uni0424.loclBGR" horiz-adv-x="853" 
d="M534 710q152 -8 234 -109.5t55 -257.5t-141 -250.5t-275 -102.5l-16 -90h-54l16 90q-152 9 -233.5 110t-54.5 257t140.5 250.5t274.5 102.5l16 90h54zM119 350q-24 -134 42 -219t200 -93l111 624q-139 -8 -234.5 -93t-118.5 -219zM769 350q23 134 -43 219t-200 93
l-111 -624q139 8 235 92.5t119 219.5z" />
    <glyph glyph-name="uni0414.ss01" horiz-adv-x="690" 
d="M657 700l-114 -650h74l-9 -50h-634l9 50h56q86 83 116 251l70 399h432zM208 300q-30 -164 -103 -250h385l106 600h-326z" />
    <glyph glyph-name="uni0426.ss01" horiz-adv-x="690" 
d="M545 50h73l-9 -50h-566l123 700h53l-114 -650h387l114 650h53z" />
    <glyph glyph-name="uni0429.ss01" horiz-adv-x="980" 
d="M835 50h73l-9 -50h-856l123 700h53l-114 -650h312l114 650h53l-114 -650h312l114 650h53z" />
    <glyph glyph-name="uni0414.loclBGR.ss01" horiz-adv-x="703" 
d="M578 50h64l-9 -50h-650l9 50h64l347 650h56zM113 50h411l-101 585z" />
    <glyph glyph-name="uni0432.loclBGR" horiz-adv-x="575" 
d="M412 398q64 -21 93.5 -74t16.5 -130q-17 -99 -85.5 -152t-177.5 -53q-102 0 -153.5 66t-31.5 179l43 245q20 112 83.5 172t162.5 60q79 0 123.5 -49t33.5 -118q-13 -81 -108 -146zM354 663q-72 0 -121.5 -48t-64.5 -136l-17 -99l119 23q45 9 83 6q103 61 117 140
q8 48 -23.5 81t-92.5 33zM471 199q16 91 -39.5 134.5t-170.5 20.5l-118 -22l-18 -102q-16 -93 21.5 -143t121.5 -50q82 0 135.5 42.5t67.5 119.5z" />
    <glyph glyph-name="uni0433.loclBGR" horiz-adv-x="459" 
d="M186 -11q-81 0 -124.5 43.5t-32.5 106.5q7 42 34 70t62 39t75 21.5t74.5 18t59.5 27t30 50.5q7 44 -23.5 71t-78.5 27q-45 0 -83 -22t-58 -61l-40 26q25 47 74 76t113 29q72 0 115 -44.5t32 -104.5q-9 -49 -44 -78.5t-80.5 -40.5t-91 -20.5t-79.5 -30t-41 -57.5
q-8 -45 25 -71.5t86 -26.5q55 0 98 26t65 69l41 -27q-63 -116 -208 -116z" />
    <glyph glyph-name="uni0434.loclBGR" horiz-adv-x="650" 
d="M566 500h51l-84 -476q-20 -112 -97 -173.5t-190 -61.5q-81 0 -138 32.5t-80 87.5l45 23q16 -42 59.5 -68.5t115.5 -26.5q97 0 157.5 49t76.5 138l14 78q-40 -54 -98 -83.5t-126 -29.5q-114 0 -177.5 79t-45.5 193q17 112 101 181t186 69q71 0 127.5 -36t80.5 -100z
M280 37q84 0 150.5 53t87.5 138l6 32q9 90 -46.5 146.5t-138.5 56.5q-85 0 -155.5 -57t-84.5 -149q-14 -93 37.5 -156.5t143.5 -63.5z" />
    <glyph glyph-name="uni0436.loclBGR" horiz-adv-x="663" 
d="M-21 0l283 265l-185 235h58l175 -226l76 426h50l-76 -429l251 229h62l-268 -245l189 -255h-56l-182 247l-44 -247h-51l44 246l-264 -246h-62z" />
    <glyph glyph-name="uni0438.loclBGR" horiz-adv-x="564" 
d="M481 500h50l-88 -500h-50l15 87q-71 -98 -192 -98q-89 0 -133.5 54.5t-29.5 145.5l55 311h51l-55 -311q-12 -70 19 -111t102 -41q77 0 134.5 51t74.5 148v-1z" />
    <glyph glyph-name="uni0439.loclBGR" horiz-adv-x="564" 
d="M467 631l-7 -44h-254l8 44h253zM481 500h50l-88 -500h-50l15 87q-71 -98 -192 -98q-89 0 -133.5 54.5t-29.5 145.5l55 311h51l-55 -311q-12 -70 19 -111t102 -41q77 0 134.5 51t74.5 148v-1z" />
    <glyph glyph-name="uni043A.loclBGR" horiz-adv-x="483" 
d="M495 500l-313 -241l234 -259h-62l-227 251l-44 -251h-50l123 700h50l-75 -424l293 224h71z" />
    <glyph glyph-name="uni043B.loclBGR" horiz-adv-x="477" 
d="M420 0h-52l-92 445l-251 -445h-56l283 500h61z" />
    <glyph glyph-name="uni043F.loclBGR" horiz-adv-x="564" 
d="M348 511q89 0 133.5 -54.5t29.5 -145.5l-55 -311h-51l55 311q12 70 -19 111t-102 41q-77 0 -134.5 -51t-74.5 -148v1l-47 -265h-50l88 500h50l-15 -87q71 98 192 98z" />
    <glyph glyph-name="uni0442.loclBGR" horiz-adv-x="857" 
d="M657 511q77 0 120.5 -51.5t27.5 -142.5l-56 -317h-50l55 317q12 70 -17 108t-90 38q-63 0 -111 -41t-67 -124l-53 -298h-50l55 317q13 70 -15 108t-87 38q-66 0 -118 -46t-68 -136l-50 -281h-50l88 500h50l-14 -77q68 88 174 88q53 0 90.5 -26t49.5 -76q35 51 84.5 76.5
t101.5 25.5z" />
    <glyph glyph-name="uni0446.loclBGR" horiz-adv-x="594" 
d="M459 90q-4 -19 5.5 -30t28.5 -11h32l-32 -186h-51l24 138q-30 4 -46 25.5t-13 55.5q-72 -93 -191 -93q-89 0 -134 54.5t-29 145.5l55 311h50l-54 -311q-12 -70 19 -111t102 -41q73 0 129.5 46.5t76.5 135.5l49 281h51z" />
    <glyph glyph-name="uni0448.loclBGR" horiz-adv-x="857" 
d="M774 500h50l-88 -500h-50l14 77q-68 -88 -174 -88q-53 0 -90.5 26t-49.5 76q-35 -51 -84.5 -76.5t-101.5 -25.5q-77 0 -120.5 51.5t-27.5 142.5l56 317h50l-55 -317q-12 -70 17 -108t90 -38q63 0 111 41t67 124l53 298h50l-55 -317q-13 -70 15 -108t87 -38q66 0 118 46
t68 136z" />
    <glyph glyph-name="uni0449.loclBGR" horiz-adv-x="888" 
d="M752 90q-6 -41 34 -41h33l-33 -183h-50l23 135q-29 4 -45 24.5t-14 52.5q-68 -89 -174 -89q-53 0 -90.5 26.5t-49.5 76.5q-35 -52 -84.5 -77.5t-101.5 -25.5q-77 0 -120.5 51.5t-27.5 142.5l56 317h50l-55 -317q-12 -70 17 -108t90 -38q63 0 111 41t67 124l53 298h50
l-55 -317q-13 -70 15 -108t87 -38q66 0 118 45.5t68 135.5l50 282h50z" />
    <glyph glyph-name="uni044C.loclBGR" horiz-adv-x="482" 
d="M270 332q85 0 130 -50.5t31 -128.5q-13 -73 -71 -118.5t-143 -45.5q-89 0 -135 52.5t-33 125.5l59 333h50l-29 -168h141zM381 161q9 55 -23 88.5t-97 33.5h-141l-20 -116q-11 -58 22.5 -94t100.5 -36q64 0 106 35.5t52 88.5z" />
    <glyph glyph-name="uni044A.loclBGR" horiz-adv-x="565" 
d="M353 332q85 0 130 -51t31 -129q-13 -73 -71 -118t-143 -45q-89 0 -135 52.5t-33 125.5l50 284h-146l8 49h197l-29 -168h141zM464 160q9 55 -23 89t-97 34h-141l-20 -116q-11 -58 22 -94t101 -36q64 0 106 35t52 88z" />
    <glyph glyph-name="uni044E.loclBGR" horiz-adv-x="803" 
d="M544 511q105 0 170 -74.5t45 -190.5q-21 -119 -108.5 -188t-195.5 -69q-99 0 -164 65.5t-56 171.5h-112l-40 -226h-50l123 700h50l-75 -426h112q26 110 112 173.5t189 63.5zM709 252q17 95 -35.5 153t-138.5 58q-87 -1 -159.5 -59t-89.5 -154q-16 -96 36 -154.5
t138 -58.5q87 0 159.5 59t89.5 156z" />
    <glyph glyph-name="zero.sinf" horiz-adv-x="411" 
d="M133 -172q-77 0 -115 60.5t-21 155.5q17 96 72 152t135 56q77 0 115 -60.5t21 -155.5q-17 -96 -72 -152t-135 -56zM139 -126q58 0 98.5 43.5t54.5 122.5t-11 122.5t-83 43.5t-98.5 -43.5t-54.5 -122.5t11 -122.5t83 -43.5z" />
    <glyph glyph-name="one.sinf" horiz-adv-x="238" 
d="M134 240h39l-71 -400h-48l61 343l-106 -32l-5 44z" />
    <glyph glyph-name="two.sinf" horiz-adv-x="342" 
d="M-39 -160l7 39l202 166q55 44 63 87q5 32 -13.5 53t-55.5 21q-65 0 -103 -68l-39 24q22 41 61.5 65.5t86.5 24.5q57 0 88 -35t23 -87q-9 -60 -83 -119l-153 -125h199l-7 -46h-276z" />
    <glyph glyph-name="three.sinf" horiz-adv-x="345" 
d="M289 240l-8 -46l-114 -120q48 -9 72 -43t16 -80q-10 -56 -53.5 -89.5t-109.5 -33.5q-95 0 -124 81l42 21q18 -56 89 -56q46 0 74 22.5t34 58.5q7 36 -14 59t-65 23h-3l-18 35l115 122h-192l8 46h251z" />
    <glyph glyph-name="four.sinf" horiz-adv-x="356" 
d="M282 -35l-8 -45h-54l-14 -80h-48l14 80h-213l7 45l199 275h55l-198 -275h158l18 104h48l-18 -104h54z" />
    <glyph glyph-name="five.sinf" horiz-adv-x="327" 
d="M278 195h-184l-28 -110h71q58 0 91.5 -38.5t23.5 -95.5t-52.5 -90t-108.5 -33q-94 0 -123 80l43 22q19 -56 87 -56q43 0 71.5 22t34.5 59q7 39 -13.5 61.5t-63.5 22.5h-118l50 201h227z" />
    <glyph glyph-name="six.sinf" horiz-adv-x="339" 
d="M143 100q61 0 96.5 -41t24.5 -99q-10 -58 -57 -95t-111 -37q-61 0 -97 41t-25 100q7 45 38 77l163 194h60l-122 -142q20 2 30 2zM217 -35q7 40 -16 64.5t-67 24.5q-43 0 -74.5 -24.5t-38.5 -64.5q-7 -41 16 -66t66 -25t74.5 25t39.5 66z" />
    <glyph glyph-name="seven.sinf" horiz-adv-x="310" 
d="M15 240h266l-7 -39l-216 -361h-53l214 354h-212z" />
    <glyph glyph-name="eight.sinf" horiz-adv-x="342" 
d="M280 136q-10 -58 -73 -87q65 -36 52 -108q-10 -53 -53.5 -83t-107.5 -30q-61 0 -96 33.5t-26 86.5q14 74 90 104q-53 34 -43 91q9 52 51.5 80.5t97.5 28.5q51 0 84 -32t24 -84zM232 140q6 31 -13 49t-55 18q-37 0 -62 -18t-31 -49q-5 -31 14.5 -49.5t55.5 -18.5
q35 0 60.5 18.5t30.5 49.5zM212 -50q6 35 -16.5 55.5t-63.5 20.5q-43 0 -72 -20.5t-35 -55.5t15.5 -55.5t65.5 -20.5q43 0 71.5 20.5t34.5 55.5z" />
    <glyph glyph-name="nine.sinf" horiz-adv-x="339" 
d="M169 252q60 0 96 -41.5t26 -99.5q-5 -37 -32 -70l-167 -201h-60l122 143q-15 -3 -32 -3q-60 0 -95.5 41.5t-25.5 98.5q10 58 57.5 95t110.5 37zM48 115q-7 -40 16 -64.5t67 -24.5q43 0 74.5 24.5t38.5 64.5q7 41 -16 66t-66 25t-74.5 -25t-39.5 -66z" />
    <glyph glyph-name="zero.tf" 
d="M240 -11q-121 0 -174 101t-24 265q29 165 114 260.5t210 95.5q121 0 174 -101t24 -265q-29 -165 -114 -260.5t-210 -95.5zM248 40q98 0 167.5 81.5t94.5 228.5q26 146 -14.5 228t-137.5 82q-98 0 -167.5 -81.5t-95.5 -228.5q-25 -147 15 -228.5t138 -81.5z" />
    <glyph glyph-name="one.tf" 
d="M296 51h211l-10 -51h-499l9 51h235l104 589l-170 -50l-6 47l195 63h45z" />
    <glyph glyph-name="two.tf" 
d="M6 0l8 48l309 233q80 61 125 111t55 103q13 76 -27 120.5t-120 44.5q-59 0 -111.5 -32.5t-86.5 -88.5l-43 27q40 68 107 106.5t143 38.5q97 0 153 -60.5t38 -159.5q-11 -66 -60.5 -124.5t-135.5 -121.5l-262 -194h397l-9 -51h-480z" />
    <glyph glyph-name="three.tf" 
d="M573 700l-9 -50l-225 -241q95 -9 145 -65t35 -147q-18 -98 -96 -153t-190 -55q-85 0 -144.5 39t-75.5 107l48 25q13 -55 60 -87.5t117 -32.5q91 0 152.5 43.5t74.5 118.5t-32.5 118.5t-137.5 43.5h-14l-17 35l236 251h-376l9 50h440z" />
    <glyph glyph-name="four.tf" 
d="M534 197l-9 -50h-93l-26 -147h-53l26 147h-374l9 50l354 503h60l-353 -503h313l36 206h53l-36 -206h93z" />
    <glyph glyph-name="five.tf" 
d="M572 650h-350l-57 -235h149q102 0 162 -60t43 -158q-18 -99 -93.5 -153.5t-184.5 -54.5q-83 0 -142 39.5t-75 107.5l47 25q12 -56 59 -88.5t118 -32.5q86 0 145.5 43.5t72.5 118.5t-31 118.5t-130 43.5h-205l82 336h399z" />
    <glyph glyph-name="six.tf" 
d="M313 450q110 0 169 -67t41 -169q-18 -103 -96 -164t-194 -61q-111 0 -170 66.5t-41 168.5q15 82 68 138l307 338h65l-233 -260q37 10 84 10zM470 219q14 81 -29.5 130.5t-136.5 49.5q-104 0 -168 -62l-5 -6q-45 -46 -55 -112q-15 -80 28.5 -129.5t136.5 -49.5t153.5 49.5
t75.5 129.5z" />
    <glyph glyph-name="seven.tf" 
d="M119 700h483l-8 -50l-406 -650h-59l407 650h-425z" />
    <glyph glyph-name="eight.tf" 
d="M556 519q-18 -109 -132 -159q55 -24 80.5 -71t15.5 -106q-16 -93 -91 -143.5t-189 -50.5q-109 0 -169 54.5t-43 146.5q10 61 52 106t107 67q-45 25 -66 67.5t-11 95.5q15 88 85 136.5t171 48.5q95 0 150.5 -52t39.5 -140zM309 385q78 0 130.5 37t63.5 100
q12 65 -27.5 101.5t-117.5 36.5q-80 0 -131.5 -36t-63.5 -102q-11 -63 28 -100t118 -37zM467 187q11 68 -31.5 107t-135.5 39q-94 0 -151 -39t-68 -107q-12 -68 32 -107.5t135 -39.5q93 0 150 39t69 108z" />
    <glyph glyph-name="nine.tf" 
d="M373 711q111 0 169.5 -66t40.5 -169q-13 -76 -63 -132l-311 -344h-65l234 260q-45 -10 -86 -10q-110 0 -169 66t-41 169t96.5 164.5t194.5 61.5zM530 481q14 80 -29 129.5t-137 49.5q-93 0 -154 -49.5t-75 -129.5q-14 -81 29 -130.5t137 -49.5q93 0 154 49.5t75 130.5z
" />
    <glyph glyph-name="zero.dnom" horiz-adv-x="411" 
d="M161 -12q-77 0 -115 60.5t-21 155.5q17 96 72 152t135 56q77 0 115 -60.5t21 -155.5q-17 -96 -72 -152t-135 -56zM167 34q58 0 98.5 43.5t54.5 122.5t-11 122.5t-83 43.5t-98.5 -43.5t-54.5 -122.5t11 -122.5t83 -43.5z" />
    <glyph glyph-name="one.dnom" horiz-adv-x="246" 
d="M162 400h39l-71 -400h-48l61 343l-106 -32l-5 44z" />
    <glyph glyph-name="two.dnom" horiz-adv-x="342" 
d="M-11 0l7 39l202 166q55 44 63 87q5 32 -13.5 53t-55.5 21q-65 0 -103 -68l-39 24q22 41 61.5 65.5t86.5 24.5q57 0 88 -35t23 -87q-9 -60 -83 -119l-153 -125h199l-7 -46h-276z" />
    <glyph glyph-name="three.dnom" horiz-adv-x="350" 
d="M318 400l-8 -46l-114 -120q48 -9 72 -43t16 -80q-10 -56 -53.5 -89.5t-109.5 -33.5q-95 0 -124 81l42 21q18 -56 89 -56q46 0 74 22.5t34 58.5q7 36 -14 59t-65 23h-3l-18 35l115 122h-192l8 46h251z" />
    <glyph glyph-name="four.dnom" horiz-adv-x="356" 
d="M310 125l-8 -45h-54l-14 -80h-48l14 80h-213l7 45l199 275h55l-198 -275h158l18 104h48l-18 -104h54z" />
    <glyph glyph-name="five.dnom" horiz-adv-x="341" 
d="M307 355h-184l-28 -110h71q58 0 91.5 -38.5t23.5 -95.5t-52.5 -90t-108.5 -33q-94 0 -123 80l43 22q19 -56 87 -56q43 0 71.5 22t34.5 59q7 39 -13.5 61.5t-63.5 22.5h-118l50 201h227z" />
    <glyph glyph-name="six.dnom" horiz-adv-x="340" 
d="M172 260q61 0 96.5 -41t24.5 -99q-10 -58 -57 -95t-111 -37q-61 0 -97 41t-25 100q7 45 38 77l163 194h60l-122 -142q20 2 30 2zM246 125q7 40 -16 64.5t-67 24.5q-43 0 -74.5 -24.5t-38.5 -64.5q-7 -41 16 -66t66 -25t74.5 25t39.5 66z" />
    <glyph glyph-name="seven.dnom" horiz-adv-x="309" 
d="M43 400h266l-7 -39l-216 -361h-53l214 354h-212z" />
    <glyph glyph-name="eight.dnom" horiz-adv-x="342" 
d="M308 296q-10 -58 -73 -87q65 -36 52 -108q-10 -53 -53.5 -83t-107.5 -30q-61 0 -96 33.5t-26 86.5q14 74 90 104q-53 34 -43 91q9 52 51.5 80.5t97.5 28.5q51 0 84 -32t24 -84zM260 300q6 31 -13 49t-55 18q-37 0 -62 -18t-31 -49q-5 -31 14.5 -49.5t55.5 -18.5
q35 0 60.5 18.5t30.5 49.5zM240 110q6 35 -16.5 55.5t-63.5 20.5q-43 0 -72 -20.5t-35 -55.5t15.5 -55.5t65.5 -20.5q43 0 71.5 20.5t34.5 55.5z" />
    <glyph glyph-name="nine.dnom" horiz-adv-x="339" 
d="M197 412q60 0 96 -41.5t26 -99.5q-5 -37 -32 -70l-167 -201h-60l122 143q-15 -3 -32 -3q-60 0 -95.5 41.5t-25.5 98.5q10 58 57.5 95t110.5 37zM76 275q-7 -40 16 -64.5t67 -24.5q43 0 74.5 24.5t38.5 64.5q7 41 -16 66t-66 25t-74.5 -25t-39.5 -66z" />
    <glyph glyph-name="zero.numr" horiz-adv-x="411" 
d="M214 288q-77 0 -115 60.5t-21 155.5q17 96 72 152t135 56q77 0 115 -60.5t21 -155.5q-17 -96 -72 -152t-135 -56zM220 334q58 0 98.5 43.5t54.5 122.5t-11 122.5t-83 43.5t-98.5 -43.5t-54.5 -122.5t11 -122.5t83 -43.5z" />
    <glyph glyph-name="one.numr" horiz-adv-x="246" 
d="M215 700h39l-71 -400h-48l61 343l-106 -32l-5 44z" />
    <glyph glyph-name="two.numr" horiz-adv-x="342" 
d="M42 300l7 39l202 166q55 44 63 87q5 32 -13.5 53t-55.5 21q-65 0 -103 -68l-39 24q22 41 61.5 65.5t86.5 24.5q57 0 88 -35t23 -87q-9 -60 -83 -119l-153 -125h199l-7 -46h-276z" />
    <glyph glyph-name="three.numr" horiz-adv-x="350" 
d="M370 700l-8 -46l-114 -120q48 -9 72 -43t16 -80q-10 -56 -53.5 -89.5t-109.5 -33.5q-95 0 -124 81l42 21q18 -56 89 -56q46 0 74 22.5t34 58.5q7 36 -14 59t-65 23h-3l-18 35l115 122h-192l8 46h251z" />
    <glyph glyph-name="four.numr" horiz-adv-x="356" 
d="M363 425l-8 -45h-54l-14 -80h-48l14 80h-213l7 45l199 275h55l-198 -275h158l18 104h48l-18 -104h54z" />
    <glyph glyph-name="five.numr" horiz-adv-x="340" 
d="M359 655h-184l-28 -110h71q58 0 91.5 -38.5t23.5 -95.5t-52.5 -90t-108.5 -33q-94 0 -123 80l43 22q19 -56 87 -56q43 0 71.5 22t34.5 59q7 39 -13.5 61.5t-63.5 22.5h-118l50 201h227z" />
    <glyph glyph-name="six.numr" horiz-adv-x="339" 
d="M224 560q61 0 96.5 -41t24.5 -99q-10 -58 -57 -95t-111 -37q-61 0 -97 41t-25 100q7 45 38 77l163 194h60l-122 -142q20 2 30 2zM298 425q7 40 -16 64.5t-67 24.5q-43 0 -74.5 -24.5t-38.5 -64.5q-7 -41 16 -66t66 -25t74.5 25t39.5 66z" />
    <glyph glyph-name="seven.numr" horiz-adv-x="309" 
d="M96 700h266l-7 -39l-216 -361h-53l214 354h-212z" />
    <glyph glyph-name="eight.numr" horiz-adv-x="342" 
d="M361 596q-10 -58 -73 -87q65 -36 52 -108q-10 -53 -53.5 -83t-107.5 -30q-61 0 -96 33.5t-26 86.5q14 74 90 104q-53 34 -43 91q9 52 51.5 80.5t97.5 28.5q51 0 84 -32t24 -84zM313 600q6 31 -13 49t-55 18q-37 0 -62 -18t-31 -49q-5 -31 14.5 -49.5t55.5 -18.5
q35 0 60.5 18.5t30.5 49.5zM293 410q6 35 -16.5 55.5t-63.5 20.5q-43 0 -72 -20.5t-35 -55.5t15.5 -55.5t65.5 -20.5q43 0 71.5 20.5t34.5 55.5z" />
    <glyph glyph-name="nine.numr" horiz-adv-x="339" 
d="M250 712q60 0 96 -41.5t26 -99.5q-5 -37 -32 -70l-167 -201h-60l122 143q-15 -3 -32 -3q-60 0 -95.5 41.5t-25.5 98.5q10 58 57.5 95t110.5 37zM129 575q-7 -40 16 -64.5t67 -24.5q43 0 74.5 24.5t38.5 64.5q7 41 -16 66t-66 25t-74.5 -25t-39.5 -66z" />
    <glyph glyph-name="zero.sups" horiz-adv-x="411" 
d="M242 448q-77 0 -115 60.5t-21 155.5q17 96 72 152t135 56q77 0 115 -60.5t21 -155.5q-17 -96 -72 -152t-135 -56zM248 494q58 0 98.5 43.5t54.5 122.5t-11 122.5t-83 43.5t-98.5 -43.5t-54.5 -122.5t11 -122.5t83 -43.5z" />
    <glyph glyph-name="one.sups" horiz-adv-x="247" 
d="M244 860h39l-71 -400h-48l61 343l-106 -32l-5 44z" />
    <glyph glyph-name="two.sups" horiz-adv-x="342" 
d="M70 460l7 39l202 166q55 44 63 87q5 32 -13.5 53t-55.5 21q-65 0 -103 -68l-39 24q22 41 61.5 65.5t86.5 24.5q57 0 88 -35t23 -87q-9 -60 -83 -119l-153 -125h199l-7 -46h-276z" />
    <glyph glyph-name="three.sups" horiz-adv-x="350" 
d="M399 860l-8 -46l-114 -120q48 -9 72 -43t16 -80q-10 -56 -53.5 -89.5t-109.5 -33.5q-95 0 -124 81l42 21q18 -56 89 -56q46 0 74 22.5t34 58.5q7 36 -14 59t-65 23h-3l-18 35l115 122h-192l8 46h251z" />
    <glyph glyph-name="four.sups" horiz-adv-x="356" 
d="M391 585l-8 -45h-54l-14 -80h-48l14 80h-213l7 45l199 275h55l-198 -275h158l18 104h48l-18 -104h54z" />
    <glyph glyph-name="five.sups" horiz-adv-x="340" 
d="M388 815h-184l-28 -110h71q58 0 91.5 -38.5t23.5 -95.5t-52.5 -90t-108.5 -33q-94 0 -123 80l43 22q19 -56 87 -56q43 0 71.5 22t34.5 59q7 39 -13.5 61.5t-63.5 22.5h-118l50 201h227z" />
    <glyph glyph-name="six.sups" horiz-adv-x="339" 
d="M253 720q61 0 96.5 -41t24.5 -99q-10 -58 -57 -95t-111 -37q-61 0 -97 41t-25 100q7 45 38 77l163 194h60l-122 -142q20 2 30 2zM327 585q7 40 -16 64.5t-67 24.5q-43 0 -74.5 -24.5t-38.5 -64.5q-7 -41 16 -66t66 -25t74.5 25t39.5 66z" />
    <glyph glyph-name="seven.sups" horiz-adv-x="310" 
d="M125 860h266l-7 -39l-216 -361h-53l214 354h-212z" />
    <glyph glyph-name="eight.sups" horiz-adv-x="342" 
d="M389 756q-10 -58 -73 -87q65 -36 52 -108q-10 -53 -53.5 -83t-107.5 -30q-61 0 -96 33.5t-26 86.5q14 74 90 104q-53 34 -43 91q9 52 51.5 80.5t97.5 28.5q51 0 84 -32t24 -84zM341 760q6 31 -13 49t-55 18q-37 0 -62 -18t-31 -49q-5 -31 14.5 -49.5t55.5 -18.5
q35 0 60.5 18.5t30.5 49.5zM321 570q6 35 -16.5 55.5t-63.5 20.5q-43 0 -72 -20.5t-35 -55.5t15.5 -55.5t65.5 -20.5q43 0 71.5 20.5t34.5 55.5z" />
    <glyph glyph-name="nine.sups" horiz-adv-x="339" 
d="M278 872q60 0 96 -41.5t26 -99.5q-5 -37 -32 -70l-167 -201h-60l122 143q-15 -3 -32 -3q-60 0 -95.5 41.5t-25.5 98.5q10 58 57.5 95t110.5 37zM157 735q-7 -40 16 -64.5t67 -24.5q43 0 74.5 24.5t38.5 64.5q7 41 -16 66t-66 25t-74.5 -25t-39.5 -66z" />
    <glyph glyph-name="cent.tf" 
d="M529 461q-24 66 -90 90l-203 -407q24 -7 55 -7q60 0 112.5 28.5t83.5 76.5l40 -27q-38 -59 -102.5 -92.5t-142.5 -33.5q-38 0 -69 10l-49 -99h-43l56 113q-63 32 -93.5 98.5t-16.5 146.5q19 111 105.5 182t198.5 71q25 0 53 -5l47 94h43l-53 -105q84 -33 111 -111z
M200 158l201 402q-17 3 -35 3q-91 0 -161.5 -60t-86.5 -150q-11 -64 11 -116.5t71 -78.5z" />
    <glyph glyph-name="dollar.tf" 
d="M519 560q-35 86 -125 98l-51 -286q33 -13 53 -22.5t48.5 -28.5t43 -39t22.5 -51t1 -68q-16 -81 -79 -125t-156 -49l-16 -89h-47l16 90q-81 6 -133.5 43.5t-70.5 101.5l48 24q27 -109 165 -118l52 295q-39 16 -65.5 30.5t-54 39t-37.5 59t-1 77.5q15 78 79 122.5t145 46.5
l16 89h47l-16 -91q124 -17 164 -125zM185 537q-11 -56 20 -88.5t94 -59.5l48 271q-60 -4 -105.5 -37.5t-56.5 -85.5zM457 169q12 56 -21.5 89t-101.5 61l-49 -278q70 5 115.5 39t56.5 89z" />
    <glyph glyph-name="Euro.tf" 
d="M407 660q-76 0 -135.5 -58t-91.5 -165h254l-8 -44h-258q-1 -5 -9 -43l-6 -37h259l-8 -45h-255q-6 -109 32.5 -168.5t115.5 -59.5q55 0 102.5 32.5t78.5 91.5l43 -27q-38 -70 -98.5 -109t-133.5 -39q-97 0 -148 75.5t-46 203.5h-70l8 45h66q1 21 6 42q2 16 8 38h-66l8 44
h69q38 129 113 201.5t177 72.5q67 0 115 -38t64 -105l-46 -24q-13 55 -50 85.5t-90 30.5z" />
    <glyph glyph-name="florin.tf" 
d="M393 577q35 85 93 116.5t131 9.5l-9 -50q-55 21 -97 -1t-65 -76l-83 -201h153l-9 -49h-164l-166 -403q-35 -85 -93 -116.5t-130 -9.5l8 50q55 -21 97 0.5t65 76.5l166 402h-150l9 49h161z" />
    <glyph glyph-name="uni20BD.tf" 
d="M412 700q83 0 134.5 -63.5t35.5 -148.5q-14 -85 -84 -143t-158 -58h-181l-18 -104h261l-8 -44h-261l-24 -139h-53l24 139h-89l7 44h90l18 104h-90l9 50h90l64 363h233zM529 493q12 65 -25 111t-100 46h-181l-55 -313h181q64 0 116.5 45.5t63.5 110.5z" />
    <glyph glyph-name="sterling.tf" 
d="M397 660q-64 0 -108.5 -39t-56.5 -111l-30 -170h241l-9 -47h-240l-43 -242h377l-9 -51h-530l9 51h100l43 242h-80l8 47h80l30 170q17 97 76.5 149t146.5 52q64 0 110.5 -34.5t66.5 -95.5l-44 -24q-37 103 -138 103z" />
    <glyph glyph-name="yen.tf" 
d="M636 700l-297 -356h175l-8 -45h-186l-13 -77h186l-8 -44h-186l-31 -178h-54l32 178h-184l7 44h184l14 77h-184l8 45h173l-171 356h55l156 -324l270 324h62z" />
    <glyph glyph-name="brevecy" horiz-adv-x="293" 
d="M79 587l8 44h253l-7 -44h-254z" />
    </font>
</defs>
</svg>
