<?xml version="1.0" standalone="no"?>
<!DOCTYPE svg PUBLIC "-//W3C//DTD SVG 1.1//EN" "http://www.w3.org/Graphics/SVG/1.1/DTD/svg11.dtd" >
<svg xmlns="http://www.w3.org/2000/svg">
<metadata>
This is a custom SVG font generated by IcoMoon.</metadata>
<defs>
<font id="Broccolidry" horiz-adv-x="512" >
<font-face units-per-em="512" ascent="480" descent="-32" />
<missing-glyph horiz-adv-x="512" />
<glyph unicode="&#x21;" d="M 505.216,60.624l-191.984,384.00C 302.40,466.304, 280.256,480.00, 256.00,480.00s-46.40-13.696-57.232-35.376
			l-191.984-384.00c-9.92-19.84-8.864-43.408, 2.80-62.288C 21.248-20.512, 41.84-32.00, 64.016-32.00l 383.952,0.00 c 22.192,0.00, 42.784,11.488, 54.432,30.336
			C 514.064,17.216, 515.12,40.784, 505.216,60.624z M 287.968,48.00c0.00-8.848-7.152-16.00-16.00-16.00l-32.00,0.00 c-8.848,0.00-16.00,7.152-16.00,16.00l0.00,32.00 c0.00,8.848, 7.152,16.00, 16.00,16.00l 32.00,0.00 
			c 8.848,0.00, 16.00-7.152, 16.00-16.00L 287.968,48.00 z M 287.968,176.00c0.00-8.848-7.152-16.00-16.00-16.00l-32.00,0.00 c-8.848,0.00-16.00,7.152-16.00,16.00L 223.968,336.00 c0.00,8.832, 7.152,16.00, 16.00,16.00l 32.00,0.00 c 8.848,0.00, 16.00-7.168, 16.00-16.00
			L 287.968,176.00 z" />
<glyph unicode="&#x22;" d="M 512.00,144.00c0.00-61.856-50.144-112.00-112.00-112.00L 112.00,32.00 l0.00,0.40 c-62.528,4.128-112.00,56.032-112.00,119.60
	c0.00,39.568, 19.232,74.544, 48.768,96.40C 48.528,250.944, 48.00,253.408, 48.00,256.00c0.00,44.192, 35.824,80.00, 80.00,80.00c 15.376,0.00, 29.616-4.56, 41.808-12.08
	C 190.656,377.76, 242.816,416.00, 304.00,416.00c 79.536,0.00, 144.00-64.464, 144.00-144.00c0.00-8.816-0.912-17.376-2.432-25.744C 484.688,228.784, 512.00,189.616, 512.00,144.00z" />
<glyph unicode="&#x23;" d="M 464.00-32.00L 48.00-32.00 c-8.832,0.00-16.00,7.152-16.00,16.00L 32.00,240.00 c0.00,8.848, 7.168,16.00, 16.00,16.00l 48.00,0.00 l0.00,64.00 C 96.00,408.368, 167.632,480.00, 256.00,480.00
	s 160.00-71.632, 160.00-160.00l0.00-64.00 l 48.00,0.00 c 8.848,0.00, 16.00-7.152, 16.00-16.00l0.00-256.00 C 480.00-24.848, 472.848-32.00, 464.00-32.00z M 352.00,328.00C 352.00,376.608, 309.008,416.00, 256.00,416.00s-96.00-39.392-96.00-88.00L 160.00,256.00 l 192.00,0.00 L 352.00,328.00 z" />
<glyph unicode="&#x24;" d="M 416.00,464.00c0.00,8.832-7.152,16.00-16.00,16.00l-16.00,0.00 l-16.00,0.00 L 144.00,480.00 L 128.00,480.00 L 112.00,480.00 C 103.168,480.00, 96.00,472.832, 96.00,464.00L0.00,224.00l0.00-224.00 
	c0.00-17.664, 14.336-32.00, 32.00-32.00l 448.00,0.00 c 17.664,0.00, 32.00,14.336, 32.00,32.00L 512.00,224.00 L 416.00,464.00z M 368.00,224.00l-48.00-80.00c0.00-8.848-7.152-16.00-16.00-16.00l-96.00,0.00 c-8.848,0.00-16.00,7.152-16.00,16.00l-48.00,80.00L 64.00,224.00 L 146.288,416.00
	l 219.44,0.00 L 448.00,224.00L 368.00,224.00 z" />
<glyph unicode="&#x25;" d="M 256.00,32.496c-10.384,0.00-25.584,11.68-35.664,12.752c-28.752-24.112-58.704-53.136-99.424-68.224
	c-17.776-7.536-33.04-11.904-37.008-7.152c-5.328,6.192-13.376,14.784-14.80,17.088c 0.08,3.424, 4.224,0.72, 8.736,5.584
	c 24.576,10.336, 40.448,37.008, 51.12,69.616C 51.984,100.736,0.00,173.104,0.00,256.208C0.00,379.744, 114.624,479.904, 256.00,479.904s 256.00-100.144, 256.00-223.696
	S 397.376,32.496, 256.00,32.496z" />
<glyph unicode="&#x26;" d="M 448.00,240.00l-0.784,0.00 C 439.344,155.60, 371.072,64.00, 288.00,64.00l0.00-64.00 l 96.00,0.00 c 8.848,0.00, 16.00-7.152, 16.00-16.00
	s-7.152-16.00-16.00-16.00L 128.00-32.00 c-8.848,0.00-16.00,7.152-16.00,16.00s 7.152,16.00, 16.00,16.00l 96.00,0.00 l0.00,64.00 c-83.072,0.00-151.328,91.60-159.216,176.00L 64.00,240.00 l0.00,16.00 l0.00,0.00l0.00,0.00l0.00,16.00 l0.00,0.00L 64.00,336.00 c0.00,17.664, 14.336,32.00, 32.00,32.00
	s 32.00-14.336, 32.00-32.00l0.00-32.00 l0.00-32.00 l0.00-16.00 c0.00-70.688, 57.312-128.00, 128.00-128.00s 128.00,57.312, 128.00,128.00l0.00,16.00 l0.00,32.00 L 384.00,336.00 c0.00,17.664, 14.336,32.00, 32.00,32.00s 32.00-14.336, 32.00-32.00l0.00-32.00 l0.00,0.00L 448.00,240.00 z M 256.00,192.00
	c-44.192,0.00-64.00,35.808-64.00,80.00L 192.00,400.00 c0.00,44.176, 19.808,80.00, 64.00,80.00s 64.00-35.824, 64.00-80.00l0.00-128.00 C 320.00,227.808, 300.192,192.00, 256.00,192.00z M 280.00,256.00c 4.416,0.00, 8.00,3.584, 8.00,8.00
	c0.00,4.40-3.584,8.00-8.00,8.00S 272.00,268.40, 272.00,264.00C 272.00,259.584, 275.584,256.00, 280.00,256.00z M 232.00,352.00C 227.584,352.00, 224.00,348.40, 224.00,344.00
	C 224.00,339.584, 227.584,336.00, 232.00,336.00S 240.00,339.584, 240.00,344.00C 240.00,348.40, 236.416,352.00, 232.00,352.00z M 240.00,376.00C 240.00,380.416, 236.416,384.00, 232.00,384.00S 224.00,380.416, 224.00,376.00
	C 224.00,371.584, 227.584,368.00, 232.00,368.00S 240.00,371.584, 240.00,376.00z M 248.00,304.00c-4.416,0.00-8.00-3.60-8.00-8.00c0.00-4.416, 3.584-8.00, 8.00-8.00s 8.00,3.584, 8.00,8.00
	C 256.00,300.40, 252.416,304.00, 248.00,304.00z M 264.00,304.00c 4.416,0.00, 8.00,3.584, 8.00,8.00c0.00,4.40-3.584,8.00-8.00,8.00S 256.00,316.40, 256.00,312.00
	C 256.00,307.584, 259.584,304.00, 264.00,304.00z M 248.00,320.00c 4.416,0.00, 8.00,3.584, 8.00,8.00C 256.00,332.40, 252.416,336.00, 248.00,336.00S 240.00,332.40, 240.00,328.00
	C 240.00,323.584, 243.584,320.00, 248.00,320.00z M 232.00,320.00c-4.416,0.00-8.00-3.60-8.00-8.00c0.00-4.416, 3.584-8.00, 8.00-8.00s 8.00,3.584, 8.00,8.00
	C 240.00,316.40, 236.416,320.00, 232.00,320.00z M 248.00,352.00C 252.416,352.00, 256.00,355.584, 256.00,360.00C 256.00,364.416, 252.416,368.00, 248.00,368.00S 240.00,364.416, 240.00,360.00
	C 240.00,355.584, 243.584,352.00, 248.00,352.00z M 264.00,368.00C 268.416,368.00, 272.00,371.584, 272.00,376.00C 272.00,380.416, 268.416,384.00, 264.00,384.00S 256.00,380.416, 256.00,376.00C 256.00,371.584, 259.584,368.00, 264.00,368.00z
	 M 264.00,352.00C 259.584,352.00, 256.00,348.40, 256.00,344.00C 256.00,339.584, 259.584,336.00, 264.00,336.00S 272.00,339.584, 272.00,344.00C 272.00,348.40, 268.416,352.00, 264.00,352.00z M 280.00,352.00
	C 284.416,352.00, 288.00,355.584, 288.00,360.00C 288.00,364.416, 284.416,368.00, 280.00,368.00S 272.00,364.416, 272.00,360.00C 272.00,355.584, 275.584,352.00, 280.00,352.00z M 280.00,336.00C 275.584,336.00, 272.00,332.40, 272.00,328.00
	c0.00-4.416, 3.584-8.00, 8.00-8.00S 288.00,323.584, 288.00,328.00C 288.00,332.40, 284.416,336.00, 280.00,336.00z M 280.00,304.00c-4.416,0.00-8.00-3.60-8.00-8.00
	c0.00-4.416, 3.584-8.00, 8.00-8.00s 8.00,3.584, 8.00,8.00C 288.00,300.40, 284.416,304.00, 280.00,304.00z M 264.00,272.00c 4.416,0.00, 8.00,3.584, 8.00,8.00
	c0.00,4.40-3.584,8.00-8.00,8.00S 256.00,284.40, 256.00,280.00C 256.00,275.584, 259.584,272.00, 264.00,272.00z M 248.00,256.00c 4.416,0.00, 8.00,3.584, 8.00,8.00
	c0.00,4.40-3.584,8.00-8.00,8.00S 240.00,268.40, 240.00,264.00C 240.00,259.584, 243.584,256.00, 248.00,256.00z M 232.00,272.00c 4.416,0.00, 8.00,3.584, 8.00,8.00
	c0.00,4.40-3.584,8.00-8.00,8.00S 224.00,284.40, 224.00,280.00C 224.00,275.584, 227.584,272.00, 232.00,272.00z M 232.00,416.00C 227.584,416.00, 224.00,412.416, 224.00,408.00
	C 224.00,403.584, 227.584,400.00, 232.00,400.00S 240.00,403.584, 240.00,408.00C 240.00,412.416, 236.416,416.00, 232.00,416.00z M 248.00,400.00C 243.584,400.00, 240.00,396.416, 240.00,392.00C 240.00,387.584, 243.584,384.00, 248.00,384.00
	S 256.00,387.584, 256.00,392.00C 256.00,396.416, 252.416,400.00, 248.00,400.00z M 264.00,416.00C 259.584,416.00, 256.00,412.416, 256.00,408.00C 256.00,403.584, 259.584,400.00, 264.00,400.00S 272.00,403.584, 272.00,408.00
	C 272.00,412.416, 268.416,416.00, 264.00,416.00z M 280.00,400.00C 275.584,400.00, 272.00,396.416, 272.00,392.00C 272.00,387.584, 275.584,384.00, 280.00,384.00S 288.00,387.584, 288.00,392.00C 288.00,396.416, 284.416,400.00, 280.00,400.00z" />
<glyph unicode="&#x27;" d="M 464.00,416.00L 48.00,416.00 C 21.488,416.00,0.00,394.512,0.00,368.00l0.00-288.00 c0.00-26.496, 21.488-48.00, 48.00-48.00l 416.00,0.00 c 26.512,0.00, 48.00,21.504, 48.00,48.00L 512.00,368.00 C 512.00,394.512, 490.512,416.00, 464.00,416.00z M 43.856,64.16
	L 32.16,75.872l 131.984,131.968l 11.696-11.712L 43.856,64.16z M 468.144,64.16l-131.984,131.968l 11.696,11.712l 131.984-131.968L 468.144,64.16z M 272.00,170.80
	L 272.00,160.00 l-32.00,0.00 l0.00,10.80 L 32.048,363.60l 20.352,20.352L 256.00,195.184L 459.60,383.952l 20.352-20.352L 272.00,170.80z" />
<glyph unicode="&#x28;" d="M 464.00-32.00l-16.00,0.00 L 448.00,128.00 l 64.00,0.00 l0.00-112.00 C 512.00-10.496, 490.512-32.00, 464.00-32.00z M 448.00,320.00l 16.00,0.00 c 26.512,0.00, 48.00-21.504, 48.00-48.00l0.00-128.00 l-64.00,0.00 
	L 448.00,320.00 z M 96.00,128.00l 32.432,0.00 L 176.00,128.00 l 16.00,0.00 l 32.00,0.00 l0.00-16.00 l0.00-16.00 c0.00-8.848, 7.168-16.00, 16.00-16.00l 16.00,0.00 l0.00,0.00l 16.00,0.00 c 8.848,0.00, 16.00,7.152, 16.00,16.00l0.00,16.00 l0.00,16.00 l 96.00,0.00 l 32.00,0.00 l0.00-160.00 L 96.00-32.00 L 96.00,128.00 z M 288.00,144.00l0.00,32.00 l0.00,16.00 c0.00,8.848-7.152,16.00-16.00,16.00
	l-16.00,0.00 l0.00,0.00l-16.00,0.00 c-8.832,0.00-16.00-7.152-16.00-16.00l0.00-16.00 l0.00-32.00 l-32.00,0.00 l-16.00,0.00 L 128.00,144.00 L 96.00,144.00 L 96.00,320.00 l 32.00,0.00 L 128.00,360.00 C 128.00,426.272, 185.312,480.00, 256.00,480.00s 128.00-53.728, 128.00-120.00L 384.00,320.00 l 32.00,0.00 l0.00-176.00 l-32.00,0.00 L 288.00,144.00 z M 320.00,352.00
	c0.00,35.344-28.656,64.00-64.00,64.00s-64.00-28.656-64.00-64.00l0.00-32.00 l 128.00,0.00 L 320.00,352.00 z M0.00,16.00l0.00,112.00 l 64.00,0.00 l0.00-160.00 L 48.00-32.00 C 21.488-32.00,0.00-10.496,0.00,16.00z M0.00,272.00c0.00,26.496, 21.488,48.00, 48.00,48.00l 16.00,0.00 l0.00-176.00 L0.00,144.00 L0.00,272.00 z" />
<glyph unicode="&#x29;" d="M 510.624,393.60L 464.00,208.00c0.00-2.224-0.448-4.32-1.248-6.224
	c-1.632-3.84-4.688-6.912-8.512-8.528C 452.32,192.432, 450.208,192.00, 448.00,192.00L 144.00,192.00 l 12.80-64.00L 432.00,128.00 c 8.848,0.00, 16.00-7.152, 16.00-16.00s-7.152-16.00-16.00-16.00L 144.00,96.00 
	c-8.848,0.00-16.00,7.152-16.00,16.00L 67.20,416.00L 16.00,416.00 C 7.168,416.00,0.00,423.168,0.00,432.00s 7.168,16.00, 16.00,16.00l 64.00,0.00 c 8.848,0.00, 16.00-7.168, 16.00-16.00l 3.20-16.00L 496.00,416.00 c 8.848,0.00, 16.00-7.168, 16.00-16.00
	C 512.00,397.712, 511.488,395.568, 510.624,393.60z M 137.60,224.00L 192.00,224.00 L 192.00,384.00 L 105.60,384.00 L 137.60,224.00z M 288.00,384.00l-80.00,0.00 l0.00-160.00 l 80.00,0.00 L 288.00,384.00 z M 384.00,384.00l-80.00,0.00 l0.00-160.00 l 80.00,0.00 L 384.00,384.00 z M 400.00,384.00l0.00-160.00 l 36.048,0.00 l 40.528,160.00L 400.00,384.00 z
	 M 176.00,64.00c 26.512,0.00, 48.00-21.504, 48.00-48.00s-21.488-48.00-48.00-48.00s-48.00,21.504-48.00,48.00S 149.488,64.00, 176.00,64.00z M 176.00,0.00c 8.848,0.00, 16.00,7.152, 16.00,16.00s-7.152,16.00-16.00,16.00s-16.00-7.152-16.00-16.00
	S 167.152,0.00, 176.00,0.00z M 400.00,64.00c 26.512,0.00, 48.00-21.504, 48.00-48.00s-21.488-48.00-48.00-48.00s-48.00,21.504-48.00,48.00S 373.488,64.00, 400.00,64.00z M 400.00,0.00c 8.848,0.00, 16.00,7.152, 16.00,16.00s-7.152,16.00-16.00,16.00
	s-16.00-7.152-16.00-16.00S 391.152,0.00, 400.00,0.00z" />
<glyph unicode="&#x2a;" d="M 74.992,42.992c-99.984,99.968-99.984,262.064,0.00,362.032
	c 99.968,99.984, 262.064,99.984, 362.032,0.00c 99.984-99.968, 99.984-262.064,0.00-362.032C 337.04-56.992, 174.96-56.992, 74.992,42.992z M 391.76,359.76
	L 120.24,88.24c 74.992-74.992, 196.544-74.992, 271.536,0.00S 466.752,284.784, 391.76,359.76z" />
<glyph unicode="&#x2b;" d="M 256.00,480.00C 114.608,480.00,0.00,365.376,0.00,224.00c0.00-141.376, 114.608-256.00, 256.00-256.00s 256.00,114.624, 256.00,256.00
			C 512.00,365.376, 397.392,480.00, 256.00,480.00z M 256.00,32.00C 149.968,32.00, 64.00,117.968, 64.00,224.00S 149.968,416.00, 256.00,416.00s 192.00-85.968, 192.00-192.00S 362.032,32.00, 256.00,32.00zM 368.00,256.00l-80.00,0.00 L 288.00,368.00 c0.00,8.832-7.152,16.00-16.00,16.00l-32.00,0.00 c-8.848,0.00-16.00-7.168-16.00-16.00l0.00-160.00 c0.00-8.848, 7.152-16.00, 16.00-16.00
	l 128.00,0.00 c 8.848,0.00, 16.00,7.152, 16.00,16.00l0.00,32.00 C 384.00,248.848, 376.848,256.00, 368.00,256.00z" />
<glyph unicode="&#x2c;" d="M0.00-32.00l0.00,48.00 c0.00,71.744, 90.384,98.864, 209.584,109.792c-26.176,16.224-46.72,61.824-57.424,98.24
	C 152.112,224.032, 152.064,224.00, 152.00,224.00C 150.912,224.00, 128.00,252.656, 128.00,288.00c0.00,31.008-2.208,56.864, 16.112,62.72C 144.096,351.152, 144.00,351.568, 144.00,352.00
	c0.00,39.312, 20.336,73.76, 50.992,93.744C 202.912,465.504, 227.056,480.00, 256.00,480.00s 53.088-14.496, 61.008-34.256C 347.664,425.76, 368.00,391.312, 368.00,352.00
	c0.00-0.432-0.096-0.848-0.112-1.28C 386.208,344.864, 384.00,319.008, 384.00,288.00c0.00-35.344-25.408-64.00-24.00-64.00c-0.064,0.00-0.112,0.032-0.16,0.032
	c-10.704-36.40-31.248-82.016-57.424-98.24C 421.616,114.864, 512.00,88.752, 512.00,16.00l0.00-48.00 L0.00-32.00 z" />
<glyph unicode="&#x2d;" d="M 431.84,182.16c 34.496-25.712, 64.064-49.248, 64.064-49.248l-42.096-73.824l-76.08,33.584
	l-70.496-41.232C 302.464,7.968, 298.096-32.00, 298.096-32.00l-84.192,0.00 l-9.344,83.696l-69.472,41.328l-76.912-33.952l-42.08,73.824
	c0.00,0.00, 29.072,23.424, 63.488,49.056l0.00,84.144 l-63.488,48.96l 42.08,73.84l 75.072-33.408l 74.528,40.432L 213.904,480.00l 84.192,0.00 l 6.096-83.728l 73.504-41.248
	l 76.128,33.888l 42.096-73.84l-64.064-49.136L 431.856,182.16 z M 256.00,288.00c-35.344,0.00-64.00-28.656-64.00-64.00s 28.656-64.00, 64.00-64.00s 64.00,28.656, 64.00,64.00S 291.344,288.00, 256.00,288.00z" />
<glyph unicode="&#x2e;" d="M 416.00,32.00c-53.008,0.00-96.00,35.808-96.00,80.00s 42.992,80.00, 96.00,80.00c 11.28,0.00, 21.936-1.92, 32.00-4.912L 448.00,336.00 l-256.00-64.00l0.00-240.00 
	l-1.936,0.00 C 181.168-4.512, 142.432-32.00, 96.00-32.00c-53.008,0.00-96.00,35.808-96.00,80.00s 42.992,80.00, 96.00,80.00c 11.28,0.00, 21.936-1.92, 32.00-4.912L 128.00,400.00 l 64.00,16.00l 256.00,64.00l 64.00,0.00 l0.00-368.00 
	C 512.00,67.808, 469.008,32.00, 416.00,32.00z" />
<glyph unicode="&#x2f;" d="M 384.00,224.00L 192.00,224.00 l0.00-64.00 c0.00-35.344, 28.656-64.00, 64.00-64.00l 32.00,0.00 l 48.00,0.00 l 48.00,0.00 c 35.344,0.00, 64.00-28.656, 64.00-64.00s-28.656-64.00-64.00-64.00l-48.00,0.00 l-48.00,0.00 l-32.00,0.00 
	C 149.968-32.00, 64.00,53.968, 64.00,160.00L 64.00,352.00 L 64.00,384.00 L 64.00,416.00 c0.00,35.344, 28.656,64.00, 64.00,64.00s 64.00-28.656, 64.00-64.00l0.00-32.00 l0.00-32.00 l 192.00,0.00 c 35.344,0.00, 64.00-28.656, 64.00-64.00S 419.344,224.00, 384.00,224.00z" />
<glyph unicode="&#x30;" d="M 482.768,359.328l-5.024-5.024l-91.616,91.664l 5.008,5.008c0.00,0.00, 21.936,29.008, 53.136,29.008
	c 13.744,0.00, 29.312-5.648, 45.584-21.92C 543.52,404.40, 482.768,359.328, 482.768,359.328z M 447.664,324.208L 135.744,12.144l0.00-0.016 l-0.032-0.016L 135.68,12.112 L0.00-32.00
	l 44.096,135.744l0.00,0.00 l0.00,0.016l0.00,0.048l 0.032,0.00 L 356.064,415.888l 4.032-4.048 M 44.16,12.176l 67.792,19.504l-46.304,49.312L 44.16,12.176z" />
<glyph unicode="&#x31;" d="M 512.00,128.00c0.00-17.664-14.336-32.00-32.00-32.00l0.00-34.944 c 18.592-6.624, 32.00-24.192, 32.00-45.056
	c0.00-26.496-21.504-48.00-48.00-48.00c-20.88,0.00-38.448,13.408-45.056,32.00L 384.00,0.00 c0.00-17.664-14.336-32.00-32.00-32.00s-32.00,14.336-32.00,32.00l-32.00,0.00 c0.00-17.664-14.336-32.00-32.00-32.00s-32.00,14.336-32.00,32.00l-32.00,0.00 
	c0.00-17.664-14.336-32.00-32.00-32.00s-32.00,14.336-32.00,32.00L 93.056,0.00 C 86.448-18.592, 68.864-32.00, 48.00-32.00c-26.512,0.00-48.00,21.504-48.00,48.00c0.00,20.88, 13.392,38.432, 32.00,45.056L 32.00,96.00 
	c-17.664,0.00-32.00,14.336-32.00,32.00s 14.336,32.00, 32.00,32.00l0.00,32.00 c-17.664,0.00-32.00,14.336-32.00,32.00s 14.336,32.00, 32.00,32.00l0.00,32.00 c-17.664,0.00-32.00,14.336-32.00,32.00s 14.336,32.00, 32.00,32.00L 32.00,386.944 
	C 13.392,393.552,0.00,411.136,0.00,432.00c0.00,26.512, 21.488,48.00, 48.00,48.00c 20.864,0.00, 38.448-13.392, 45.056-32.00L 128.00,448.00 c0.00,17.664, 14.336,32.00, 32.00,32.00s 32.00-14.336, 32.00-32.00l 32.00,0.00 
	c0.00,17.664, 14.336,32.00, 32.00,32.00s 32.00-14.336, 32.00-32.00l 32.00,0.00 c0.00,17.664, 14.336,32.00, 32.00,32.00s 32.00-14.336, 32.00-32.00l 34.944,0.00 C 425.552,466.608, 443.12,480.00, 464.00,480.00c 26.496,0.00, 48.00-21.488, 48.00-48.00
	c0.00-20.864-13.408-38.448-32.00-45.056L 480.00,352.00 c 17.664,0.00, 32.00-14.336, 32.00-32.00s-14.336-32.00-32.00-32.00l0.00-32.00 c 17.664,0.00, 32.00-14.336, 32.00-32.00s-14.336-32.00-32.00-32.00l0.00-32.00 C 497.664,160.00, 512.00,145.664, 512.00,128.00z
	 M 416.00,368.00c0.00,8.832-7.152,16.00-16.00,16.00L 112.00,384.00 C 103.168,384.00, 96.00,376.832, 96.00,368.00l0.00-288.00 c0.00-8.848, 7.168-16.00, 16.00-16.00l 288.00,0.00 c 8.848,0.00, 16.00,7.152, 16.00,16.00L 416.00,368.00 z" />
<glyph unicode="&#x32;" d="M 480.00,224.00c0.00-123.712-100.288-224.00-224.00-224.00S 32.00,100.288, 32.00,224.00c0.00,54.528, 19.616,104.368, 52.00,143.20
	c 2.464,4.544, 5.888,8.496, 10.16,11.36c 0.72,0.752, 1.36,1.60, 2.096,2.336c 0.016-0.368, 0.176-0.72, 0.208-1.088C 101.088,382.40, 106.336,384.00, 112.00,384.00
	c 17.664,0.00, 32.00-14.336, 32.00-32.00c0.00-11.136-5.68-20.928-14.32-26.656C 130.24,324.928, 130.64,324.416, 131.216,324.00C 109.216,296.608, 96.00,261.872, 96.00,224.00
	c0.00-88.368, 71.632-160.00, 160.00-160.00s 160.00,71.632, 160.00,160.00c0.00,37.872-13.216,72.608-35.216,100.00c 0.576,0.416, 0.992,0.928, 1.536,1.344
	C 373.68,331.072, 368.00,340.864, 368.00,352.00c0.00,17.664, 14.336,32.00, 32.00,32.00c 5.664,0.00, 10.912-1.60, 15.536-4.192c 0.032,0.368, 0.192,0.72, 0.224,1.088
	c 0.72-0.736, 1.36-1.584, 2.096-2.336c 4.272-2.864, 7.68-6.816, 10.16-11.36C 460.368,328.368, 480.00,278.528, 480.00,224.00z M 272.00,192.00l-32.00,0.00 
	c-8.848,0.00-16.00,7.152-16.00,16.00L 224.00,432.00 c0.00,8.832, 7.152,16.00, 16.00,16.00l 32.00,0.00 c 8.848,0.00, 16.00-7.168, 16.00-16.00l0.00-224.00 C 288.00,199.152, 280.848,192.00, 272.00,192.00z" />
<glyph unicode="&#x33;" d="M 362.016,160.944l-0.16,0.096l-1.056-0.848l 1.504-0.224
	c0.00,0.00, 64.832-163.264, 51.248-186.928c-26.704-20.24-141.472,89.52-156.384,104.016l 0.096-0.56c0.00,0.00-128.944-128.768-158.80-105.744
	c-17.888,12.992, 47.152,192.48, 47.152,192.48l 0.304,0.048c-23.888,13.648-155.088,106.336-145.392,139.696C 0.816,323.056, 183.152,321.664, 188.96,320.88
	C 189.664,324.96, 220.912,480.00, 256.016,480.00c 35.28,0.00, 65.60-158.688, 65.968-160.896l 0.096,0.00 l 0.032-0.16l 0.40,0.848c0.00,0.00, 188.688,2.896, 188.976-16.816
	C 522.176,266.288, 362.016,160.944, 362.016,160.944z" />
<glyph unicode="&#x34;" d="M 224.00,160.00l-48.00,0.00 l0.00,0.976 C 170.72,160.432, 165.424,160.00, 160.00,160.00C 71.648,160.00,0.00,231.632,0.00,320.00
	C0.00,408.368, 71.648,480.00, 160.00,480.00s 160.00-71.632, 160.00-160.00l0.00-64.00 l 16.00,0.00 l0.00-16.00 l 16.00,0.00 l0.00-16.00 l 16.00,0.00 l0.00-16.00 l 16.00,0.00 l0.00-16.00 l 16.00,0.00 l0.00-16.00 l 16.00,0.00 l0.00-16.00 l 16.00,0.00 l0.00-16.00 l 16.00,0.00 l0.00-16.00 l 16.00,0.00 l0.00-16.00 l 16.00,0.00 l0.00-16.00 l 16.00,0.00 l0.00-16.00 l 16.00,0.00 l0.00-32.00 l0.00-64.00 c0.00-8.848-7.152-16.00-16.00-16.00l-64.00,0.00 
	c-8.848,0.00-16.00,7.152-16.00,16.00l0.00,64.00 l-16.00,0.00 l-16.00,0.00 l-48.00,0.00 c-8.832,0.00-16.00,7.152-16.00,16.00l0.00,64.00 l-64.00,0.00 l-16.00,0.00  M 128.00,416.00C 92.656,416.00, 64.00,387.344, 64.00,352.00s 28.656-64.00, 64.00-64.00s 64.00,28.656, 64.00,64.00S 163.344,416.00, 128.00,416.00z" />
<glyph unicode="&#x35;" d="M 288.00,256.00L 288.00,480.00 c 132.544,0.00, 224.00-91.456, 224.00-224.00L 288.00,256.00 z M 240.00-32.00C 107.456-32.00,0.00,75.456,0.00,208.00
	C0.00,352.544, 105.456,448.00, 256.00,448.00l0.00-224.00 l 224.00,0.00 C 480.00,91.456, 372.544-32.00, 240.00-32.00z" />
<glyph unicode="&#x36;" d="M 406.16,207.936c 0.752-77.456, 72.944-103.184, 73.776-103.568
	c-0.656-1.744-11.568-36.72-38.096-72.832c-22.944-31.184-46.688-62.24-84.16-62.864c-36.848-0.656-48.688,20.336-90.816,20.336
	c-42.112,0.00-55.264-19.712-90.112-20.992c-36.144-1.28-63.696,33.664-86.832,64.768c-47.264,63.584-83.36,179.664-34.848,258.00
	c 24.048,38.912, 67.072,63.552, 113.792,64.208c 35.52,0.592, 69.072-22.304, 90.752-22.304c 21.744,0.00, 62.496,27.504, 105.312,23.472
	c 17.936-0.688, 68.288-6.72, 100.592-50.704C 462.976,303.904, 405.44,272.80, 406.16,207.936z M 255.296,362.00c-4.176,29.424, 11.392,60.016, 29.184,79.232
	C 304.336,462.88, 337.84,478.976, 365.504,480.00c 3.536-29.984-9.44-60.08-28.624-81.744C 317.664,376.624, 286.16,359.776, 255.296,362.00z" />
<glyph unicode="&#x37;" d="M 432.00-32.00L 80.00-32.00 c-8.848,0.00-16.00,7.152-16.00,16.00L 64.00,320.00 l 16.00,0.00 l0.00,0.00l 128.00,0.00 c 8.848,0.00, 16.00,7.168, 16.00,16.00L 224.00,416.00 L 224.00,464.00 L 224.00,480.00 l 208.00,0.00 
	c 8.848,0.00, 16.00-7.168, 16.00-16.00l0.00-480.00 C 448.00-24.848, 440.848-32.00, 432.00-32.00z M 192.00,480.00l0.00-64.00 l0.00-64.00 L 64.00,352.00 L 192.00,480.00z" />
<glyph unicode="&#x38;" d="M 496.00,288.00L 320.00,288.00 L 320.00,464.00 c0.00,8.832-7.152,16.00-16.00,16.00l-96.00,0.00 c-8.848,0.00-16.00-7.168-16.00-16.00l0.00-176.00 L 16.00,288.00 
		c-8.848,0.00-16.00-7.168-16.00-16.00l0.00-96.00 c0.00-8.848, 7.152-16.00, 16.00-16.00l 176.00,0.00 l0.00-176.00 c0.00-8.848, 7.152-16.00, 16.00-16.00l 96.00,0.00 c 8.848,0.00, 16.00,7.152, 16.00,16.00L 320.00,160.00 l 176.00,0.00 c 8.848,0.00, 16.00,7.152, 16.00,16.00l0.00,96.00 
		C 512.00,280.832, 504.848,288.00, 496.00,288.00z" />
<glyph unicode="&#x39;" d="M 16.00,288.00l 480.00,0.00 c 8.848,0.00, 16.00-7.168, 16.00-16.00l0.00-96.00 c0.00-8.848-7.152-16.00-16.00-16.00L 16.00,160.00 c-8.832,0.00-16.00,7.152-16.00,16.00l0.00,96.00 
	C0.00,280.832, 7.168,288.00, 16.00,288.00z" />
<glyph unicode="&#x3a;" d="M 320.00,288.00l-96.00-160.00l-63.52,46.336L 160.00,176.00l-3.776,1.456l 2.944-2.16L 64.00,96.00l0.00-32.00 l 384.00,0.00 l0.00,32.00 l-48.00,144.00L 320.00,288.00z M 144.00,272.00c 26.496,0.00, 48.00,21.488, 48.00,48.00
		s-21.504,48.00-48.00,48.00s-48.00-21.488-48.00-48.00S 117.504,272.00, 144.00,272.00z M 496.00,448.00L 16.00,448.00 C 7.168,448.00,0.00,440.832,0.00,432.00l0.00-416.00 c0.00-8.848, 7.168-16.00, 16.00-16.00l 480.00,0.00 c 8.848,0.00, 16.00,7.152, 16.00,16.00L 512.00,432.00 
		C 512.00,440.832, 504.848,448.00, 496.00,448.00z M 480.00,48.00c0.00-8.848-7.152-16.00-16.00-16.00L 48.00,32.00 c-8.832,0.00-16.00,7.152-16.00,16.00L 32.00,400.00 c0.00,8.832, 7.168,16.00, 16.00,16.00l 416.00,0.00 c 8.848,0.00, 16.00-7.168, 16.00-16.00L 480.00,48.00 z" />
<glyph unicode="&#x3b;" d="M 496.00,288.00L 16.00,288.00 c-8.832,0.00-16.00-7.168-16.00-16.00l 16.00-256.00c0.00-8.848, 7.168-16.00, 16.00-16.00l 448.00,0.00 c 8.848,0.00, 16.00,7.152, 16.00,16.00l 16.00,256.00C 512.00,280.832, 504.848,288.00, 496.00,288.00z M 496.00,384.00L 320.00,384.00 
		l-32.00,48.00c0.00,8.832-7.152,16.00-16.00,16.00L 80.00,448.00 C 71.168,448.00, 64.00,440.832, 64.00,432.00l0.00-48.00 L 16.00,384.00 C 7.168,384.00,0.00,376.832,0.00,368.00l0.00-32.00 c0.00-8.832, 7.168-16.00, 16.00-16.00l 480.00,0.00 c 8.848,0.00, 16.00,7.168, 16.00,16.00L 512.00,368.00 
		C 512.00,376.832, 504.848,384.00, 496.00,384.00z" />
<glyph unicode="&#x3c;" d="M 496.00,384.00l-88.00,0.00 L 384.00,432.00c0.00,8.832-7.152,16.00-16.00,16.00L 144.00,448.00 C 135.152,448.00, 128.00,440.832, 128.00,432.00L 104.00,384.00L 16.00,384.00 
		C 7.168,384.00,0.00,376.832,0.00,368.00l0.00-352.00 c0.00-8.848, 7.168-16.00, 16.00-16.00l 480.00,0.00 c 8.848,0.00, 16.00,7.152, 16.00,16.00L 512.00,368.00 C 512.00,376.832, 504.848,384.00, 496.00,384.00z M 256.00,64.00c-70.688,0.00-128.00,57.312-128.00,128.00
		c0.00,70.688, 57.312,128.00, 128.00,128.00s 128.00-57.312, 128.00-128.00C 384.00,121.312, 326.688,64.00, 256.00,64.00z M 256.00,256.00c-35.344,0.00-64.00-28.656-64.00-64.00s 28.656-64.00, 64.00-64.00s 64.00,28.656, 64.00,64.00
		S 291.344,256.00, 256.00,256.00z" />
<glyph unicode="&#x3d;" d="M 507.44,16.752c 6.096-6.096, 6.096-15.984,0.00-22.096l-22.096-22.096
	c-6.112-6.096-16.00-6.096-22.096,0.00l-154.688,154.688c-1.68,1.68-2.80,3.664-3.552,5.776C 273.28,109.84, 234.32,96.00, 192.00,96.00
	C 85.968,96.00,0.00,181.968,0.00,288.00C0.00,394.032, 85.968,480.00, 192.00,480.00c 106.032,0.00, 192.00-85.968, 192.00-192.00c0.00-42.32-13.84-81.28-37.024-113.008
	c 2.112-0.752, 4.096-1.856, 5.776-3.552L 507.44,16.752z M 192.00,416.00c-70.688,0.00-128.00-57.312-128.00-128.00c0.00-70.688, 57.312-128.00, 128.00-128.00s 128.00,57.312, 128.00,128.00
	C 320.00,358.688, 262.688,416.00, 192.00,416.00z" />
<glyph unicode="&#x3e;" d="M 506.816,275.536c-3.376,16.432-8.40,32.64-14.944,48.112
	c-6.40,15.184-14.352,29.808-23.616,43.488c-9.152,13.552-19.664,26.288-31.232,37.856c-11.60,11.60-24.336,22.112-37.872,31.248
	c-13.68,9.264-28.336,17.20-43.504,23.616c-15.472,6.512-31.664,11.584-48.112,14.928C 290.688,478.24, 273.344,480.00, 256.00,480.00s-34.688-1.76-51.568-5.216
	c-16.432-3.344-32.624-8.40-48.096-14.928C 141.168,453.44, 126.528,445.504, 112.848,436.24C 99.296,427.104, 86.544,416.592, 74.976,404.992
	c-11.584-11.568-22.08-24.304-31.232-37.856C 34.48,353.472, 26.544,338.848, 20.128,323.664c-6.544-15.472-11.568-31.68-14.944-48.112
	C 1.744,258.704,0.00,241.344,0.00,224.032c0.00-17.392, 1.744-34.752, 5.184-51.60c 3.376-16.416, 8.384-32.624, 14.944-48.08
	c 6.416-15.168, 14.352-29.84, 23.616-43.52c 9.152-13.552, 19.664-26.272, 31.232-37.856c 11.584-11.568, 24.336-22.064, 37.872-31.216
	c 13.68-9.248, 28.336-17.20, 43.504-23.616c 15.472-6.56, 31.664-11.552, 48.096-14.944C 221.312-30.256, 238.656-32.00, 256.00-32.00s 34.688,1.744, 51.552,5.216
	c 16.448,3.392, 32.64,8.368, 48.112,14.944c 15.168,6.40, 29.808,14.352, 43.504,23.616c 13.552,9.152, 26.288,19.664, 37.872,31.216
	c 11.568,11.60, 22.08,24.32, 31.232,37.856c 9.248,13.664, 17.20,28.336, 23.616,43.52c 6.528,15.456, 11.568,31.664, 14.944,48.08
	C 510.256,189.28, 512.00,206.64, 512.00,224.032C 512.00,241.344, 510.256,258.704, 506.816,275.536z M 474.56,226.192c-3.152,0.688-77.152,16.592-152.288,7.152
	c-1.536,3.744-3.088,7.504-4.72,11.28c-4.528,10.72-9.44,21.312-14.528,31.728c 86.336,35.232, 121.408,85.92, 121.808,86.528
	C 455.52,325.632, 474.064,278.064, 474.56,226.192z M 400.40,388.064c-0.528-0.864-31.68-48.24-114.208-79.152c-37.376,68.672-78.432,123.20-81.728,127.536
	C 220.992,440.464, 238.256,442.624, 256.00,442.624C 311.36,442.624, 361.872,422.00, 400.40,388.064z M 203.648,436.272c-0.016-0.032-0.048-0.048-0.048-0.048
	s-0.256-0.064-0.656-0.144C 203.152,436.144, 203.408,436.192, 203.648,436.272z M 162.72,421.728c 2.912-3.904, 43.344-58.704, 81.184-125.968
	C 138.928,267.872, 47.824,268.96, 42.048,269.072C 56.256,336.784, 101.744,392.912, 162.72,421.728z M 37.376,224.032c0.00,2.32, 0.096,4.592, 0.192,6.896
	c 3.84-0.08, 111.872-2.528, 224.432,31.152c 6.288-12.256, 12.272-24.72, 17.744-37.168c-2.912-0.816-5.744-1.664-8.624-2.608
	c-117.984-38.128-177.824-144.288-177.824-144.288s 0.08-0.064, 0.096-0.096C 58.576,116.64, 37.376,167.84, 37.376,224.032z M 256.00,5.392
	c-52.912,0.00-101.44,18.816-139.264,50.096c 2.896-2.336, 4.896-3.824, 4.896-3.824s 41.904,91.408, 171.60,136.56c 0.464,0.192, 0.96,0.32, 1.44,0.464
	c 30.768-79.92, 43.472-146.896, 46.704-165.984C 315.12,11.568, 286.288,5.392, 256.00,5.392z M 378.176,42.672c-2.24,13.216-13.872,77.376-42.544,156.176
	c 70.576,11.28, 131.728-8.08, 136.256-9.568C 462.144,128.384, 427.264,75.824, 378.176,42.672z" />
<glyph unicode="&#x3f;" d="M 478.944-15.552L 267.12,472.944C 265.264,477.232, 261.024,480.00, 256.352,480.00
		s-8.912-2.768-10.752-7.04L 33.056-15.536c-1.584-3.664-1.216-7.84, 0.96-11.152C 36.192-29.984, 39.872-32.00, 43.824-32.00L 224.00-32.00 l0.00,106.688 l-63.984,21.328
		c-8.848,0.00-16.00,7.152-16.00,16.00s 7.152,16.00, 16.00,16.00L 224.00,106.688L 224.00,208.00 c0.00,8.848, 7.152,16.00, 16.00,16.00l 32.00,0.00 c 8.848,0.00, 16.00-7.152, 16.00-16.00l0.00-24.00 l 47.984,24.00c 8.848,0.00, 16.00-7.152, 16.00-16.00
		s-7.152-16.00-16.00-16.00L 288.00,152.016l0.00-56.00 l 79.984,48.00c 8.848,0.00, 16.00-7.152, 16.00-16.00s-7.152-16.00-16.00-16.00l-79.984-48.00L 288.00-32.00 l 180.176,0.00 c 3.968,0.00, 7.648,2.00, 9.808,5.312
		C 480.16-23.392, 480.496-19.184, 478.944-15.552z" />
<glyph unicode="&#x40;" d="M 421.344-32.00C 420.944,197.616, 220.592,385.264,0.00,385.696L0.00,480.00 c 270.656,0.00, 512.00-230.304, 512.00-512.00L 421.344-32.00 
	z M 343.60-31.968l-90.608,0.00 c 0.304,56.384-28.336,119.488-73.664,166.736C 134.256,182.40, 54.368,212.416, 0.224,212.128L 0.224,306.40 
	C 169.264,302.752, 340.16,143.088, 343.60-31.968z M 64.256,96.048c 35.312,0.00, 63.936-28.656, 63.936-64.00c0.00-35.328-28.624-63.984-63.936-63.984
	S 0.32-3.28, 0.32,32.048C 0.32,67.392, 28.944,96.048, 64.256,96.048z" />
<glyph unicode="&#x41;" d="M 437.008,42.992c-99.968-99.984-262.064-99.984-362.032,0.00
	c-99.984,99.968-99.984,262.064,0.00,362.032c 99.968,99.984, 262.064,99.984, 362.032,0.00C 536.992,305.04, 536.992,142.96, 437.008,42.992z M 120.24,88.24
	c 67.248-67.248, 171.888-73.984, 246.864-20.592L 99.648,335.104C 46.256,260.128, 52.992,155.504, 120.24,88.24z M 391.76,359.76
	C 324.512,427.008, 219.872,433.744, 144.912,380.352l 267.456-267.44C 465.744,187.872, 459.008,292.512, 391.76,359.76z" />
<glyph unicode="&#x42;" d="M 256.00,480.00C 114.608,480.00,0.00,365.376,0.00,224.00c0.00-141.376, 114.608-256.00, 256.00-256.00s 256.00,114.624, 256.00,256.00
		C 512.00,365.376, 397.392,480.00, 256.00,480.00z M 288.00,34.88L 288.00,96.00 c0.00,8.848-7.152,16.00-16.00,16.00l-32.00,0.00 c-8.848,0.00-16.00-7.152-16.00-16.00l0.00-61.12 C 143.664,48.384, 80.288,111.68, 66.768,192.00L 128.00,192.00 
		c 8.848,0.00, 16.00,7.152, 16.00,16.00l0.00,32.00 c0.00,8.848-7.152,16.00-16.00,16.00L 66.88,256.00 C 80.384,336.352, 143.68,399.712, 224.00,413.232L 224.00,352.00 c0.00-8.832, 7.152-16.00, 16.00-16.00l 32.00,0.00 c 8.848,0.00, 16.00,7.168, 16.00,16.00
		L 288.00,413.232 c 80.32-13.52, 143.616-76.88, 157.12-157.232L 384.00,256.00 c-8.848,0.00-16.00-7.152-16.00-16.00l0.00-32.00 c0.00-8.848, 7.152-16.00, 16.00-16.00l 61.232,0.00 
		C 431.712,111.68, 368.336,48.384, 288.00,34.88z" />
<glyph unicode="&#x43;" d="M 96.00,480.00l0.00-512.00 l 320.00,255.632L 96.00,480.00z" />
<glyph unicode="&#x44;" d="M 176.00,480.00L 80.00,480.00 C 71.152,480.00, 64.00,472.832, 64.00,464.00l0.00-480.00 c0.00-8.848, 7.152-16.00, 16.00-16.00l 96.00,0.00 c 8.848,0.00, 16.00,7.152, 16.00,16.00L 192.00,464.00 
				C 192.00,472.832, 184.848,480.00, 176.00,480.00z M 432.00,480.00l-96.00,0.00 c-8.848,0.00-16.00-7.168-16.00-16.00l0.00-480.00 c0.00-8.848, 7.152-16.00, 16.00-16.00l 96.00,0.00 c 8.848,0.00, 16.00,7.152, 16.00,16.00L 448.00,464.00 C 448.00,472.832, 440.848,480.00, 432.00,480.00
				z" />
<glyph unicode="&#x45;" d="M 496.00,240.00l-82.368,0.00 c-2.912,21.712-8.816,42.096-16.944,60.688L 448.00,352.00c 8.848,0.00, 16.00,7.168, 16.00,16.00L 464.00,448.00 
	c0.00,8.832-7.152,16.00-16.00,16.00s-16.00-7.168-16.00-16.00l0.00-80.00 l-52.896-35.264c-8.144,12.016-17.328,22.912-27.60,32.08C 346.688,429.488, 305.776,480.00, 256.00,480.00
	s-90.688-50.512-95.52-115.184C 150.224,355.664, 141.024,344.768, 132.896,332.736L 80.00,368.00L 80.00,448.00 c0.00,8.832-7.168,16.00-16.00,16.00S 48.00,456.832, 48.00,448.00l0.00-80.00 c0.00-8.832, 7.168-16.00, 16.00-16.00
	l 51.312-51.312C 107.184,282.096, 101.28,261.712, 98.368,240.00L 16.00,240.00 c-8.832,0.00-16.00-7.152-16.00-16.00s 7.168-16.00, 16.00-16.00l 82.288,0.00 c 1.776-13.344, 4.752-58.16, 8.592-70.40
	l-46.672-58.368C 53.248,77.472, 48.00,71.488, 48.00,64.00l0.00-80.00 c0.00-8.848, 7.168-16.00, 16.00-16.00s 16.00,7.152, 16.00,16.00l0.00,80.00 l 40.336,40.336C 147.344,51.28, 194.336,16.00, 248.00,16.00
	c 2.704,0.00, 5.328,0.48, 8.00,0.672C 258.672,16.48, 261.296,16.00, 264.00,16.00c 53.664,0.00, 100.656,35.28, 127.664,88.336L 432.00,64.00l0.00-80.00 c0.00-8.848, 7.152-16.00, 16.00-16.00
	s 16.00,7.152, 16.00,16.00l0.00,80.00 c0.00,7.488-5.248,13.472-12.192,15.216L 405.12,137.60c 3.84,12.256, 6.816,57.056, 8.592,70.40L 496.00,208.00 c 8.848,0.00, 16.00,7.152, 16.00,16.00
	S 504.848,240.00, 496.00,240.00z" />
<glyph unicode="&#x46;" d="M 496.00,416.00L 16.00,416.00 C 7.168,416.00,0.00,408.832,0.00,400.00l0.00-352.00 c0.00-8.848, 7.168-16.00, 16.00-16.00l 480.00,0.00 c 8.848,0.00, 16.00,7.152, 16.00,16.00L 512.00,400.00 
			C 512.00,408.832, 504.848,416.00, 496.00,416.00z M 480.00,80.00c0.00-8.848-7.152-16.00-16.00-16.00L 48.00,64.00 c-8.832,0.00-16.00,7.152-16.00,16.00L 32.00,368.00 c0.00,8.832, 7.168,16.00, 16.00,16.00l 416.00,0.00 c 8.848,0.00, 16.00-7.168, 16.00-16.00L 480.00,80.00 z
			 M 151.968,285.744L 90.288,347.44c-6.00,6.00-15.728,6.00-21.728,0.00s-6.00-15.728,0.00-21.728L 122.288,272.00l-53.728-53.728
			c-6.00-6.00-6.00-15.712,0.00-21.712s 15.728-6.00, 21.728,0.00l 61.68,61.68c 1.216,0.672, 2.448,1.28, 3.472,2.304
			C 158.592,263.696, 160.00,267.872, 159.824,272.00c 0.16,4.128-1.232,8.304-4.384,11.44C 154.416,284.464, 153.184,285.072, 151.968,285.744z M 304.00,224.00l-96.00,0.00 
			c-8.832,0.00-16.00-7.168-16.00-16.00c0.00-8.848, 7.168-16.00, 16.00-16.00l 96.00,0.00 c 8.848,0.00, 16.00,7.152, 16.00,16.00C 320.00,216.832, 312.848,224.00, 304.00,224.00z" />
<glyph unicode="&#x47;" d="M 464.00,480.00L 48.00,480.00 C 39.168,480.00, 32.00,472.832, 32.00,464.00l0.00-480.00 c0.00-8.848, 7.168-16.00, 16.00-16.00l 416.00,0.00 c 8.848,0.00, 16.00,7.152, 16.00,16.00L 480.00,464.00 
			C 480.00,472.832, 472.848,480.00, 464.00,480.00z M 80.00,32.00c-8.832,0.00-16.00,7.152-16.00,16.00s 7.168,16.00, 16.00,16.00s 16.00-7.152, 16.00-16.00S 88.832,32.00, 80.00,32.00z M 80.00,96.00c-8.832,0.00-16.00,7.152-16.00,16.00
			s 7.168,16.00, 16.00,16.00s 16.00-7.152, 16.00-16.00S 88.832,96.00, 80.00,96.00z M 80.00,160.00c-8.832,0.00-16.00,7.152-16.00,16.00s 7.168,16.00, 16.00,16.00s 16.00-7.152, 16.00-16.00S 88.832,160.00, 80.00,160.00z M 80.00,224.00
			c-8.832,0.00-16.00,7.168-16.00,16.00s 7.168,16.00, 16.00,16.00s 16.00-7.168, 16.00-16.00S 88.832,224.00, 80.00,224.00z M 80.00,288.00c-8.832,0.00-16.00,7.168-16.00,16.00s 7.168,16.00, 16.00,16.00s 16.00-7.168, 16.00-16.00S 88.832,288.00, 80.00,288.00
			z M 80.00,352.00C 71.168,352.00, 64.00,359.168, 64.00,368.00s 7.168,16.00, 16.00,16.00s 16.00-7.168, 16.00-16.00S 88.832,352.00, 80.00,352.00z M 80.00,416.00C 71.168,416.00, 64.00,423.168, 64.00,432.00s 7.168,16.00, 16.00,16.00s 16.00-7.168, 16.00-16.00S 88.832,416.00, 80.00,416.00z
			 M 384.00,16.00c0.00-8.848-7.152-16.00-16.00-16.00L 144.00,0.00 c-8.832,0.00-16.00,7.152-16.00,16.00L 128.00,176.00 c0.00,8.848, 7.168,16.00, 16.00,16.00l 224.00,0.00 c 8.848,0.00, 16.00-7.152, 16.00-16.00L 384.00,16.00 z M 384.00,240.00
			c0.00-8.832-7.152-16.00-16.00-16.00L 144.00,224.00 c-8.832,0.00-16.00,7.168-16.00,16.00L 128.00,432.00 c0.00,8.832, 7.168,16.00, 16.00,16.00l 224.00,0.00 c 8.848,0.00, 16.00-7.168, 16.00-16.00L 384.00,240.00 z M 432.00,32.00c-8.848,0.00-16.00,7.152-16.00,16.00
			s 7.152,16.00, 16.00,16.00s 16.00-7.152, 16.00-16.00S 440.848,32.00, 432.00,32.00z M 432.00,96.00c-8.848,0.00-16.00,7.152-16.00,16.00s 7.152,16.00, 16.00,16.00s 16.00-7.152, 16.00-16.00S 440.848,96.00, 432.00,96.00z M 432.00,160.00
			c-8.848,0.00-16.00,7.152-16.00,16.00s 7.152,16.00, 16.00,16.00s 16.00-7.152, 16.00-16.00S 440.848,160.00, 432.00,160.00z M 432.00,224.00c-8.848,0.00-16.00,7.168-16.00,16.00s 7.152,16.00, 16.00,16.00s 16.00-7.168, 16.00-16.00
			S 440.848,224.00, 432.00,224.00z M 432.00,288.00c-8.848,0.00-16.00,7.168-16.00,16.00s 7.152,16.00, 16.00,16.00s 16.00-7.168, 16.00-16.00S 440.848,288.00, 432.00,288.00z M 432.00,352.00c-8.848,0.00-16.00,7.168-16.00,16.00s 7.152,16.00, 16.00,16.00
			s 16.00-7.168, 16.00-16.00S 440.848,352.00, 432.00,352.00z M 432.00,416.00c-8.848,0.00-16.00,7.168-16.00,16.00s 7.152,16.00, 16.00,16.00s 16.00-7.168, 16.00-16.00S 440.848,416.00, 432.00,416.00z" />
<glyph unicode="&#x48;" d="M 448.00,480.00L 64.00,480.00 C 55.168,480.00, 48.00,472.832, 48.00,464.00l0.00-96.00 c0.00-8.832, 7.168-16.00, 16.00-16.00l 16.00,0.00 c 8.832,0.00, 16.00,7.168, 16.00,16.00l 32.00,48.00l 96.00,0.00 
	l0.00-384.00 l-80.00-32.00c-8.832,0.00-16.00-7.152-16.00-16.00s 7.168-16.00, 16.00-16.00l 224.00,0.00 c 8.848,0.00, 16.00,7.152, 16.00,16.00s-7.152,16.00-16.00,16.00l-80.00,32.00L 288.00,416.00 l 96.00,0.00 l 32.00-48.00c0.00-8.832, 7.152-16.00, 16.00-16.00l 16.00,0.00 
	c 8.848,0.00, 16.00,7.168, 16.00,16.00L 464.00,464.00 C 464.00,472.832, 456.848,480.00, 448.00,480.00z" />
<glyph unicode="&#x49;" d="M 461.296,175.696l-45.44,45.456L 415.856-16.00 c0.00-8.848-7.136-16.00-15.984-16.00l-47.952,0.00 l0.00,0.00l-15.984,0.00 
	c-8.848,0.00-15.984,7.152-15.984,16.00l0.00,31.984 l0.00,15.984 l0.00,47.984 l0.00,95.952 c0.00,8.848-7.152,16.00-16.00,16.00l-95.92,0.00 c-8.832,0.00-15.984-7.152-15.984-16.00l0.00-95.952 l0.00-63.968 l0.00-16.00 
	L 192.048-16.00 c0.00-8.848-7.168-16.00-15.984-16.00l-16.00,0.00 l0.00,0.00L 112.128-32.00 c-8.832,0.00-16.00,7.152-16.00,16.00L 96.128,221.152 l-45.44-45.456L0.00,226.416L 253.472,480.00L 256.00,477.472L 258.528,480.00
	l 125.36-125.424L 383.888,447.792 l 63.952,0.00 l0.00-157.20 L 512.00,226.416L 461.296,175.696z" />
<glyph unicode="&#x4a;" d="M 256.00-32.00C 114.624-32.00,0.00,82.624,0.00,224.00C0.00,365.376, 114.624,480.00, 256.00,480.00c 141.376,0.00, 256.00-114.624, 256.00-256.00
	C 512.00,82.624, 397.376-32.00, 256.00-32.00z M 463.488,245.456c 0.416,0.208, 0.64,0.56, 0.80,1.12c 0.336-1.776, 1.152-3.344, 2.464-4.496
	c 0.032-0.16-0.048-0.128, 0.032-0.352c 0.128,0.00, 0.224,0.096, 0.336,0.096C 468.464,240.736, 470.128,240.00, 472.00,240.00c 2.88,0.00, 5.28,1.60, 6.688,3.856
	c 0.096-0.112, 0.256-0.256, 0.336-0.384c-0.016,0.256-0.048,0.512-0.08,0.768C 479.568,245.376, 480.00,246.624, 480.00,248.00
	c0.00,4.416-3.60,8.00-8.00,8.00c-2.816,0.00-5.152-1.536-6.592-3.712c-0.064,0.048,0.00,0.24-0.176,0.176
	c 0.208,0.608-0.352,2.16-1.232,3.824L 464.00,248.00 C 464.00,247.088, 463.744,246.272, 463.488,245.456z M 95.872,247.856c0.00,2.416-5.504,6.528-6.928,6.528
	c0.00,0.432-2.24,5.36-3.088,5.36c0.00,1.664-5.84,9.136-6.768,5.872c-0.608-2.112, 4.464-4.96, 4.464-7.408
	c 0.944,0.00, 4.912-7.52, 5.696-8.832c 8.672-14.656-6.48-4.64-6.48,1.568c-1.936,0.96-4.992,8.336-4.992,10.352
	c-1.136,0.912-4.496,8.032-4.224,8.032c0.00,4.672-2.576,6.912-7.696,6.912c-0.24,0.464-4.544,6.512-4.624,6.512
	c0.00,1.92-3.456,7.872-5.376,8.816c0.00,3.984-2.048,8.896-1.136,13.024c0.00,4.336-0.224,9.248-1.696,13.696C 39.664,289.60, 32.00,257.728, 32.00,224.00
	c0.00-96.656, 61.344-178.784, 147.136-210.192c 0.096,7.936, 0.688,17.44, 2.496,17.44c0.00,1.184, 1.008,6.144, 1.92,6.144c0.00,3.04, 0.368,6.704,0.00,10.352
	c-1.136,2.288, 1.504,5.216, 2.304,8.816c 4.432,2.224, 1.296,24.528, 4.64,24.528c0.00,11.152, 2.496,17.648, 0.752,27.984
	c 0.848,0.00-5.04,6.256-4.992,6.144c-5.648,0.00-9.60,9.056-9.60,13.024c-0.544,1.744-1.936,4.352-1.936,6.512
	c 1.296,0.00-8.08,13.696-8.08,13.424c-4.96,2.752, 0.272,6.592, 0.768,11.104c-4.304,1.424, 0.048,13.04, 1.92,13.04
	c 0.192,1.472, 0.96,2.48, 2.32,3.056c 0.96-3.824, 5.424,1.904, 1.92,1.904c0.00,2.528-0.288,7.936,0.00,9.20
	c0.00,3.904-3.456,11.552-6.144,3.456c-2.88,1.424-10.144,1.168-10.768,5.744c 0.448,2.256-4.144,6.864-5.76,7.664
	c 1.504,3.936-7.792,9.20-11.152,9.20c0.00,0.848-1.776,0.464-2.304,1.536c-3.424,0.00-4.208,4.608-8.08,4.608
	c-4.464,0.00-8.96,3.056-13.072,3.056c-1.376,2.736-7.76,1.664-9.232,4.608c-3.344,0.00-4.656,6.336-4.752,8.672
	C 102.16,237.904, 99.872,247.856, 95.872,247.856z M 419.968,376.256C 419.936,376.16, 420.00,376.224, 419.84,375.904c 0.24,0.00, 0.528-0.272, 0.80-0.384
	C 420.40,375.76, 420.192,376.00, 419.968,376.256z M 424.784,370.96c 0.56-1.088, 0.976-2.096, 0.848-2.72c 0.56-0.016, 0.832,0.288, 1.28,0.40
	C 426.224,369.424, 425.472,370.16, 424.784,370.96z M 438.688,298.064c 0.256,6.912-5.76,5.76-7.664,9.60c-1.984,0.00-2.704,1.536-5.392,1.536
	c-1.744,0.592-3.12,0.176-4.128-1.248c-4.112-1.568-1.632,2.00-4.72,2.00c 0.144,3.952-1.424,5.04-5.776,4.608
	c-2.496-5.632-6.336-9.008-5.76-15.344c 1.84-0.416, 1.52-0.832, 1.152-2.672c 2.448-0.128, 17.296,0.768, 17.296,2.304
	c 0.512,0.00, 3.088-5.296, 3.088-0.768c 2.064,0.00, 3.152-4.848, 8.08-3.44C 434.864,293.648, 443.088,298.064, 438.688,298.064z M 439.472,216.416
	c 0.288,1.408-0.704,2.032-1.536,3.456c 2.192,0.00-6.928,16.912-6.928,19.552c-1.392,0.688-3.168,5.52-3.488,7.28
	c-1.872,1.248-3.808,5.344-4.608,7.664c-1.904,1.264-6.544,6.928-7.296,9.584c 2.752-0.304, 6.912-0.864, 6.912,2.688
	c-1.856,0.00-2.128,2.288-0.368,2.288c-0.576,2.352, 1.248,4.048, 1.648,5.888c 0.48,2.224, 1.424,5.648, 1.424,8.304
	c-2.64,0.00-3.28-0.448-5.376-1.152c0.00-1.552-4.688,0.384-5.376,0.384c-1.008,2.016-8.32-2.624-10.368,1.536
	c-3.312,2.992-2.416,5.296-3.488,9.52c-0.544,2.144-3.472,2.272-5.248,2.624c-5.008,0.976-1.392-5.968-1.664-7.552
	c 3.072,0.00-1.936-3.808-1.936-5.744c-5.184,1.12-3.456,6.896-6.512,8.432c-0.912,1.536-0.192,2.688-2.32,2.688
	c0.00,2.048, 1.088,5.76-1.152,6.512c0.00,0.992-4.352,1.392-4.992,2.688c-2.752,0.00-9.152,10.40-11.12,6.896
	c-1.232-2.24, 1.04-2.784, 1.504-4.608c 3.984,0.784, 3.60-6.56, 8.464-5.744c0.00-1.024, 0.128-2.064, 0.368-3.072
	c 3.60,0.848, 3.184-2.672, 4.992-2.672c-1.312-1.744-5.472,2.784-4.336-1.024c 0.656-2.208, 0.288-4.096-2.576-6.256
	c0.00,2.384-0.192,8.816-2.688,8.816c-1.696,3.392-6.736,2.576-8.864,5.744c-1.728,0.00-2.40,5.376-5.376,5.744
	c-0.56-0.784-2.656-1.536-3.472-1.536c-1.616-3.248-10.752-0.336-10.752-0.768c-0.144-0.032-5.12-12.192-5.408-13.792
	c-0.56-3.44-3.328-3.504-4.16-6.768c-0.416-1.632-10.448-0.864-10.448-2.064c-4.336,1.44-8.08,4.48-8.08,9.20
	c-0.352,0.00, 0.816,12.048, 1.552,13.808c 0.88-0.24, 1.056-0.544, 1.552-1.536c 2.656,0.992, 8.848-0.656, 8.848,2.304
	c 2.576-0.064, 3.344-1.088, 2.304-3.072c 2.40-0.448, 6.544-1.056, 6.544,2.304c-1.408,0.00-1.552,0.128-1.552,1.536
	c 4.608,4.784-3.456,9.104-3.456,11.488c-1.632,0.544-4.96,4.08-2.592,2.752c 2.00-1.104, 9.312-3.392, 6.432,1.472
	c 0.192,0.064, 0.32,0.192, 0.368,0.368c 0.816-0.576, 4.256-4.112, 4.256-0.768c 0.944,0.00, 4.592,2.304, 1.536,2.304
	c 0.288,1.728, 0.224,3.168, 0.368,4.224c 4.88-2.624, 2.16,1.792, 4.624,3.44c0.00-3.184, 2.624,1.536, 4.224,1.536
	c 1.904,2.832, 6.256,0.64, 7.312,3.84c-2.352,0.768-1.92,6.656-1.92,8.80c 2.832-0.464, 5.984,3.824, 6.416,0.88
	c 0.16-1.136, 0.304-4.272, 0.88-4.704c 4.208-2.208, 3.088,1.264, 3.088,3.44c-1.408,0.00-3.28,4.928-3.472,7.296
	c-1.152-0.16-3.008-0.64-3.472-1.52c-4.192,0.00-7.04,1.52-10.368,1.52c-0.256,0.512-4.256,4.992-3.84,4.992
	c-2.336,4.016, 2.336,2.848, 3.072,3.04c0.00,3.808, 15.856,3.136, 16.544,9.216c-5.216,0.00, 5.376,8.832, 5.376,8.80
	c 3.536,3.024, 5.408,5.632, 9.808,5.968c 1.856,0.128, 22.496,5.824, 22.496,3.248c 0.832-0.032, 3.584-0.064, 6.432-0.16
	C 368.256,425.12, 314.864,448.00, 256.00,448.00c-57.008,0.00-108.896-21.472-148.432-56.56c 0.352-0.80, 0.624-1.568, 0.608-2.112
	C 110.272,389.472, 113.28,390.816, 113.952,388.16C 112.912,388.176, 111.872,388.304, 110.88,388.56c 0.736-5.936-2.592-2.304-5.376-2.304
	c0.00,0.144-1.232,0.64-2.544,0.992c-0.848-0.80-1.744-1.552-2.592-2.352C 100.464,384.64, 100.32,384.624, 100.48,384.336
	c 0.896,0.00, 0.432-1.392, 2.992-2.24C 106.432,381.088, 109.68,380.528, 112.80,380.032c 2.528-0.40, 3.984,0.464, 6.144,0.464
	c0.00,0.32, 5.28,2.672, 1.552,2.672c 0.512,2.112-0.432,2.64-2.704,2.672c 0.192,2.24, 5.52,0.768, 7.696,0.768
	c 1.664,2.80, 0.048,2.464, 1.52,5.008c 1.76,3.12, 3.856,0.416, 5.008,3.408C 133.76,394.384, 135.312,393.44, 135.872,391.232
	C 137.264,390.08, 144.336,379.648, 144.336,387.024C 146.864,386.176, 148.128,381.44, 148.176,378.96c 4.592,0.672, 4.992,4.112, 4.992,7.68
	c 1.056,0.00-0.384,1.712-0.384,2.304C 154.496,389.568, 156.64,387.312, 156.64,389.696c 0.736,0.00, 0.768-0.736, 0.768-1.536
	c 2.384-0.464, 3.92,0.272, 5.376-0.24c 1.008-0.352, 0.496-5.584, 0.032-7.424c-0.576-2.336-5.04-2.368-5.04-3.456
	c-5.056-3.776, 5.968-5.744, 7.696-8.048c-1.04,0.00-4.992,0.512-4.992,0.752c-2.496,0.00-8.544-2.64-10.768-0.752
	c 3.104,0.00, 4.144,3.728, 4.624,7.28c-2.864,1.072-6.24-0.688-7.04-3.536C 145.952,368.032, 142.832,372.928, 141.264,369.76
	C 140.656,369.568, 135.104,366.992, 135.104,367.856c-6.24-0.88-4.608-6.176-4.608-11.888C 132.976,354.48, 138.016,350.24, 137.792,347.92
	C 143.392,346.928, 145.44,346.336, 150.48,345.616c 0.416-0.816, 2.08-1.584, 3.088-1.904c0.00-3.296, 2.992-2.704, 5.76-2.704
	c0.00,4.208, 4.896-3.504, 5.376-4.976c-0.672,0.00, 1.152-4.304, 1.536-5.76c-0.768,0.272-1.008,0.00-0.768-0.768
	c 2.432-0.896, 6.288-0.64, 6.928,1.92c-2.336,0.00-1.552,2.672-1.552,4.224c-2.40,1.60-2.032,4.688, 0.384,5.36
	c0.00-2.176, 7.92,1.36, 3.456,3.056c 1.088,2.448, 1.824,6.208, 0.048,8.336c-1.136,1.344-2.56,0.00-3.12,2.016
	c 3.024,0.752, 0.80,6.512, 0.768,9.20c 0.96,0.368, 3.456-0.608, 3.456,0.00c 2.96,0.00, 7.888-3.744, 9.616,0.784
	c 4.944-2.256, 1.008-4.40, 6.16-2.688c0.00-1.216, 5.808-6.896, 6.544-6.896c0.00-0.272-0.144-1.92, 1.136-1.92
	c0.00-1.232-0.768,0.704-0.768-1.52c 0.72-0.08, 4.624-0.784, 4.624,0.752c 2.48,0.00, 4.224,3.04, 4.224,5.36
	c 1.552,1.008, 4.272-8.432, 6.144-8.432c 1.376-2.144, 5.776-5.264, 5.776-7.28c 0.928-0.944, 1.904-0.688, 1.904-3.456
	c 1.168,0.00, 3.472,4.592, 3.472,0.384c 1.088,0.00, 4.256-2.336, 4.624-4.208c-2.768,0.00-0.144-2.688-1.568-2.688
	c0.00-2.656-5.936-0.544-7.28-0.384c-1.84-8.24-12.944-2.32-19.664-4.448c-3.536-1.12-10.368-8.912-10.736-12.80
	c 4.288-0.048, 6.176,3.712, 10.00,4.992c 3.12,0.00, 3.728,1.888, 6.544,2.672c0.00-0.784, 0.768-0.368, 0.768-1.152
	c-5.472,0.00-2.144-3.536-0.544-6.112c 0.992-1.60, 2.128-2.368, 3.392-2.864c-0.528-0.928-0.96-1.856-1.296-2.896
	c0.00-0.016-0.016,0.00-0.016-0.016c-1.04-0.352-3.072-1.104-3.472-1.92c-6.192-0.688-3.136-0.272-2.72,1.216
	c 0.224-0.528, 2.448-0.048, 2.352-0.064c-0.368,1.856-0.928,1.60-0.384,2.672c-3.36,0.00-4.992-1.536-7.696-1.536
	c-0.448-0.912-2.80-3.072-3.84-3.072c-0.784-2.368-2.56-6.672-4.624-8.048c0.00,0.624-5.472-3.44-4.992-3.44
	c-1.216-1.968-2.544-1.904-3.088-4.976c-0.368-0.192-1.92-5.328-1.92-6.128c-2.384-1.584-3.264-8.048-7.312-8.048
	c-2.48-4.928-6.928-4.272-6.928-10.736c 1.504-1.536, 2.08-8.336, 2.544-10.512c 0.576-2.704, 1.472-5.52-2.144-5.584
	c-0.256,0.40-2.784,4.224-2.32,4.224c0.00,1.584-1.936,6.656-3.072,8.24c-1.52,2.128-4.336-0.336-6.544,0.592
	c-0.944,1.888-7.328,2.304-9.60,2.304c 0.368-1.424, 1.408-1.872, 1.536-3.456c-1.888-0.768-2.976-1.632-4.928-1.36
	c-3.344,0.464-2.944,3.072-6.624,2.704c-5.888-0.592-10.00-5.472-10.00-11.312c-0.656,0.00-0.656-11.504,0.00-11.504
	c0.00-3.248, 2.688-5.60, 2.688-8.048c 2.608,0.00, 5.536-5.744, 8.08-5.744c 0.288-2.032-1.28-2.352, 3.072-2.32
	c0.00,0.224, 2.368,1.488, 2.688,3.072c-3.008,0.736-0.016,4.608, 1.92,5.36c0.00-2.736, 3.84,0.912, 3.84,1.152
	c 0.432,0.176, 4.24,1.536, 4.24,1.536c0.00,3.104, 2.896-0.304, 0.768-1.536c-2.08,0.00-1.92-3.456-3.072-3.456
	c-0.496-2.464-1.472-4.608-2.048-7.008c-0.736-2.96, 1.664-3.264, 0.896-6.032c 3.056-0.576, 6.144-0.016, 9.232,0.00
	c 0.016,0.544-0.096,1.072-0.384,1.536c 4.464,0.00, 0.384-8.432, 3.088-8.432c0.00-3.184, 1.536-5.664, 1.536-7.664
	c 2.08-1.376, 3.328-3.216, 2.688-5.744c 2.56-0.336, 8.064-0.992, 8.064,2.304c 3.888,0.00, 4.16-2.64, 3.872-5.36
	c 7.744,0.00, 2.896,7.664, 6.128,7.664c 0.304,1.264, 0.832,1.488, 1.584,0.656c 1.584-0.848, 2.784,1.584, 4.048,2.352
	c 0.40,0.272, 1.808,1.088, 2.064,1.088c 1.088-0.656, 1.184-0.464, 1.664-1.20c 2.112,0.016, 4.24,1.20, 6.048,2.448
	c 2.768-0.336, 1.872-6.288, 7.056-6.656c 2.08-0.144, 6.896-0.72, 8.688,0.512c 0.448,0.304, 2.096-1.04, 2.272-1.616
	c 1.728,0.00, 1.60-1.504, 2.336-1.472c 0.176-0.336, 0.432-0.464, 0.784-0.368c 0.224-0.656, 1.60-0.848, 2.32-2.672
	c0.00-1.664, 3.456-1.952, 3.456-3.056c 2.48-1.248-0.848-1.584, 2.96-2.736c 2.096-0.656, 4.032-1.712, 6.288-1.872
	c 0.72,2.736, 3.056-0.368, 4.24-0.368c 0.608-1.248, 0.928-0.304, 1.52-1.536c 3.568-2.976, 1.216-1.824, 2.688-4.992
	c 1.712-1.12, 2.256-5.024, 2.72-7.28c-1.376,0.00-0.40-5.264-0.40-5.76c-1.664,0.00, 4.256-3.152, 4.256,0.784
	c 2.432-0.40, 4.032-3.056, 5.76-3.056c-1.008-2.32, 2.688-4.064, 2.688-0.40c 3.648-0.368, 2.672-5.808, 2.32-7.664
	c 2.704,0.00, 3.488,1.504, 5.792,1.792C 266.064,158.848, 268.848,160.00, 272.00,160.00c 8.848,0.00, 16.00-7.152, 16.00-16.00c0.00-7.968-5.936-14.288-13.568-15.504
	c-1.024-1.168-1.952-2.176-2.016-2.176c0.00-0.768-0.176-8.416-0.40-8.416c0.00-1.536-1.168-9.968-2.304-9.968
	c0.00-4.336-2.832-5.12-3.84-9.20c-2.336-1.728-8.656-4.608-9.632-6.512c-1.808,0.00-3.152-1.536-4.992-1.536
	c-0.256-0.528-4.176-4.224-3.472-4.224c-0.288-2.72, 0.208-9.12-1.264-10.912c-0.992-1.184-2.416-1.056-1.792-2.912
	c-2.16,0.00, 0.128-1.536-3.28-1.536c-2.144,0.00-5.968-3.056-6.08-5.648c-0.144-3.168-0.992-5.456-3.712-7.392
	c0.00-1.088-4.992-1.408-4.992-4.224c 0.464,0.00,0.00-5.216,0.00-5.744c-1.488,0.048-5.136-1.44-5.76-2.672c-5.024,0.00-4.416-0.512-7.68-2.688
	c0.00-0.672-0.464-3.056-1.152-3.056c0.00-3.888-2.768-0.352-5.008-2.32c 0.88,0.00, 2.00-3.824, 1.536-3.824
	c0.00-3.376-2.096-3.664-4.224-6.144c-1.008-0.672-1.968-3.456-2.688-3.456c0.00-2.272-1.136-4.336-1.136-6.512
	c 0.48,0.00, 0.032-0.976, 0.368-1.888c 1.072,0.304, 1.104,1.52, 1.536,1.52c0.00,1.92, 3.056-1.136, 1.152-1.136
	c-1.584-2.40-3.296-2.448-4.24-5.76c-0.96,0.00-1.792-0.928-2.496-2.016C 215.712,3.008, 235.488,0.00, 256.00,0.00
	c 78.784,0.00, 147.936,40.768, 187.872,102.288c 0.24,5.664, 1.12,11.072, 1.744,12.944c 1.568-1.152, 2.736-3.312, 3.84,0.00
	c-2.768,0.544-2.096,1.504-1.152,3.824c 1.056-0.64, 3.184-1.424, 4.912-1.312c 0.528,0.992, 0.944,2.048, 1.472,3.04
	c-1.568,1.216, 0.592,4.368, 1.344,2.832c 0.40,0.768, 0.752,1.568, 1.12,2.336c-0.176,0.048-0.128-0.064-0.384,0.016
	c0.00,1.392, 0.256,1.216, 1.168,1.92c 0.016-0.144,0.00-0.144, 0.032-0.272C 471.936,156.848, 480.00,189.44, 480.00,224.00c0.00,1.136-0.16,2.224-0.176,3.36
	c-0.416-1.568-1.20-3.264-2.304-3.648c0.00-1.008-11.44-5.984-10.752-8.048c-2.016,0.00-9.088-2.016-10.384-4.592
	c-1.424,0.00-7.168-2.032-7.696-3.072C 441.552,207.984, 442.912,216.416, 439.472,216.416z M 472.00,304.00l-8.496,0.00 
	c-0.064,0.08-0.128,0.096-0.192,0.208c-0.432,0.00-2.24,4.064-1.536,4.992c 0.688,0.00, 1.008-0.064, 1.376-0.096
	c-0.72,1.76-1.504,3.488-2.288,5.232c-1.728-1.184-3.248-2.688-5.632-2.832c0.00-0.656-3.408-7.28,0.00-7.28
	c0.00-0.128, 0.064-0.224, 0.096-0.336C 451.248,303.504, 448.00,300.176, 448.00,296.00c0.00-4.416, 3.584-8.00, 8.00-8.00l 3.152,0.00 
	c 0.192-1.456, 0.976-2.72, 3.776-3.344c 0.88-3.696, 7.472-5.008, 8.464-1.136c-2.784,0.00-1.872,2.672-1.632,4.48L 472.00,288.00 
	c 4.40,0.00, 8.00,3.584, 8.00,8.00C 480.00,300.416, 476.40,304.00, 472.00,304.00z M 448.688,199.968c 0.56-0.032, 4.256,0.064, 4.256,0.72
	c 3.344,0.00, 7.872,0.464, 11.152,1.552c0.00-4.96-4.176-7.728-3.472-12.656c-2.768,0.00-1.552-2.848-1.552-3.824
	c-1.792-1.104-2.064-3.12-4.224-4.224c0.00-2.224-4.992-5.904-6.464-7.808c-1.664-2.128-6.672-5.824-7.328-8.528
	c 0.176,0.64-9.152-9.712-6.976-9.712c0.00-1.936-2.624-17.248, 0.768-17.248c0.00-1.344, 2.896-14.192, 1.136-14.192
	c0.00-4.128-2.688-6.656-2.688-9.952c-1.312-0.896-3.184-1.392-3.84-2.704c-2.352,0.00-3.488-4.992-4.608-4.992
	c0.00-5.328-1.552-9.28-1.552-15.328c 0.432,0.00-3.072-8.624-3.072-9.184c-2.832-1.904-10.00-8.736-10.00-12.288c0.00,0.00-4.992-7.008-5.76-8.048
	c-1.504,0.00-13.088-2.176-13.088-3.072c-2.464,0.00-8.832-1.936-10.368,0.384c0.00,2.432-1.328,5.52-1.536,8.832
	c-1.184,0.00-1.376,4.976-2.688,4.976c0.00,1.056-7.344,15.728-6.16,15.728c0.00,1.52-1.312,6.512-1.536,6.512c0.00,5.28-3.856,9.68-3.856,14.56
	c-1.136,0.00-3.488,10.72-2.304,10.72c0.00,5.632, 1.968,9.312, 2.784,15.568c 0.912,6.864-0.432,11.04-1.632,15.888
	c-0.656,0.00-2.864,3.664-3.088,4.592c-3.088,2.048-4.224,6.112-4.224,9.952c 2.016,2.304, 2.816,10.96, 2.32,13.808
	c-3.888,1.84-5.44,1.152-9.632,1.152c-2.48,4.976-19.136,1.904-23.856,1.904c0.00-2.72-11.60,0.528-12.688,2.688
	c-2.832,0.00-8.448,6.016-8.448,8.816c-3.104,2.064-8.064,12.336-8.064,15.712c-2.688,1.344-1.872,6.528-0.40,6.528
	c 0.368,1.44-0.944,5.984-1.568,8.144c-0.464,1.616, 1.568,3.36, 1.568,5.28c0.00,5.344, 0.128,7.808, 3.12,13.52
	c 0.944,1.792, 2.144,3.472, 3.024,5.712c 1.60,4.016, 2.08,0.192, 4.24,3.776c 2.064,1.024, 3.264,4.448, 5.392,6.128
	c 0.928,1.232, 0.96,1.744,0.00,2.688c 0.416,0.00, 2.688,5.904, 2.688,7.264c 3.008,4.176, 0.88,2.272, 3.84,1.92
	c 1.088,1.184, 2.896,4.224, 4.608,4.224c 0.752,1.488, 2.64,2.304, 4.24,2.304c0.00-2.304, 6.272,0.752, 6.928,0.752
	c 1.072,2.16, 7.984,4.608, 9.616,4.608c0.00,2.624, 13.632-0.736, 15.776-0.384c0.00,0.384,0.00,0.768,0.00,1.152c 2.912-0.688, 8.224-12.368, 7.68-14.96
	c 2.24,0.00, 4.32,0.368, 5.776,0.00c0.00-2.48, 4.672-3.088, 6.80-3.20c 2.96-0.144, 11.648,0.304, 11.648,4.352c 2.288,0.00, 4.32-1.60, 3.872-4.208
	c 2.592-0.288, 18.00-0.592, 16.912-3.824c 2.256,0.00, 2.832-3.856, 4.992-3.856c-0.432-2.656, 2.688-9.584, 4.992-9.584
	c0.00-2.304, 1.44-6.544, 3.472-8.032c 1.088-3.296, 4.688-10.24, 8.064-12.272c-1.44-2.72, 2.192-4.96, 3.088-7.664
	c-0.208,0.00, 0.784-4.016, 1.904-4.608c0.00-2.72, 5.728-13.808, 8.864-13.808C 447.744,200.88, 444.592,200.272, 448.688,199.968z M 365.632,285.808
	c 0.592,2.288, 1.936,0.512, 3.184,0.096c 2.96-0.96, 1.936,0.048, 4.128,1.04C 372.944,280.704, 369.36,285.44, 365.632,285.808z
	 M 357.536,297.312c 1.568,0.00, 2.00-7.04-2.304-5.744c0.00,1.744-1.104,4.976, 1.168,4.976C 357.056,293.824, 357.536,294.928, 357.536,297.312z
	 M 355.632,301.904c 1.776-0.768, 2.56-0.512, 2.304,0.768c 2.336-0.768-0.304-2.432-0.768-4.224
	C 355.968,299.632, 356.336,300.048, 355.632,301.904z M 314.464,336.032c-3.776,0.976, 3.888,2.096, 4.224,3.056c-1.28,0.00-2.16,1.328-1.664,2.448
	c 0.576,1.328, 1.52-1.584, 2.832-0.928c 1.552,0.16, 4.608,2.48, 3.04-2.00c-1.60-4.544-3.056-7.872-8.816-7.952
	C 312.016,332.736, 314.00,333.824, 314.464,336.032z M 328.704,351.744c 3.104,0.00, 0.384-2.304-0.304-2.304c 0.528-0.208-0.096-2.064-0.096-2.672
	c 2.88,0.032, 2.928,1.792, 4.992,2.304c-0.432-2.576-3.312-3.072-0.496-5.28c 1.488-1.168, 3.008-2.544, 2.416-4.32
	c 3.664,0.00, 4.208-3.52, 3.456-7.664c 2.032,0.00, 1.936-0.096, 1.936,1.936c 1.968-0.544, 1.824-2.32,0.00-2.32
	c-1.824-3.60-6.608-3.44-10.00-3.44c-0.032,2.784-0.56,2.96-3.136,2.176c-3.52-1.072-0.768,2.80-0.704,4.72
	c 0.384,0.00, 7.984-0.352, 3.456,1.152c-0.24,4.128-1.168,5.36-4.992,5.36c0.00,2.816-0.992,2.608-1.456,5.696
	C 323.12,351.648, 327.344,346.768, 328.704,351.744z M 327.536,326.832c0.00-0.944-1.92-1.696-2.304-0.368c 0.368-0.128, 0.512,0.00, 0.368,0.368
	C 326.256,326.832, 326.912,326.832, 327.536,326.832z M 296.00,368.00l-16.00,0.00 C 275.584,368.00, 272.00,371.584, 272.00,376.00C 272.00,380.416, 275.584,384.00, 280.00,384.00l 16.00,0.00 
	C 300.416,384.00, 304.00,380.416, 304.00,376.00C 304.00,371.584, 300.416,368.00, 296.00,368.00z M 202.784,226.40c 0.896,0.00, 1.936-0.352, 1.936-1.152
	C 203.552,225.248, 202.048,224.144, 202.784,226.40z M 188.192,225.616c-0.64-1.216-5.824-1.008-6.544,0.40c 1.92,0.00, 3.408-0.784, 5.376,0.00
	c0.00,1.056-0.88,1.904-1.536,3.056c 2.096,0.00, 4.448-1.60, 7.312-1.536c0.00,1.776-0.784-0.384,0.00,1.92c 1.20-0.304, 4.096-3.056, 4.224-4.208
	C 192.816,225.696, 192.624,225.616, 188.192,225.616z M 171.264,234.816c-1.968,0.00-5.76,1.712-6.928,3.456c 1.904-0.08, 3.792-0.864, 4.992,1.152
	c 4.88-0.496, 5.312-3.856, 9.232-3.856c 0.736-1.296, 4.928-4.272, 0.88-4.656C 176.384,230.624, 172.544,232.288, 171.264,234.816z
	 M 174.336,224.08c-1.424,0.00-3.776-0.624-2.688,2.32C 173.536,226.144, 174.432,225.36, 174.336,224.08z M 177.024,224.464
	c-0.768-0.128-1.536-0.256-2.304-0.384C 174.944,225.856, 176.624,227.84, 177.024,224.464z M 191.248,207.616
	c-0.304-1.072-0.256-1.136-1.52-1.136c 0.128,0.496, 0.24,0.992, 0.368,1.52C 190.496,207.872, 190.864,207.744, 191.248,207.616z
	 M 156.64,239.424c 0.368-0.128, 0.768-0.272, 1.152-0.384c 0.496-1.904, 1.536-0.96, 2.688-0.384C 160.48,236.432, 155.328,235.792, 156.64,239.424z" />
<glyph unicode="&#x4b;" d="M 255.008-32.00C 255.008-32.00, 96.00,192.992, 96.00,288.992C 96.00,478.00, 255.008,480.00, 255.008,480.00
	S 416.00,478.00, 416.00,290.00C 416.00,191.008, 255.008-32.00, 255.008-32.00z M 256.00,384.00c-35.344,0.00-64.00-28.656-64.00-64.00s 28.656-64.00, 64.00-64.00s 64.00,28.656, 64.00,64.00S 291.344,384.00, 256.00,384.00z" />
<glyph unicode="&#x4c;" d="M 256.00,480.00C 114.608,480.00,0.00,365.376,0.00,224.00c0.00-141.376, 114.608-256.00, 256.00-256.00s 256.00,114.624, 256.00,256.00
	C 512.00,365.376, 397.392,480.00, 256.00,480.00z M 256.00,384.00c 17.664,0.00, 32.00-14.336, 32.00-32.00s-14.336-32.00-32.00-32.00s-32.00,14.336-32.00,32.00S 238.336,384.00, 256.00,384.00z M 176.00,96.00l 48.00,32.00l 32.00,0.00 l0.00,128.00 l-32.00,0.00 l-16.00,32.00l 80.00,0.00 l0.00-32.00 l0.00-128.00 l 32.00,0.00 l 48.00-32.00
	L 176.00,96.00 z" />
<glyph unicode="&#x4d;" d="M 256.00,384.00C 114.608,384.00,0.00,224.00,0.00,224.00s 114.608-160.00, 256.00-160.00s 256.00,160.00, 256.00,160.00S 397.392,384.00, 256.00,384.00z M 256.00,128.00
			c-53.008,0.00-96.00,42.992-96.00,96.00s 42.992,96.00, 96.00,96.00s 96.00-42.992, 96.00-96.00S 309.008,128.00, 256.00,128.00z M 256.00,288.00c-35.344,0.00-64.00-28.656-64.00-64.00s 28.656-64.00, 64.00-64.00s 64.00,28.656, 64.00,64.00
			S 291.344,288.00, 256.00,288.00z" />
<glyph unicode="&#x4e;" d="M 368.00,448.00c-38.464,0.00-69.296-13.808-96.48-41.008c-0.016-0.016-0.032-0.032-0.048-0.048
	l-0.016,0.00L 256.00,387.472L 240.544,405.76c-0.016,0.016-0.032,0.032-0.048,0.048L 240.48,405.808 l0.00,0.00C 213.28,433.024, 182.464,448.00, 144.00,448.00S 69.376,433.024, 42.176,405.824
	C 14.992,378.624,0.00,342.464,0.00,304.00c0.00-38.432, 14.96-74.592, 42.128-101.776L 233.28,9.472C 239.28,3.408, 247.472,0.00, 256.00,0.00s 16.72,3.408, 22.72,9.472
	l 191.136,192.752C 497.024,229.408, 512.00,265.552, 512.00,304.00c0.00,38.464-14.992,74.624-42.176,101.824C 442.624,433.024, 406.464,448.00, 368.00,448.00L 368.00,448.00z" />
<glyph unicode="&#x4f;" d="M 464.00-32.00L 128.00-32.00 L 128.00,480.00 l 160.00,0.00 l0.00-288.00 l 48.00,64.00l 32.00,0.00 l 48.00-64.00L 416.00,480.00 l 48.00,0.00 c 8.848,0.00, 16.00-7.168, 16.00-16.00l0.00-480.00 C 480.00-24.848, 472.848-32.00, 464.00-32.00
	z M 32.00-16.00L 32.00,464.00 c0.00,8.832, 7.152,16.00, 16.00,16.00l 48.00,0.00 l0.00-512.00 L 48.00-32.00 C 39.152-32.00, 32.00-24.848, 32.00-16.00z" />
<glyph unicode="&#x50;" d="M 399.712,324.512c 5.968-5.968, 15.648-5.968, 21.60,0.00l 84.528,66.544
	c 14.064-44.224, 4.128-94.432-30.96-129.52c-33.472-33.488-80.736-44.032-123.424-32.768l-100.256-100.256c 11.264-42.704, 0.704-89.952-32.752-123.424
	c-35.088-35.088-85.312-45.024-129.536-30.96l 66.576,84.512c 5.968,5.984, 5.968,15.648,0.00,21.616l-43.20,43.184c-5.968,5.968-15.648,5.968-21.60,0.00
	l-84.528-66.544c-14.064,44.224-4.128,94.416, 30.944,129.504c 33.488,33.488, 80.736,44.048, 123.44,32.768l 100.272,100.272
	c-11.28,42.688-0.72,89.952, 32.736,123.424c 35.088,35.088, 85.312,45.024, 129.552,30.976l-66.576-84.544c-5.952-5.952-5.952-15.632,0.00-21.584
	L 399.712,324.512z" />
<glyph unicode="&#x51;" d="M 192.768,208.624c-2.848-4.112-6.32-14.416-10.432-16.944c-4.112-2.512-8.752-4.272-13.904-5.248
	c-5.168-0.992-10.512-1.424-16.032-1.264l0.00-24.432 l 39.472,0.00 L 191.872,64.00 l 31.856,0.00 l0.00,159.936 l-25.344,0.00 C 197.488,217.84, 195.616,212.736, 192.768,208.624z M 368.00,352.00l 32.00,0.00 
	c 8.848,0.00, 16.00,7.168, 16.00,16.00L 416.00,464.00 c0.00,8.832-7.152,16.00-16.00,16.00l-32.00,0.00 c-8.848,0.00-16.00-7.168-16.00-16.00l0.00-96.00 C 352.00,359.168, 359.152,352.00, 368.00,352.00z M 112.00,352.00l 32.00,0.00 c 8.832,0.00, 16.00,7.168, 16.00,16.00L 160.00,464.00 
	c0.00,8.832-7.168,16.00-16.00,16.00L 112.00,480.00 C 103.168,480.00, 96.00,472.832, 96.00,464.00l0.00-96.00 C 96.00,359.168, 103.168,352.00, 112.00,352.00z M 480.00,416.00l-32.00,0.00 l0.00-80.00 c0.00-8.832-7.152-16.00-16.00-16.00l-96.00,0.00 c-8.848,0.00-16.00,7.168-16.00,16.00L 320.00,416.00 l-128.00,0.00 l0.00-80.00 
	c0.00-8.832-7.168-16.00-16.00-16.00L 80.00,320.00 c-8.832,0.00-16.00,7.168-16.00,16.00L 64.00,416.00 L 32.00,416.00 C 14.336,416.00,0.00,401.664,0.00,384.00l0.00-384.00 c0.00-17.664, 14.336-32.00, 32.00-32.00l 448.00,0.00 c 17.664,0.00, 32.00,14.336, 32.00,32.00L 512.00,384.00 
	C 512.00,401.664, 497.664,416.00, 480.00,416.00z M 480.00,16.00c0.00-8.848-7.152-16.00-16.00-16.00L 48.00,0.00 c-8.832,0.00-16.00,7.152-16.00,16.00L 32.00,272.00 c0.00,8.832, 7.168,16.00, 16.00,16.00l 416.00,0.00 c 8.848,0.00, 16.00-7.168, 16.00-16.00L 480.00,16.00 z
	 M 255.76,192.288l 79.488,0.00 c-14.976-18.432-27.024-37.20-36.24-59.28c-9.20-22.096-10.208-45.088-11.984-68.992l 34.096,0.00 
	c 0.144,10.656-3.12,22.16-0.816,34.496c 2.336,12.336, 5.632,24.512, 9.872,36.56c 4.272,12.032, 9.568,23.376, 15.936,34.032
	c 6.336,10.672, 13.648,19.664, 21.872,26.976l0.00,27.872 l-112.24,0.00 L 255.744,192.288 z" />
<glyph unicode="&#x52;" d="M 64.00,352.00l 32.00,0.00 L 96.00,384.00 L 64.00,384.00 L 64.00,352.00 z M 448.00,448.00L 64.00,448.00 C 28.656,448.00,0.00,419.344,0.00,384.00l0.00-384.00 l 512.00,0.00 L 512.00,384.00 C 512.00,419.344, 483.344,448.00, 448.00,448.00z
	 M 480.00,32.00L 32.00,32.00 L 32.00,288.00 l 448.00,0.00 L 480.00,32.00 z M 480.00,320.00L 32.00,320.00 L 32.00,384.00 c0.00,17.664, 14.336,32.00, 32.00,32.00l 384.00,0.00 c 17.664,0.00, 32.00-14.336, 32.00-32.00L 480.00,320.00 z M 432.00,384.00L 208.00,384.00 c-8.832,0.00-16.00-7.168-16.00-16.00s 7.168-16.00, 16.00-16.00l 224.00,0.00 
	c 8.848,0.00, 16.00,7.168, 16.00,16.00S 440.848,384.00, 432.00,384.00z M 128.00,352.00l 32.00,0.00 L 160.00,384.00 L 128.00,384.00 L 128.00,352.00 z" />
<glyph unicode="&#x53;" d="M 480.00,96.00c0.00,0.00-132.00,0.00-160.00,0.00s 32.00-96.00, 32.00-96.00c0.00-17.664-14.336-32.00-32.00-32.00l-128.00,0.00 c-17.664,0.00-32.00,14.336-32.00,32.00
	c0.00,0.00, 60.992,96.00, 32.00,96.00S 32.00,96.00, 32.00,96.00c-17.664,0.00-32.00,14.336-32.00,32.00L0.00,448.00 c0.00,17.664, 14.336,32.00, 32.00,32.00l 448.00,0.00 c 17.664,0.00, 32.00-14.336, 32.00-32.00l0.00-320.00 C 512.00,110.336, 497.664,96.00, 480.00,96.00z
	 M 256.00,112.00c 17.664,0.00, 32.00,14.336, 32.00,32.00s-14.336,32.00-32.00,32.00s-32.00-14.336-32.00-32.00S 238.336,112.00, 256.00,112.00z M 480.00,416.00c0.00,17.664-14.336,32.00-32.00,32.00L 64.00,448.00 C 46.336,448.00, 32.00,433.664, 32.00,416.00l0.00-192.00 
	c0.00-17.664, 14.336-32.00, 32.00-32.00l 384.00,0.00 c 17.664,0.00, 32.00,14.336, 32.00,32.00L 480.00,416.00 z" />
<glyph unicode="&#x54;" d="M 352.00,480.00L 160.00,480.00 C 124.656,480.00, 96.00,451.344, 96.00,416.00l0.00-384.00 c0.00-35.344, 28.656-64.00, 64.00-64.00l 192.00,0.00 c 35.344,0.00, 64.00,28.656, 64.00,64.00L 416.00,416.00 
			C 416.00,451.344, 387.344,480.00, 352.00,480.00z M 264.00,432.00l 48.00,0.00 C 316.40,432.00, 320.00,428.416, 320.00,424.00C 320.00,419.584, 316.40,416.00, 312.00,416.00l-48.00,0.00 C 259.584,416.00, 256.00,419.584, 256.00,424.00
			C 256.00,428.416, 259.584,432.00, 264.00,432.00z M 208.00,448.00c 8.832,0.00, 16.00-7.168, 16.00-16.00s-7.168-16.00-16.00-16.00s-16.00,7.168-16.00,16.00S 199.168,448.00, 208.00,448.00z M 288.00,16.00c0.00-8.848-7.152-16.00-16.00-16.00l-32.00,0.00 
			c-8.832,0.00-16.00,7.152-16.00,16.00l0.00,32.00 c0.00,8.848, 7.168,16.00, 16.00,16.00l 32.00,0.00 c 8.848,0.00, 16.00-7.152, 16.00-16.00L 288.00,16.00 z M 384.00,112.00c0.00-8.848-7.152-16.00-16.00-16.00L 144.00,96.00 c-8.832,0.00-16.00,7.152-16.00,16.00L 128.00,368.00 
			c0.00,8.832, 7.168,16.00, 16.00,16.00l 224.00,0.00 c 8.848,0.00, 16.00-7.168, 16.00-16.00L 384.00,112.00 z" />
<glyph unicode="&#x55;" d="M 256.608,480.00C 256.608,480.00, 96.00,289.264, 96.00,127.632C 96.00-34.016, 255.392-32.00, 255.392-32.00
			S 416.00-30.00, 416.00,128.624S 256.608,480.00, 256.608,480.00z M 256.00,32.00c-53.008,0.00-96.00,42.992-96.00,96.00c0.00,33.936, 17.824,63.408, 44.432,80.416
			C 196.80,198.224, 192.00,183.936, 192.00,168.00c0.00-3.312, 0.304-6.512, 0.688-9.664C 192.544,156.192, 192.00,154.176, 192.00,152.00c0.00-4.112, 0.672-8.048, 1.216-12.00
			C 192.464,136.112, 192.00,132.112, 192.00,128.00c0.00-35.344, 28.656-64.00, 64.00-64.00c 4.112,0.00, 8.112,0.464, 12.00,1.20C 271.968,64.656, 275.888,64.00, 280.00,64.00
			c 2.176,0.00, 4.192,0.528, 6.32,0.704C 289.472,64.304, 292.688,64.00, 296.00,64.00c 15.936,0.00, 30.224,4.80, 40.416,12.416C 319.408,49.824, 289.936,32.00, 256.00,32.00z
			" />
<glyph unicode="&#x56;" d="M 248.00,224.00c-35.344,0.00-64.00,28.656-64.00,64.00l-96.00,0.00 l0.00-160.00 c0.00-88.352, 71.632-160.00, 160.00-160.00
		c 88.368,0.00, 160.00,71.648, 160.00,160.00L 408.00,288.00 l-96.00,0.00 C 312.00,252.656, 283.344,224.00, 248.00,224.00z M 184.00,352.00c0.00,35.344, 28.656,64.00, 64.00,64.00s 64.00-28.656, 64.00-64.00l0.00-32.00 l 96.00,0.00 
		c0.00,88.368-71.632,160.00-160.00,160.00c-88.368,0.00-160.00-71.632-160.00-160.00l 96.00,0.00 L 184.00,352.00 z M 232.00,368.00l0.00-96.00 c0.00-8.832, 7.168-16.00, 16.00-16.00s 16.00,7.168, 16.00,16.00L 264.00,368.00 c0.00,8.832-7.168,16.00-16.00,16.00
		S 232.00,376.832, 232.00,368.00z" />
<glyph unicode="&#x57;" d="M 376.00,192.00c0.00-70.688-57.312-128.00-128.00-128.00s-128.00,57.312-128.00,128.00c0.00,65.36, 62.672,105.52, 128.00,111.216L 248.00,224.00 l 160.00,112.00
		L 408.00,352.00 l-160.00,128.00l0.00-80.672 C 130.448,392.416, 24.00,310.352, 24.00,192.00c0.00-123.712, 100.288-224.00, 224.00-224.00s 224.00,100.288, 224.00,224.00L 376.00,192.00 z" />
<glyph unicode="&#x58;" d="M 256.208-32.00L 256.208,224.272 L 9.424,224.272 l0.00-0.208 L 0.16,224.064 L0.00,224.272L 512.00,480.00L 256.208-32.00z" />
<glyph unicode="&#x59;" d="M 464.208,479.056l0.00,0.80 l-155.936,0.00 c-2.752,0.352-5.552,0.256-8.144-0.832
	c-4.736-1.264-8.672-4.40-10.592-8.832L 4.464,185.136c-6.224-6.24-6.224-16.336,0.00-22.56l 189.952-189.952c 6.24-6.224, 16.336-6.224, 22.56,0.00
	l 284.24,284.256c 6.336,2.128, 10.992,7.936, 10.992,14.992l0.00,152.00 C 512.208,452.048, 491.312,475.136, 464.208,479.056z M 416.208,351.856
	c-17.664,0.00-32.00,14.336-32.00,32.00s 14.336,32.00, 32.00,32.00s 32.00-14.336, 32.00-32.00S 433.872,351.856, 416.208,351.856z" />
<glyph unicode="&#x5a;" d="M 34.016,460.992c 20.448,20.496, 82.256,23.92, 82.72,13.072
	c 0.464-10.832, 55.664-131.056, 56.144-141.904c 0.48-10.832-36.384-47.792-47.168-58.608c-10.688-10.704, 72.128-104.528, 73.696-106.304
	c 1.76-1.584, 95.36-84.592, 106.048-73.872c 10.784,10.816, 47.664,47.76, 58.448,47.28c 10.816-0.464, 130.768-55.792, 141.584-56.288
	c 10.816-0.464, 7.408-62.40-13.04-82.912c-17.488-17.52-108.032-81.136-265.472,32.464c-17.264,9.952-44.608,32.784-86.08,74.336
	c-0.016,0.016-0.048,0.048-0.08,0.064c-0.032,0.048-0.064,0.064-0.096,0.096s-0.064,0.064-0.096,0.096
	c-0.016,0.032-0.048,0.064-0.064,0.08c-41.44,41.568-64.224,68.992-74.16,86.288C-46.928,352.704, 16.544,443.472, 34.016,460.992z" />
<glyph unicode="&#x5b;" d="M 203.376,64.56c-105.248-83.84-133.632-63.568-85.136,60.912C-16.96,118.496-27.808,151.376, 85.712,224.00
	c-113.52,72.64-102.672,105.488, 32.528,98.544C 69.76,447.008, 98.144,467.312, 203.376,383.44c 35.072,128.736, 70.16,128.736, 105.248,0.00
	c 105.232,83.872, 133.632,63.568, 85.12-60.896c 135.216,6.944, 146.048-25.904, 32.528-98.544c 113.52-72.624, 102.688-105.504-32.528-98.528
	c 48.496-124.464, 20.112-144.752-85.12-60.912C 273.552-64.192, 238.448-64.192, 203.376,64.56z" />
<glyph unicode="&#x5c;" d="M 267.024,197.52L 352.00,0.00l-64.00-32.00l-74.336,202.848L 96.00,64.00L 96.00,480.00 l 320.00-256.00L 267.024,197.52z" />
<glyph unicode="&#x5d;" d="M 122.352,270.896c 1.84,8.704-9.808,16.24-22.336,16.544
		c-15.008,0.368-26.576,0.496-36.992,0.544C 54.464,288.016, 48.048,280.832, 48.00,272.00l0.00-240.00 c 0.048-8.832, 6.448-16.016, 15.072-15.984
		c 10.48,0.048, 22.288,0.176, 38.032,0.544c 13.152,0.32, 25.504,7.84, 23.392,16.544C 108.144,112.064, 108.016,191.936, 122.352,270.896z M 432.00,224.00l-144.00,0.00 l0.00,32.00 l 144.00,0.00 
		c 17.664,0.00, 32.00,14.336, 32.00,32.00s-14.336,32.00-32.00,32.00l-140.00,0.00 l 2.00,24.032L 304.00,424.00C 304.00,454.928, 278.944,480.00, 248.00,480.00C 217.072,480.00, 192.00,486.928, 192.00,456.00L 183.376,400.00l-0.528,0.00 
		l-6.832-47.856L 160.00,248.00c0.00-1.648, 0.24-2.944, 0.56-4.128L 160.00,240.00l-14.624-9.616C 145.376,230.384, 144.00,226.288, 144.00,224.00l0.00-176.00 c0.00-8.848, 7.168-16.00, 16.00-16.00
		l 1.616,0.00 c 7.408-36.512, 39.68-64.00, 78.384-64.00l 128.00,0.00 c 38.704,0.00, 70.976,27.488, 78.384,64.00L 320.00,32.00 c-17.664,0.00-32.00,14.336-32.00,32.00l 128.00,0.00 c 17.664,0.00, 32.00,14.336, 32.00,32.00s-14.336,32.00-32.00,32.00l-128.00,0.00 
		l0.00,32.00 l 144.00,0.00 c 17.664,0.00, 32.00,14.336, 32.00,32.00S 449.664,224.00, 432.00,224.00z" />
<glyph unicode="&#x5e;" d="M 448.928,432.032c-10.48-0.048-22.288-0.176-38.016-0.544
		c-13.168-0.32-25.52-7.84-23.408-16.528c 16.352-78.88, 16.48-158.672, 2.144-237.552c-1.824-8.688, 9.792-16.224, 22.336-16.528
		c 15.008-0.368, 26.576-0.496, 36.992-0.544c 8.56-0.032, 14.992,7.136, 15.024,15.968L 464.00,416.064 C 463.936,424.896, 457.568,432.064, 448.928,432.032z
		 M 352.00,416.064l-1.616,0.00 C 342.976,452.544, 310.704,480.00, 272.00,480.00L 144.00,480.00 C 105.296,480.00, 73.024,452.544, 65.616,416.064L 192.00,416.064 c 17.664,0.00, 32.00-14.32, 32.00-31.968L 96.00,384.096 
		c-17.664,0.00-32.00-14.32-32.00-31.968S 78.336,320.16, 96.00,320.16l 128.00,0.00 l0.00-31.968 L 80.00,288.192 c-17.664,0.00-32.00-14.32-32.00-31.968s 14.336-31.968, 32.00-31.968l 144.00,0.00 l0.00-31.968 L 80.00,192.288 
		c-17.664,0.00-32.00-14.32-32.00-31.968s 14.336-31.968, 32.00-31.968l 140.00,0.00 l-2.00-23.984L 208.00,24.432c0.00-30.896, 25.072-55.936, 56.00-55.936
		c 30.944,0.00, 56.00-6.928, 56.00,23.984l 8.608,55.936l 0.528,0.00 l 6.848,47.808L 352.00,200.272c0.00,1.664-0.24,2.944-0.56,4.128L 352.00,208.272l 14.624,9.60
		c0.00,0.00, 1.376,4.112, 1.376,6.384L 368.00,400.08 C 368.00,408.912, 360.848,416.064, 352.00,416.064z" />
<glyph unicode="&#x5f;" d="M 480.00,64.00c-17.664,0.00-32.00,14.336-32.00,32.00l0.00,32.00 l0.00,96.00 c0.00,106.032-85.968,192.00-192.00,192.00C 149.968,416.00, 64.00,330.032, 64.00,224.00l0.00-96.00 
	l0.00-32.00 c0.00-17.664-14.336-32.00-32.00-32.00s-32.00,14.336-32.00,32.00l0.00,32.00 l0.00,96.00 C0.00,365.392, 114.624,480.00, 256.00,480.00c 141.376,0.00, 256.00-114.608, 256.00-256.00l0.00-96.00 l0.00-32.00 C 512.00,78.336, 497.664,64.00, 480.00,64.00z M 112.00,192.00l 32.00,0.00 
	c 8.832,0.00, 16.00-7.152, 16.00-16.00l0.00-160.00 c0.00-8.848-7.168-16.00-16.00-16.00L 112.00,0.00 c-8.832,0.00-16.00,7.152-16.00,16.00L 96.00,176.00 C 96.00,184.848, 103.168,192.00, 112.00,192.00z M 368.00,192.00l 32.00,0.00 c 8.848,0.00, 16.00-7.152, 16.00-16.00l0.00-160.00 
	c0.00-8.848-7.152-16.00-16.00-16.00l-32.00,0.00 c-8.848,0.00-16.00,7.152-16.00,16.00L 352.00,176.00 C 352.00,184.848, 359.152,192.00, 368.00,192.00z" />
<glyph unicode="&#x60;" d="M 287.744,385.264l0.00-129.008 l 128.00,0.00 l0.00,64.00 L 512.00,224.00l-96.256-96.24l0.00,65.488 l-128.00,0.00 l0.00-129.008 l 64.496,0.00 L 256.00-32.00
	l-96.256,96.24l 64.00,0.00 l0.00,129.008 l-128.00,0.00 l0.00-64.992 L0.00,224.00l 95.744,95.744l0.00-63.488 l 128.00,0.00 L 223.744,385.264 l-62.496,0.00 L 256.00,480.00l 94.752-94.736L 287.744,385.264 z" />
<glyph unicode="&#x61;" d="M 507.296,365.872l-45.424,45.424c-6.288,6.288-16.416,6.288-22.704,0.00L 206.928,166.112
	l-133.12,133.184c-6.352,6.352-16.656,6.352-23.008,0.00l-46.016-46.048c-6.352-6.336-6.352-16.64,0.00-23.008l 189.328-193.728
	c 3.664-3.68, 8.64-4.944, 13.424-4.32c 4.944-0.736, 10.096,0.512, 13.888,4.32L 507.296,343.152C 513.568,349.424, 513.568,359.60, 507.296,365.872z" />
<glyph unicode="&#x62;" d="M 491.536,371.616l-147.152-148.048l 147.152-147.168c 6.16-6.144, 6.16-16.112,0.00-22.272
	l-66.816-66.80c-6.128-6.16-16.096-6.16-22.256,0.00l-146.912,146.912l-146.032-146.912c-6.144-6.16-16.112-6.16-22.272,0.00l-66.80,66.80
	c-6.144,6.16-6.144,16.128,0.00,22.272l 146.032,146.912L 20.464,369.328c-6.144,6.144-6.144,16.112,0.00,22.272l 66.80,66.80
	c 6.144,6.16, 16.112,6.16, 22.272,0.00l 145.76-145.76l 147.184,148.048c 6.16,6.16, 16.128,6.16, 22.256,0.00l 66.816-66.80
	C 497.68,387.728, 497.68,377.76, 491.536,371.616z" />
<glyph unicode="&#x63;" d="M 476.32,184.528C 478.592,197.36, 480.00,210.496, 480.00,224.00c0.00,123.712-100.288,224.00-224.00,224.00c-13.504,0.00-26.64-1.408-39.472-3.68
	C 193.536,466.368, 162.368,480.00, 128.00,480.00C 57.312,480.00,0.00,422.688,0.00,352.00c0.00-34.368, 13.632-65.536, 35.68-88.528C 33.408,250.64, 32.00,237.504, 32.00,224.00c0.00-123.712, 100.288-224.00, 224.00-224.00
	c 13.504,0.00, 26.64,1.392, 39.472,3.68C 318.464-18.368, 349.632-32.00, 384.00-32.00c 70.688,0.00, 128.00,57.312, 128.00,128.00C 512.00,130.368, 498.368,161.536, 476.32,184.528z
	 M 354.64,134.336c-8.864-12.064-21.92-21.632-38.864-28.384c-16.784-6.704-36.88-10.112-59.728-10.112c-27.472,0.00-50.496,4.656-68.464,13.808
	c-12.848,6.688-23.44,15.696-31.488,26.928c-8.128,11.264-12.24,22.448-12.24,33.264c0.00,6.736, 2.672,12.56, 7.968,17.36
	c 5.232,4.768, 11.952,7.136, 19.952,7.136c 6.576,0.00, 12.256-1.872, 16.848-5.632c 4.40-3.632, 8.176-8.944, 11.216-15.776
	c 3.392-7.488, 7.072-13.776, 10.976-18.72c 3.76-4.816, 9.152-8.832, 16.048-11.968c 6.928-3.152, 16.288-4.768, 27.776-4.768
	c 15.792,0.00, 28.768,3.248, 38.512,9.664c 9.52,6.256, 14.144,13.776, 14.144,22.992c0.00,7.264-2.416,12.992-7.376,17.456
	c-5.216,4.688-12.08,8.336-20.384,10.848c-8.704,2.592-20.512,5.456-35.104,8.368c-19.84,4.096-36.688,8.944-50.112,14.416
	c-13.712,5.632-24.768,13.424-32.848,23.136c-8.208,9.92-12.368,22.304-12.368,36.912c0.00,13.904, 4.368,26.448, 12.992,37.248
	c 8.544,10.752, 21.04,19.104, 37.12,24.816c 15.856,5.664, 34.736,8.512, 56.096,8.512c 17.056,0.00, 32.096-1.904, 44.624-5.664
	c 12.608-3.76, 23.216-8.88, 31.60-15.152c 8.384-6.336, 14.656-13.072, 18.576-20.128c 3.952-7.072, 5.984-14.16, 5.984-20.992
	c0.00-6.592-2.64-12.56-7.84-17.776c-5.248-5.232-11.84-7.888-19.648-7.888c-7.072,0.00-12.624,1.664-16.464,4.928
	c-3.584,3.056-7.296,7.808-11.408,14.64c-4.784,8.72-10.544,15.60-17.168,20.448c-6.40,4.72-17.152,7.072-31.92,7.072
	c-13.696,0.00-24.864-2.64-33.12-7.872c-7.984-5.024-11.856-10.80-11.856-17.648c0.00-4.208, 1.248-7.696, 3.824-10.704
	c 2.704-3.232, 6.544-6.00, 11.392-8.352c 5.008-2.416, 10.208-4.352, 15.392-5.728c 5.312-1.424, 14.224-3.52, 26.448-6.24
	c 15.472-3.216, 29.696-6.80, 42.272-10.672c 12.752-3.936, 23.712-8.752, 32.72-14.384c 9.152-5.728, 16.40-13.088, 21.568-21.904
	c 5.152-8.848, 7.76-19.744, 7.76-32.416C 368.016,160.288, 363.536,146.40, 354.64,134.336z" />
<glyph unicode="&#x64;" d="M 464.00,319.92L 48.00,319.92 c-8.848,0.00-16.00-7.152-16.00-16.00l0.00-144.00 c0.00-8.848, 7.152-16.00, 16.00-16.00l 16.00,0.00 l0.00-160.00 
	c0.00-8.848, 7.152-16.00, 16.00-16.00l 352.00,0.00 c 8.848,0.00, 16.00,7.152, 16.00,16.00l0.00,160.00 l 16.00,0.00 c 8.848,0.00, 16.00,7.152, 16.00,16.00l0.00,144.00 C 480.00,312.768, 472.848,319.92, 464.00,319.92z M 224.00,15.92
	c0.00-8.848-7.152-16.00-16.00-16.00L 112.00-0.08 c-8.848,0.00-16.00,7.152-16.00,16.00l0.00,128.00 c0.00,8.848, 7.152,16.00, 16.00,16.00l 96.00,0.00 c 8.848,0.00, 16.00-7.152, 16.00-16.00L 224.00,15.92 z M 224.00,207.92c0.00-8.848-7.152-16.00-16.00-16.00
	L 80.00,191.92 c-8.848,0.00-16.00,7.152-16.00,16.00l0.00,64.00 c0.00,8.848, 7.152,16.00, 16.00,16.00l 128.00,0.00 c 8.848,0.00, 16.00-7.152, 16.00-16.00L 224.00,207.92 z M 416.00,15.92c0.00-8.848-7.152-16.00-16.00-16.00l-96.00,0.00 
	c-8.848,0.00-16.00,7.152-16.00,16.00l0.00,128.00 c0.00,8.848, 7.152,16.00, 16.00,16.00l 96.00,0.00 c 8.848,0.00, 16.00-7.152, 16.00-16.00L 416.00,15.92 z M 448.00,207.92c0.00-8.848-7.152-16.00-16.00-16.00l-128.00,0.00 
	c-8.848,0.00-16.00,7.152-16.00,16.00l0.00,64.00 c0.00,8.848, 7.152,16.00, 16.00,16.00l 128.00,0.00 c 8.848,0.00, 16.00-7.152, 16.00-16.00L 448.00,207.92 z M 184.944,319.936l 147.20,0.00 
	c 25.232,18.096, 49.088,41.648, 51.92,67.312c 1.376,12.528-1.312,30.88-22.00,47.216c-11.472,9.072-23.12,13.664-34.576,13.664
	c-36.512,0.00-57.168-44.768-68.336-84.768c-13.344,50.992-39.104,116.56-83.344,116.56c-12.912,0.00-25.76-5.584-38.256-16.608
	c-24.64-21.792-27.056-44.448-24.752-59.616C 117.968,369.792, 152.08,340.656, 184.944,319.936z M 327.488,409.728c 3.536,0.00, 8.096-2.112, 13.168-6.144
	c 8.256-6.496, 7.792-10.528, 7.664-11.856c-1.536-14.00-27.792-36.00-58.416-54.16C 298.912,376.304, 313.632,409.728, 327.488,409.728z M 160.544,433.76
	c 4.016,3.552, 9.936,7.776, 15.264,7.776c 19.808,0.00, 40.176-52.00, 52.048-102.56c-37.408,19.936-76.08,48.208-79.536,70.896
	C 147.856,413.008, 146.576,421.408, 160.544,433.76z" />
<glyph unicode="&#x65;" d="M 493.664,31.776L 18.32,31.776 c-10.096,0.00-18.304-7.936-18.304-17.744l0.00-28.336 c0.00-9.808, 8.208-17.744, 18.304-17.744l 475.36,0.00 
		c 10.128,0.00, 18.32,7.936, 18.32,17.744l0.00,28.336 C 511.984,23.84, 503.792,31.776, 493.664,31.776zM 341.312,288.24L 170.336,288.24L 127.792,192.432L 383.872,192.432 	zM 283.888,462.864c0.00,0.00-3.36,17.184-26.544,17.184s-26.816-17.776-26.816-17.776l-46.432-141.936l 146.464,0.00 L 283.888,462.864zM 401.632,160.368L 113.04,160.368L 68.608,48.00L 446.08,48.00 	z" />
<glyph unicode="&#x66;" d="M 432.00,112.00L 80.00,112.00 l-48.00-48.00l0.00-16.00 l 16.00-16.00l 144.00,0.00 c0.00-35.344, 28.656-64.00, 64.00-64.00s 64.00,28.656, 64.00,64.00l 144.00,0.00 l 16.00,16.00l0.00,16.00 L 432.00,112.00z M 416.00,240.00
		c0.00,65.60-39.52,121.888-96.00,146.592L 320.00,416.00 c0.00,35.344-28.656,64.00-64.00,64.00s-64.00-28.656-64.00-64.00l0.00-29.408 C 135.52,361.888, 96.00,305.60, 96.00,240.00l0.00-112.00 l 320.00,0.00 L 416.00,240.00 z M 224.00,416.00c0.00,17.664, 14.336,32.00, 32.00,32.00
		s 32.00-14.336, 32.00-32.00L 224.00,416.00 z" />
<glyph unicode="&#x67;" d="M 384.00,272.032l0.00,32.00 c0.00,8.848-7.152,16.00-16.00,16.00L 16.00,320.032 c-8.848,0.00-16.00-7.152-16.00-16.00l0.00-224.016 
			c0.00-2.88, 0.976-5.424, 2.288-7.76C 13.44,12.928, 65.44-32.00, 128.00-32.00l 128.00,0.00 c 40.336,0.00, 76.096,18.832, 99.536,48.00L 384.00,16.00 c 70.688,0.00, 128.00,57.328, 128.00,128.016
			C 512.00,214.72, 454.688,272.032, 384.00,272.032z M 384.00,80.016l0.00,128.016 c 35.344,0.00, 64.00-28.656, 64.00-64.016C 448.00,108.672, 419.344,80.016, 384.00,80.016z M 83.168,343.936
			c-2.384-4.32-2.112-7.888, 2.432-7.888c 4.512,0.00, 10.704,3.584, 12.256,7.856c 15.888,41.424-67.552,75.104-17.136,126.192
			C 85.888,475.392, 87.984,479.968, 83.408,480.00C 78.816,480.048, 69.392,475.68, 64.432,470.528C 15.856,420.624, 105.76,385.552, 83.168,343.936z M 143.60,343.744
			C 143.008,339.616, 145.536,336.048, 150.032,336.048c 4.464,0.00, 8.80,3.568, 9.248,7.664c 3.536,29.664-20.176,56.88-5.936,82.544
			c 0.224,4.64-5.232,9.248-12.304,9.872c-7.056,0.64-13.344-2.864-13.584-7.472C 125.744,395.184, 147.776,373.824, 143.60,343.744z M 214.432,336.048
			c 4.464,0.00, 8.00,3.568, 8.848,7.52c 8.112,38.336, 74.368,50.144, 24.416,118.608c-5.344,7.072-14.832,13.568-19.424,13.632
			c-4.608,0.08-5.008-6.24-1.952-13.232c 49.712-46.912, 1.984-80.576-19.152-119.008C 206.464,339.616, 209.984,336.048, 214.432,336.048z
			 M 278.864,336.048c 4.48,0.00, 7.488,3.60, 8.784,7.808c 12.16,40.688, 149.424,66.992, 34.00,122.992c-12.032,5.696-27.648,10.464-31.056,10.272
			c-3.472-0.24, 4.704-6.144, 14.976-12.592c 94.352-61.84, 6.432-43.184-33.904-120.80C 270.352,339.648, 274.40,336.048, 278.864,336.048z" />
<glyph unicode="&#x68;" d="M 464.00,256.00L 48.00,256.00 c-8.848,0.00-16.00,7.152-16.00,16.00s 7.152,16.00, 16.00,16.00l 32.00,0.00 l 96.00,176.00c0.00,8.848, 7.152,16.00, 16.00,16.00l 32.00,0.00 
	c 8.848,0.00, 16.00-7.152, 16.00-16.00L 144.00,288.00l 224.00,0.00 L 272.00,464.00c0.00,8.848, 7.152,16.00, 16.00,16.00l 48.00,0.00 c 8.848,0.00, 16.00-7.152, 16.00-16.00l 80.00-176.00l 32.00,0.00 c 8.848,0.00, 16.00-7.152, 16.00-16.00S 472.848,256.00, 464.00,256.00z M 48.00,224.00
	l 416.00,0.00 c 8.848,0.00, 16.00-7.152, 16.00-16.00l-32.00-224.00c0.00-8.848-7.152-16.00-16.00-16.00L 80.00-32.00 c-8.848,0.00-16.00,7.152-16.00,16.00L 32.00,208.00C 32.00,216.848, 39.152,224.00, 48.00,224.00z M 352.00,32.00l 32.00,0.00 
	c 8.848,0.00, 16.00,7.152, 16.00,16.00l 16.00,96.00c0.00,8.848-7.152,16.00-16.00,16.00l-32.00,0.00 c-8.848,0.00-16.00-7.152-16.00-16.00l-16.00-96.00C 336.00,39.152, 343.152,32.00, 352.00,32.00z M 224.00,48.00c0.00-8.848, 7.152-16.00, 16.00-16.00
	l 32.00,0.00 c 8.848,0.00, 16.00,7.152, 16.00,16.00l0.00,96.00 c0.00,8.848-7.152,16.00-16.00,16.00l-32.00,0.00 c-8.848,0.00-16.00-7.152-16.00-16.00L 224.00,48.00 z M 112.00,48.00c0.00-8.848, 7.152-16.00, 16.00-16.00l 32.00,0.00 c 8.848,0.00, 16.00,7.152, 16.00,16.00l-16.00,96.00
	c0.00,8.848-7.152,16.00-16.00,16.00L 112.00,160.00 c-8.848,0.00-16.00-7.152-16.00-16.00L 112.00,48.00z" />
<glyph unicode="&#x69;" d="M 78.816,480.00l-32.00,0.00 c-8.832,0.00-16.00-7.152-16.00-16.00l0.00-480.00 c0.00-8.848, 7.168-16.00, 16.00-16.00l 32.00,0.00 c 8.832,0.00, 16.00,7.152, 16.00,16.00
			L 94.816,464.00 C 94.816,472.848, 87.664,480.00, 78.816,480.00z M 478.816,176.00L 478.816,400.00 c0.00,8.848-1.968,16.00-16.00,16.00c-71.152-32.00-320.00,64.00-320.00,64.00c-8.832,0.00-16.00-7.152-16.00-16.00l0.00-240.00 
			c0.00-8.848, 7.168-16.00, 16.00-16.00c0.00,0.00, 176.00-57.136, 320.00-48.00C 490.256,150.864, 478.816,167.152, 478.816,176.00z" />
<glyph unicode="&#x6a;" d="M 384.00,480.00L 128.00,480.00 C 110.336,480.00, 96.00,465.664, 96.00,448.00l0.00-448.00 c0.00-17.664, 14.336-32.00, 32.00-32.00l 256.00,0.00 c 17.664,0.00, 32.00,14.336, 32.00,32.00L 416.00,448.00 
		C 416.00,465.664, 401.664,480.00, 384.00,480.00z M 256.00,0.00c-53.008,0.00-96.00,42.992-96.00,96.00s 42.992,96.00, 96.00,96.00s 96.00-42.992, 96.00-96.00S 309.008,0.00, 256.00,0.00z M 384.00,240.00c0.00-8.848-7.152-16.00-16.00-16.00L 144.00,224.00 
		c-8.832,0.00-16.00,7.152-16.00,16.00L 128.00,432.00 c0.00,8.848, 7.168,16.00, 16.00,16.00l 224.00,0.00 c 8.848,0.00, 16.00-7.152, 16.00-16.00L 384.00,240.00 z M 256.00,128.00c-17.664,0.00-32.00-14.336-32.00-32.00s 14.336-32.00, 32.00-32.00s 32.00,14.336, 32.00,32.00
		S 273.664,128.00, 256.00,128.00z" />
<glyph unicode="&#x6b;" d="M 336.00,32.00c 8.848,0.00, 16.00,7.152, 16.00,16.00L 352.00,272.00 c0.00,8.848-7.152,16.00-16.00,16.00s-16.00-7.152-16.00-16.00l0.00-224.00 C 320.00,39.152, 327.152,32.00, 336.00,32.00zM 176.00,32.00c 8.832,0.00, 16.00,7.152, 16.00,16.00L 192.00,272.00 c0.00,8.848-7.168,16.00-16.00,16.00s-16.00-7.152-16.00-16.00l0.00-224.00 C 160.00,39.152, 167.168,32.00, 176.00,32.00zM 464.00,384.00l-64.00,0.00 L 400.00,416.00 c0.00,35.344-28.656,64.00-64.00,64.00L 176.00,480.00 C 140.656,480.00, 112.00,451.344, 112.00,416.00l0.00-32.00 L 48.00,384.00 L0.00,336.00c0.00-8.848, 7.168-16.00, 16.00-16.00l 48.00,0.00 l0.00-320.00 c0.00-17.664, 14.336-32.00, 32.00-32.00l 320.00,0.00 
		c 17.664,0.00, 32.00,14.336, 32.00,32.00L 448.00,320.00 l 48.00,0.00 c 8.848,0.00, 16.00,7.152, 16.00,16.00L 464.00,384.00z M 160.00,416.00c0.00,17.664, 14.336,32.00, 32.00,32.00l 128.00,0.00 c 17.664,0.00, 32.00-14.336, 32.00-32.00l0.00-32.00 L 160.00,384.00 L 160.00,416.00 z M 416.00,16.00
		c0.00-8.848-7.152-16.00-16.00-16.00L 112.00,0.00 c-8.832,0.00-16.00,7.152-16.00,16.00L 96.00,320.00 l 320.00,0.00 L 416.00,16.00 zM 256.00,32.00c 8.848,0.00, 16.00,7.152, 16.00,16.00L 272.00,272.00 c0.00,8.848-7.152,16.00-16.00,16.00s-16.00-7.152-16.00-16.00l0.00-224.00 C 240.00,39.152, 247.152,32.00, 256.00,32.00z" />
<glyph unicode="&#x6c;" d="M 511.936,479.888L 74.48,207.312l 165.856,0.128L 0.064-31.888l 479.408,305.12l-164.96-0.112
	L 511.936,479.888z" />
<glyph unicode="&#x6d;" d="M 217.296-0.112c 113.632,0.00, 213.936,62.976, 213.936,167.92c0.00,38.288-17.904,61.744-25.408,74.096c-6.256,7.408-6.256,13.584, 8.752,14.816
	c 58.672,8.64, 97.376,40.752, 97.376,102.48c0.00,33.344-27.472,73.44-77.408,73.44c-23.712,0.00-52.688-22.816-52.688-47.504
	c0.00-13.60, 13.984-29.824, 33.952-29.824c 22.48,0.00, 35.216,23.648, 31.472,33.536c-1.232,6.176-5.232,13.584, 3.488,13.584
	c 16.256,0.00, 34.976-20.992, 34.976-40.752c0.00-34.576-32.464-58.336-83.664-58.336c-27.472,0.00-51.184,16.944-77.408,16.944
	c-66.176,0.00-104.88-52.448-104.88-98.144c0.00-51.856, 39.952-76.544, 69.92-76.544c 33.696,0.00, 43.696,19.744, 43.696,35.808
	c0.00,18.512-11.248,30.864-34.976,30.864c-18.72,0.00-27.472-19.744-26.224-29.632c 1.248-4.944-2.496-8.64-6.256-8.64
	c-4.992,0.00-19.968,16.048-19.968,37.024c0.00,14.832, 10.00,63.568, 62.432,63.568c 56.176,0.00, 95.312-51.20, 95.312-93.184
	c0.00-59.264-66.608-122.256-180.224-122.256c-113.632,0.00-178.544,51.856-178.544,127.184c0.00,34.576, 14.992,66.672, 33.696,80.256
	c 7.504,4.944, 11.248,3.696, 14.992-2.464c 8.752-6.176, 28.72-22.816, 41.20-22.816c 16.24,0.00, 24.976,20.336, 24.976,37.648
	c0.00,14.816-17.472,24.992-32.448,24.992s-24.976-8.944-31.216-11.408c-8.736,13.584-13.728,30.864-13.728,44.448c0.00,39.504, 28.72,64.304, 56.192,64.304
	c 23.712,0.00, 43.696-18.608, 39.952-42.08c-1.248-6.176-1.248-11.104, 1.248-11.104c 9.984,0.00, 32.448,14.816, 32.448,41.984
	c0.00,38.272-28.704,58.032-66.176,58.032c-61.168,0.00-98.624-43.216-98.624-88.912c0.00-27.152, 9.984-51.856, 26.224-72.848
	c-24.976-11.104-73.664-53.088-73.664-127.184C 0.048,96.208, 43.744-0.112, 217.296-0.112z" />
<glyph unicode="&#x6e;" d="M 146.304,112.208l 157.44,64.512l 64.512,158.96l-158.944-63.024L 146.304,112.208z
			 M 256.464,255.536c 17.664,0.00, 32.00-14.336, 32.00-32.00s-14.336-32.00-32.00-32.00s-32.00,14.336-32.00,32.00S 238.80,255.536, 256.464,255.536z M 256.00,480.00C 114.608,480.00,0.00,365.392,0.00,224.00
			s 114.608-256.00, 256.00-256.00s 256.00,114.608, 256.00,256.00S 397.392,480.00, 256.00,480.00z M 257.792,31.664c-106.352,0.00-192.56,86.208-192.56,192.544S 151.44,416.768, 257.792,416.768
			c 106.336,0.00, 192.544-86.224, 192.544-192.576S 364.144,31.664, 257.792,31.664z" />
<glyph unicode="&#x6f;" d="M 112.00,96.00L 16.00,96.00 c-8.848,0.00-16.00-7.152-16.00-16.00l0.00-96.00 c0.00-8.848, 7.152-16.00, 16.00-16.00l 96.00,0.00 c 8.848,0.00, 16.00,7.152, 16.00,16.00l0.00,96.00 
			C 128.00,88.848, 120.848,96.00, 112.00,96.00z M 96.00,16.00c0.00-8.848-7.152-16.00-16.00-16.00L 48.00,0.00 c-8.848,0.00-16.00,7.152-16.00,16.00l0.00,32.00 c0.00,8.848, 7.152,16.00, 16.00,16.00l 32.00,0.00 c 8.848,0.00, 16.00-7.152, 16.00-16.00L 96.00,16.00 z
			 M 496.00,64.00L 208.00,64.00 c-8.848,0.00-16.00-7.152-16.00-16.00l0.00-32.00 c0.00-8.848, 7.152-16.00, 16.00-16.00l 288.00,0.00 c 8.848,0.00, 16.00,7.152, 16.00,16.00l0.00,32.00 C 512.00,56.848, 504.848,64.00, 496.00,64.00z M 496.00,256.00L 208.00,256.00 
			c-8.848,0.00-16.00-7.152-16.00-16.00l0.00-32.00 c0.00-8.848, 7.152-16.00, 16.00-16.00l 288.00,0.00 c 8.848,0.00, 16.00,7.152, 16.00,16.00l0.00,32.00 C 512.00,248.848, 504.848,256.00, 496.00,256.00z M 112.00,480.00L 16.00,480.00 C 7.152,480.00,0.00,472.848,0.00,464.00l0.00-96.00 
			c0.00-8.848, 7.152-16.00, 16.00-16.00l 96.00,0.00 c 8.848,0.00, 16.00,23.152, 16.00,32.00L 128.00,464.00 C 128.00,472.848, 120.848,480.00, 112.00,480.00z M 96.00,400.00c0.00-8.848-7.152-16.00-16.00-16.00L 48.00,384.00 C 39.152,384.00, 32.00,391.152, 32.00,400.00L 32.00,432.00 
			c0.00,8.848, 7.152,16.00, 16.00,16.00l 32.00,0.00 c 8.848,0.00, 16.00-7.152, 16.00-16.00L 96.00,400.00 z M 112.00,288.00L 16.00,288.00 c-8.848,0.00-16.00-7.152-16.00-16.00l0.00-96.00 c0.00-8.848, 7.152-16.00, 16.00-16.00l 96.00,0.00 c 8.848,0.00, 16.00,7.152, 16.00,16.00l0.00,96.00 
			C 128.00,280.848, 120.848,288.00, 112.00,288.00z M 96.00,208.00c0.00-8.848-7.152-16.00-16.00-16.00L 48.00,192.00 c-8.848,0.00-16.00,7.152-16.00,16.00l0.00,32.00 c0.00,8.848, 7.152,16.00, 16.00,16.00l 32.00,0.00 c 8.848,0.00, 16.00-7.152, 16.00-16.00L 96.00,208.00 z
			 M 496.00,448.00L 208.00,448.00 c-8.848,0.00-16.00-7.152-16.00-16.00l0.00-32.00 c0.00-8.848, 7.152-16.00, 16.00-16.00l 288.00,0.00 c 8.848,0.00, 16.00,7.152, 16.00,16.00L 512.00,432.00 C 512.00,440.848, 504.848,448.00, 496.00,448.00z" />
<glyph unicode="&#x70;" d="M 112.00,288.00L 16.00,288.00 c-8.848,0.00-16.00-7.152-16.00-16.00l0.00-96.00 c0.00-8.848, 7.152-16.00, 16.00-16.00l 96.00,0.00 c 8.848,0.00, 16.00,7.152, 16.00,16.00l0.00,96.00 
			C 128.00,280.848, 120.848,288.00, 112.00,288.00z M 96.00,208.00c0.00-8.848-7.152-16.00-16.00-16.00L 48.00,192.00 c-8.848,0.00-16.00,7.152-16.00,16.00l0.00,32.00 c0.00,8.848, 7.152,16.00, 16.00,16.00l 32.00,0.00 c 8.848,0.00, 16.00-7.152, 16.00-16.00L 96.00,208.00 z
			 M 112.00,480.00L 16.00,480.00 C 7.152,480.00,0.00,472.848,0.00,464.00l0.00-96.00 c0.00-8.848, 7.152-16.00, 16.00-16.00l 96.00,0.00 c 8.848,0.00, 16.00,23.152, 16.00,32.00L 128.00,464.00 C 128.00,472.848, 120.848,480.00, 112.00,480.00z M 96.00,400.00c0.00-8.848-7.152-16.00-16.00-16.00L 48.00,384.00 
			C 39.152,384.00, 32.00,391.152, 32.00,400.00L 32.00,432.00 c0.00,8.848, 7.152,16.00, 16.00,16.00l 32.00,0.00 c 8.848,0.00, 16.00-7.152, 16.00-16.00L 96.00,400.00 z M 112.00,96.00L 16.00,96.00 c-8.848,0.00-16.00-7.152-16.00-16.00l0.00-96.00 c0.00-8.848, 7.152-16.00, 16.00-16.00l 96.00,0.00 
			c 8.848,0.00, 16.00,7.152, 16.00,16.00l0.00,96.00 C 128.00,88.848, 120.848,96.00, 112.00,96.00z M 96.00,16.00c0.00-8.848-7.152-16.00-16.00-16.00L 48.00,0.00 c-8.848,0.00-16.00,7.152-16.00,16.00l0.00,32.00 c0.00,8.848, 7.152,16.00, 16.00,16.00l 32.00,0.00 
			c 8.848,0.00, 16.00-7.152, 16.00-16.00L 96.00,16.00 z M 304.00,288.00l-96.00,0.00 c-8.848,0.00-16.00-7.152-16.00-16.00l0.00-96.00 c0.00-8.848, 7.152-16.00, 16.00-16.00l 96.00,0.00 c 8.848,0.00, 16.00,7.152, 16.00,16.00l0.00,96.00 
			C 320.00,280.848, 312.848,288.00, 304.00,288.00z M 288.00,208.00c0.00-8.848-7.152-16.00-16.00-16.00l-32.00,0.00 c-8.848,0.00-16.00,7.152-16.00,16.00l0.00,32.00 c0.00,8.848, 7.152,16.00, 16.00,16.00l 32.00,0.00 c 8.848,0.00, 16.00-7.152, 16.00-16.00
			L 288.00,208.00 z M 304.00,96.00l-96.00,0.00 c-8.848,0.00-16.00-7.152-16.00-16.00l0.00-96.00 c0.00-8.848, 7.152-16.00, 16.00-16.00l 96.00,0.00 c 8.848,0.00, 16.00,7.152, 16.00,16.00l0.00,96.00 C 320.00,88.848, 312.848,96.00, 304.00,96.00z M 288.00,16.00
			c0.00-8.848-7.152-16.00-16.00-16.00l-32.00,0.00 c-8.848,0.00-16.00,7.152-16.00,16.00l0.00,32.00 c0.00,8.848, 7.152,16.00, 16.00,16.00l 32.00,0.00 c 8.848,0.00, 16.00-7.152, 16.00-16.00L 288.00,16.00 z M 496.00,288.00l-96.00,0.00 c-8.848,0.00-16.00-7.152-16.00-16.00
			l0.00-96.00 c0.00-8.848, 7.152-16.00, 16.00-16.00l 96.00,0.00 c 8.848,0.00, 16.00,7.152, 16.00,16.00l0.00,96.00 C 512.00,280.848, 504.848,288.00, 496.00,288.00z M 480.00,208.00c0.00-8.848-7.152-16.00-16.00-16.00l-32.00,0.00 c-8.848,0.00-16.00,7.152-16.00,16.00
			l0.00,32.00 c0.00,8.848, 7.152,16.00, 16.00,16.00l 32.00,0.00 c 8.848,0.00, 16.00-7.152, 16.00-16.00L 480.00,208.00 z M 496.00,480.00l-96.00,0.00 c-8.848,0.00-16.00-7.152-16.00-16.00l0.00-96.00 c0.00-8.848, 7.152-16.00, 16.00-16.00l 96.00,0.00 c 8.848,0.00, 16.00,23.152, 16.00,32.00L 512.00,464.00 
			C 512.00,472.848, 504.848,480.00, 496.00,480.00z M 480.00,400.00c0.00-8.848-7.152-16.00-16.00-16.00l-32.00,0.00 c-8.848,0.00-16.00,7.152-16.00,16.00L 416.00,432.00 c0.00,8.848, 7.152,16.00, 16.00,16.00l 32.00,0.00 c 8.848,0.00, 16.00-7.152, 16.00-16.00L 480.00,400.00 z
			 M 304.00,480.00l-96.00,0.00 c-8.848,0.00-16.00-7.152-16.00-16.00l0.00-96.00 c0.00-8.848, 7.152-16.00, 16.00-16.00l 96.00,0.00 c 8.848,0.00, 16.00,23.152, 16.00,32.00L 320.00,464.00 C 320.00,472.848, 312.848,480.00, 304.00,480.00z M 288.00,400.00
			c0.00-8.848-7.152-16.00-16.00-16.00l-32.00,0.00 c-8.848,0.00-16.00,7.152-16.00,16.00L 224.00,432.00 c0.00,8.848, 7.152,16.00, 16.00,16.00l 32.00,0.00 c 8.848,0.00, 16.00-7.152, 16.00-16.00L 288.00,400.00 z M 496.00,96.00l-96.00,0.00 c-8.848,0.00-16.00-7.152-16.00-16.00l0.00-96.00 
			c0.00-8.848, 7.152-16.00, 16.00-16.00l 96.00,0.00 c 8.848,0.00, 16.00,7.152, 16.00,16.00l0.00,96.00 C 512.00,88.848, 504.848,96.00, 496.00,96.00z M 480.00,16.00c0.00-8.848-7.152-16.00-16.00-16.00l-32.00,0.00 c-8.848,0.00-16.00,7.152-16.00,16.00
			l0.00,32.00 c0.00,8.848, 7.152,16.00, 16.00,16.00l 32.00,0.00 c 8.848,0.00, 16.00-7.152, 16.00-16.00L 480.00,16.00 z" />
<glyph unicode="&#x71;" d="M 384.00-32.00L 384.00-32.00c-8.848,0.00-16.00,7.152-16.00,16.00l-160.00,144.00L 128.00,128.00 c-8.832,0.00-16.00,7.152-16.00,16.00l0.00,128.00 
	c0.00,8.848, 7.168,16.00, 16.00,16.00l 80.00,0.00 L 368.00,464.00c0.00,8.848, 7.152,16.00, 16.00,16.00l0.00,0.00c 8.848,0.00, 16.00-7.152, 16.00-16.00l0.00-480.00 C 400.00-24.848, 392.848-32.00, 384.00-32.00z" />
<glyph unicode="&#x72;" d="M 361.04,415.776c-3.008,0.00-5.936-0.336-8.88-0.56l0.00-27.84 
			c 68.656,0.00, 124.32-73.136, 124.32-163.376s-55.664-163.376-124.32-163.376l0.00-27.84 c 2.944-0.224, 5.872-0.56, 8.88-0.56
			C 444.432,32.224, 512.00,118.08, 512.00,224.00S 444.432,415.776, 361.04,415.776z M 432.08,224.00c0.00,55.776-33.888,102.32-79.904,116.88l0.00-38.40 
			c 23.552-14.032, 39.952-43.744, 39.952-78.464s-16.40-64.432-39.952-78.464l0.00-38.40 C 398.192,121.68, 432.08,168.224, 432.08,224.00z M 272.128,480.00
			c-8.848,0.00-16.00-7.152-16.00-16.00L 96.032,288.00L 16.00,288.00 c-8.848,0.00-16.00-7.152-16.00-16.00l0.00-128.00 c0.00-8.848, 7.168-16.00, 16.00-16.00l 80.032,0.00 l 160.08-144.00c0.00-8.848, 7.152-16.00, 16.00-16.00
			c 8.864,0.00, 16.016,7.152, 16.016,16.00L 288.128,464.00 C 288.144,472.848, 280.992,480.00, 272.128,480.00z" />
<glyph unicode="&#x73;" d="M 480.00,480.00L 32.00,480.00 C 14.336,480.00,0.00,465.664,0.00,448.00l0.00-320.00 c0.00-17.664, 14.336-32.00, 32.00-32.00l 128.00,0.00 l-64.00-128.00l 16.00,0.00 l 115.20,128.00l 57.60,0.00 l 115.20-128.00l 16.00,0.00 
		l-64.00,128.00l 128.00,0.00 c 17.664,0.00, 32.00,14.336, 32.00,32.00L 512.00,448.00 C 512.00,465.664, 497.664,480.00, 480.00,480.00z M 480.00,144.00c0.00-8.848-7.152-16.00-16.00-16.00L 48.00,128.00 c-8.848,0.00-16.00,7.152-16.00,16.00L 32.00,432.00 c0.00,8.848, 7.152,16.00, 16.00,16.00
		l 416.00,0.00 c 8.848,0.00, 16.00-7.152, 16.00-16.00L 480.00,144.00 z M 334.048,229.904L 261.712,415.968l-79.008-148.64l-44.096,45.36L 64.00,266.192l 21.056-12.128l 10.128,6.304l 37.68,23.488
		l 57.68-59.392l 66.80,125.648l 73.856-190.064l 62.992,132.608l 25.664-54.624L 448.00,242.752l-53.664,114.112L 334.048,229.904z" />
<glyph unicode="&#x74;" d="M 256.00,352.00c-70.688,0.00-128.00-57.312-128.00-128.00s 57.312-128.00, 128.00-128.00s 128.00,57.312, 128.00,128.00S 326.688,352.00, 256.00,352.00z M 256.00,128.00
			c-53.008,0.00-96.00,42.992-96.00,96.00s 42.992,96.00, 96.00,96.00s 96.00-42.992, 96.00-96.00S 309.008,128.00, 256.00,128.00z M 256.00,480.00C 114.608,480.00,0.00,365.392,0.00,224.00s 114.608-256.00, 256.00-256.00s 256.00,114.608, 256.00,256.00
			S 397.392,480.00, 256.00,480.00z M 256.00,32.00C 149.968,32.00, 64.00,117.968, 64.00,224.00S 149.968,416.00, 256.00,416.00s 192.00-85.968, 192.00-192.00S 362.032,32.00, 256.00,32.00z M 256.00,272.00c-26.512,0.00-48.00-21.488-48.00-48.00
			s 21.488-48.00, 48.00-48.00s 48.00,21.488, 48.00,48.00S 282.512,272.00, 256.00,272.00z" />
<glyph unicode="&#x75;" d="M 287.376,288.736L 287.376,448.00 L 512.00,224.00L 287.376,0.00L 287.376,160.672 C 173.216,160.672, 60.544,140.80,0.00,46.496
	C 6.304,218.352, 134.88,259.264, 287.376,288.736z" />
<glyph unicode="&#x76;" d="M 207.216,32.368c-0.40-0.40-0.816-0.816-1.20-1.216
	c-40.128-38.384-103.952-39.136-142.656-1.536c-41.056,38.64-41.872,94.608, 0.704,137.664c 0.336,0.336, 0.608,0.688, 0.944,1.024
	c 0.40,0.368, 0.784,0.768, 1.168,1.136l 264.32,256.864l0.00-0.112 l 0.064,0.208l 2.096,2.048c 24.416,23.232, 63.136,23.648, 86.624,0.816
	c 14.128-20.128, 23.024-60.624-0.784-84.176l-2.192-2.144l-25.008-24.272l-22.944-22.32L 174.768,108.272l-0.096,0.096l-22.336-21.696
	l-0.608,0.752l-0.56-0.624l-1.104-1.216c-0.096-0.064-0.208-0.128-0.288-0.224c-8.928-8.064-22.704-8.128-31.136,0.064
	c-8.352,8.128-8.336,20.032-0.016,28.896c 0.272,0.256, 0.432,0.56, 0.704,0.816l 24.224,23.552l 177.36,172.336L 296.64,334.56L 119.28,162.192
	l-21.536-23.504l0.00-0.032 c-0.064-0.064-0.128-0.096-0.208-0.192c-0.192-0.192-0.352-0.368-0.544-0.576
	c-22.128-22.096-25.184-54.208-3.36-75.44c 21.84-21.20, 57.632-19.52, 80.352,2.00l 0.032-0.032l 0.448,0.464
	c 0.048,0.032, 0.096,0.064, 0.128,0.096c 0.048,0.032, 0.08,0.096, 0.112,0.128l 240.832,230.016l 24.976,24.304l 2.224,2.128l-0.032,0.032
	c 37.696,37.168, 19.792,106.784, 1.568,131.968c-37.088,36.032-98.144,35.152-136.368-2.016c-0.56-0.528-1.024-1.12-1.568-1.68l-0.064,0.048
	L 41.92,193.008l 0.032-0.032c-0.208-0.224-0.432-0.368-0.656-0.592c-0.368-0.336-0.704-0.784-1.072-1.152l-0.384-0.368l 0.016-0.032
	c-52.432-52.512-53.296-135.088-1.472-185.504c 52.336-50.864, 138.528-49.584, 192.48,2.848c 0.224,0.224, 0.384,0.432, 0.608,0.656l 0.064-0.064
	L 512.00,281.328l-24.256,23.568L 207.216,32.368z" />
<glyph unicode="&#x77;" d="M 208.00,192.00c 8.832,0.00, 16.00,7.152, 16.00,16.00s-7.168,16.00-16.00,16.00s-16.00-7.152-16.00-16.00S 199.168,192.00, 208.00,192.00z M 256.00,256.00
			c 8.848,0.00, 16.00,7.152, 16.00,16.00s-7.152,16.00-16.00,16.00s-16.00-7.152-16.00-16.00S 247.152,256.00, 256.00,256.00z M 208.00,320.00c 8.832,0.00, 16.00,7.152, 16.00,16.00s-7.168,16.00-16.00,16.00s-16.00-7.152-16.00-16.00
			S 199.168,320.00, 208.00,320.00z M 304.00,320.00c 8.848,0.00, 16.00,7.152, 16.00,16.00s-7.152,16.00-16.00,16.00s-16.00-7.152-16.00-16.00S 295.152,320.00, 304.00,320.00z M 160.00,256.00c 8.832,0.00, 16.00,7.152, 16.00,16.00
			s-7.168,16.00-16.00,16.00s-16.00-7.152-16.00-16.00S 151.168,256.00, 160.00,256.00z M 400.00,320.00c 8.848,0.00, 16.00,7.152, 16.00,16.00s-7.152,16.00-16.00,16.00s-16.00-7.152-16.00-16.00S 391.152,320.00, 400.00,320.00z M 352.00,256.00
			c 8.848,0.00, 16.00,7.152, 16.00,16.00s-7.152,16.00-16.00,16.00s-16.00-7.152-16.00-16.00S 343.152,256.00, 352.00,256.00z M 304.00,192.00c 8.848,0.00, 16.00,7.152, 16.00,16.00s-7.152,16.00-16.00,16.00s-16.00-7.152-16.00-16.00
			S 295.152,192.00, 304.00,192.00z M 432.00,288.00c-8.848,0.00-16.00-7.152-16.00-16.00s 7.152-16.00, 16.00-16.00s 16.00,7.152, 16.00,16.00S 440.848,288.00, 432.00,288.00z M 480.00,416.00L 32.00,416.00 C 14.336,416.00,0.00,401.664,0.00,384.00l0.00-320.00 
			c0.00-17.664, 14.336-32.00, 32.00-32.00l 448.00,0.00 c 17.664,0.00, 32.00,14.336, 32.00,32.00L 512.00,384.00 C 512.00,401.664, 497.664,416.00, 480.00,416.00z M 480.00,80.00c0.00-8.848-7.152-16.00-16.00-16.00L 48.00,64.00 c-8.832,0.00-16.00,7.152-16.00,16.00L 32.00,368.00 
			c0.00,8.848, 7.168,16.00, 16.00,16.00l 416.00,0.00 c 8.848,0.00, 16.00-7.152, 16.00-16.00L 480.00,80.00 z M 368.00,128.00L 144.00,128.00 c-8.832,0.00-16.00-7.152-16.00-16.00s 7.168-16.00, 16.00-16.00l 224.00,0.00 c 8.848,0.00, 16.00,7.152, 16.00,16.00
			S 376.848,128.00, 368.00,128.00z M 80.00,288.00c-8.832,0.00-16.00-7.152-16.00-16.00s 7.168-16.00, 16.00-16.00s 16.00,7.152, 16.00,16.00S 88.832,288.00, 80.00,288.00z M 112.00,224.00c-8.832,0.00-16.00-7.152-16.00-16.00s 7.168-16.00, 16.00-16.00
			s 16.00,7.152, 16.00,16.00S 120.832,224.00, 112.00,224.00z M 112.00,320.00c 8.832,0.00, 16.00,7.152, 16.00,16.00S 120.832,352.00, 112.00,352.00S 96.00,344.848, 96.00,336.00S 103.168,320.00, 112.00,320.00z M 400.00,224.00c-8.848,0.00-16.00-7.152-16.00-16.00
			s 7.152-16.00, 16.00-16.00s 16.00,7.152, 16.00,16.00S 408.848,224.00, 400.00,224.00z" />
<glyph unicode="&#x78;" d="M 383.968,329.744l 91.472,91.472c 6.144,6.128, 6.144,16.08,0.00,22.224
		c-6.128,6.128-16.064,6.128-22.208,0.00l-91.488-91.488L 127.968,351.952 l0.00,48.00 c0.00,8.848-7.168,16.00-16.00,16.00l-32.00,0.00 c-8.832,0.00-16.00-7.152-16.00-16.00l0.00-48.00 l-48.00,0.00 c-8.832,0.00-16.00-7.152-16.00-16.00
		l0.00-32.00 c0.00-8.848, 7.168-16.00, 16.00-16.00l 48.00,0.00 l0.00-240.00 c0.00-8.848, 7.168-16.00, 16.00-16.00l 240.00,0.00 l0.00-48.00 c0.00-8.848, 7.152-16.00, 16.00-16.00l 32.00,0.00 c 8.848,0.00, 16.00,7.152, 16.00,16.00l0.00,48.00 l 48.00,0.00 c 8.848,0.00, 16.00,7.152, 16.00,16.00l0.00,32.00 
		c0.00,8.848-7.152,16.00-16.00,16.00l-48.00,0.00 L 383.968,329.744 z M 297.744,287.968L 127.968,118.176L 127.968,287.968 L 297.744,287.968 z M 150.208,95.968l 169.76,169.776l0.00-169.776 L 150.208,95.968 z" />
</font>
</defs>
</svg>
